osu file format v12

[General]
AudioFilename: wave.mp3
AudioLeadIn: 0
PreviewTime: 51301
Countdown: 0
SampleSet: Soft
StackLeniency: 0.7
Mode: 0
LetterboxInBreaks: 1
WidescreenStoryboard: 0

[Editor]
DistanceSpacing: 1.2
BeatDivisor: 4
GridSize: 8
TimelineZoom: 1

[Metadata]
Title:WAVE
TitleUnicode:WAVE
Artist:kradness
ArtistUnicode:kradness
Creator:Xivaxi
Version:Normal
Source:
Tags:niki lily
BeatmapID:258394
BeatmapSetID:90474

[Difficulty]
HPDrainRate:3
CircleSize:3
OverallDifficulty:3
ApproachRate:6
SliderMultiplier:1.4
SliderTickRate:1

[Events]
//Background and Video events
0,0,"kano_resize.png",0,0
//Break Periods
2,70539,76675
2,122232,128367
//Storyboard Layer 0 (Background)
//Storyboard Layer 1 (Fail)
//Storyboard Layer 2 (Pass)
//Storyboard Layer 3 (Foreground)
//Storyboard Sound Samples
//Background Colour Transformations
3,100,163,162,255

[TimingPoints]
11263.5146115812,461.538461538462,4,2,1,100,1,0
51878,-100,4,2,1,100,0,1
58801,-100,4,2,1,100,0,0
59263,-100,4,2,1,100,0,1
66648,-100,4,2,1,100,0,0
103571,-100,4,2,1,100,0,1
110494,-100,4,2,1,100,0,0
110955,-100,4,2,1,100,0,1
118340,-100,4,2,1,100,0,0
147878,-100,4,2,1,100,0,1
154801,-100,4,2,1,100,0,0
155263,-100,4,2,1,100,0,1
162648,-100,4,2,1,100,0,0
184801,-100,4,2,1,50,0,0
186648,-100,4,2,1,40,0,0
188494,-100,4,2,1,30,0,0
190340,-100,4,2,1,20,0,0
192186,-100,4,2,1,10,0,0

[Colours]
Combo1 : 0,128,192
Combo2 : 0,255,255
Combo3 : 0,255,64

[HitObjects]
51,236,11263,6,0,P|101:283|189:269,1,140,4|12,0:0|0:0,0:0:0:0:
308,188,12186,2,0,P|245:148|164:163,1,140,4|12,0:0|0:0,0:0:0:0:
257,304,13109,1,4,0:0:0:0:
339,321,13340,1,0,0:0:0:0:
422,312,13571,2,0,P|460:297|488:262,1,70,12|0,0:0|0:0,0:0:0:0:
411,228,14032,1,4,0:0:0:0:
344,175,14263,1,0,0:0:0:0:
334,91,14494,2,0,P|342:50|360:23,1,70,12|0,0:0|0:0,0:0:0:0:
275,4,14955,6,0,P|215:36|189:106,1,140,4|12,0:0|0:0,0:0:0:0:
155,264,15878,2,0,P|221:227|245:143,1,140,4|12,0:0|0:0,0:0:0:0:
98,87,16801,1,4,0:0:0:0:
49,155,17032,1,0,0:0:0:0:
44,238,17263,2,0,P|54:275|84:305,1,70,12|0,0:0|0:0,0:0:0:0:
129,234,17725,1,4,0:0:0:0:
202,273,17955,1,0,0:0:0:0:
284,256,18186,2,0,L|284:100,1,140,4|4,0:0|1:1,0:0:0:0:
435,43,19109,5,12,0:0:0:0:
478,205,19571,1,4,0:0:0:0:
373,336,20032,2,0,P|294:331|256:271,1,140,12|4,0:0|0:0,0:0:0:0:
341,257,20725,1,0,0:0:0:0:
355,174,20955,2,0,P|319:112|248:104,1,140,12|4,0:0|0:0,0:0:0:0:
272,182,21648,1,0,0:0:0:0:
196,218,21878,2,0,P|121:204|94:145,1,140,12|4,0:0|0:0,0:0:0:0:
232,55,22801,6,0,L|391:55,1,140,12|0,0:0|0:0,0:0:0:0:
502,161,23725,2,0,L|357:160,1,140,12|0,0:0|0:0,0:0:0:0:
277,158,24417,1,0,0:0:0:0:
213,213,24648,2,0,P|146:196|117:137,1,140,12|4,0:0|0:0,0:0:0:0:
200,134,25340,1,0,0:0:0:0:
260,75,25571,2,0,P|297:75|334:95,2,70,12|4|4,0:0|0:0|0:0,0:0:0:0:
92,55,26494,5,12,0:0:0:0:
47,216,26955,1,4,0:0:0:0:
175,324,27417,2,0,P|246:344|309:298,1,140,12|4,0:0|0:0,0:0:0:0:
234,259,28109,1,0,0:0:0:0:
221,175,28340,2,0,P|266:121|352:126,1,140,12|4,0:0|0:0,0:0:0:0:
303,196,29032,1,0,0:0:0:0:
368,248,29263,2,0,P|434:245|473:172,1,140,12|4,0:0|0:0,0:0:0:0:
388,42,30186,6,0,L|219:42,1,140,12|4,0:0|0:0,0:0:0:0:
155,182,31109,2,0,L|155:42,1,140,12|4,0:0|0:0,0:0:0:0:
73,62,31801,1,0,0:0:0:0:
15,122,32032,2,0,P|28:197|96:233,1,140,12|4,0:0|0:0,0:0:0:0:
155,262,32725,1,0,0:0:0:0:
233,232,32955,2,0,P|268:216|288:190,2,70,12|4|4,0:0|0:0|0:0,0:0:0:0:
98,131,33878,5,4,0:0:0:0:
256,73,34340,1,4,0:0:0:0:
414,131,34801,1,4,0:0:0:0:
256,188,35263,2,0,L|407:248,1,140,4|4,0:0|0:0,0:0:0:0:
256,346,36186,2,0,L|125:296,1,140,4|4,0:0|0:0,0:0:0:0:
82,223,36878,1,0,0:0:0:0:
71,138,37109,6,0,P|100:75|164:51,1,140,4|4,0:0|0:0,0:0:0:0:
329,75,38032,2,0,P|298:123|221:139,1,140,4|4,0:0|0:0,0:0:0:0:
327,269,38955,2,0,P|263:305|199:300,2,140,4|4|4,0:0|0:0|0:0,0:0:0:0:
362,192,40109,2,0,P|390:163|428:150,2,70,2|4|8,0:0|0:0|0:0,0:0:0:0:
278,197,40801,5,4,0:0:0:0:
203,157,41032,1,0,0:0:0:0:
276,115,41263,1,8,0:0:0:0:
120,49,41725,2,0,L|54:84,1,70,4|0,0:0|0:0,0:0:0:0:
105,151,42186,1,12,0:0:0:0:
41,306,42648,6,0,P|109:332|175:299,1,140,4|8,0:0|0:0,0:0:0:0:
107,247,43340,1,0,0:0:0:0:
178,202,43571,2,0,P|232:163|307:184,2,140,4|8|4,0:0|0:0|0:0,0:0:0:0:
250,243,44725,1,0,0:0:0:0:
330,266,44955,1,8,0:0:0:0:
413,120,45417,6,0,P|371:70|298:63,1,140,4|8,0:0|0:0,0:0:0:0:
330,140,46109,1,0,0:0:0:0:
246,130,46340,2,0,P|176:132|130:77,1,140,4|8,0:0|0:0,0:0:0:0:
48,70,47032,1,0,0:0:0:0:
60,153,47263,2,0,P|107:194|110:268,1,140,4|8,0:0|0:0,0:0:0:0:
51,327,47955,5,4,0:0:0:0:
131,351,48186,1,4,0:0:0:0:
298,335,48648,1,4,0:0:0:0:
203,196,49109,1,4,0:0:0:0:
370,177,49571,1,4,0:0:0:0:
262,48,50032,1,4,0:0:0:0:
95,68,50494,1,4,0:0:0:0:
36,225,50955,1,4,0:0:0:0:
203,196,51417,5,6,0:0:0:0:
203,196,51648,1,2,0:0:0:0:
247,266,51878,2,0,P|310:299|372:268,2,140,4|8|0,1:1|0:0|0:0,0:0:0:0:
379,162,53263,1,12,0:0:0:0:
379,162,53494,1,2,0:0:0:0:
442,106,53725,2,0,P|383:76|315:106,2,140,4|8|0,0:0|0:0|0:0,0:0:0:0:
401,268,55109,5,12,0:0:0:0:
401,268,55340,1,2,0:0:0:0:
328,310,55571,2,0,P|256:318|183:277,1,140,4|8,0:0|0:0,0:0:0:0:
82,166,56494,2,0,P|151:168|216:218,1,140,4|8,0:0|0:0,0:0:0:0:
373,234,57417,2,0,P|439:201|477:122,1,140,4|8,0:0|0:0,0:0:0:0:
306,175,58340,2,0,P|249:206|203:280,1,140,4|8,0:0|0:0,0:0:0:0:
124,283,59032,1,4,0:0:0:0:
122,198,59263,6,0,P|173:154|202:74,2,140,4|8|0,1:1|0:0|0:0,0:0:0:0:
39,51,60648,1,12,0:0:0:0:
39,51,60878,1,2,0:0:0:0:
28,134,61109,2,0,P|16:200|56:264,2,140,4|8|0,0:0|0:0|0:0,0:0:0:0:
187,79,62494,5,12,0:0:0:0:
187,79,62725,1,2,0:0:0:0:
266,53,62955,2,0,P|334:60|403:107,1,140,4|8,0:0|0:0,0:0:0:0:
277,218,63878,1,4,0:0:0:0:
277,218,64109,1,2,0:0:0:0:
213,273,64340,1,12,0:0:0:0:
213,273,64571,1,2,0:0:0:0:
129,283,64801,6,0,P|71:255|48:178,1,140,4|8,0:0|0:0,0:0:0:0:
130,197,65494,1,2,0:0:0:0:
125,113,65725,2,0,P|152:60|238:47,1,140,4|8,0:0|0:0,0:0:0:0:
208,125,66417,1,2,0:0:0:0:
257,192,66648,6,0,P|303:236|380:228,1,140,4|8,0:0|0:0,0:0:0:0:
334,156,67340,1,2,0:0:0:0:
293,82,67571,2,0,P|360:74|412:123,1,140,4|8,0:0|0:0,0:0:0:0:
447,195,68263,1,2,0:0:0:0:
427,276,68494,2,0,P|393:326|308:328,2,140,4|8|0,0:0|0:0|0:0,0:0:0:0:
286,184,69878,2,0,L|177:72,1,140,4|8,0:0|0:0,0:0:0:0:
204,141,77725,5,4,1:0:0:0:
47,79,78186,1,12,0:0:0:0:
67,245,78648,1,4,0:0:0:0:
218,318,79109,2,0,P|294:327|344:268,1,140,12|4,0:0|0:0,0:0:0:0:
264,245,79801,1,0,0:0:0:0:
184,217,80032,2,0,P|236:163|316:182,1,140,12|4,0:0|0:0,0:0:0:0:
375,195,80725,1,0,0:0:0:0:
427,129,80955,2,0,P|406:48|330:24,1,140,12|4,0:0|0:0,0:0:0:0:
256,156,81878,6,0,L|256:296,1,140,12|4,0:0|0:0,0:0:0:0:
113,207,82801,2,0,L|113:55,1,140,12|4,0:0|0:0,0:0:0:0:
191,36,83494,1,0,0:0:0:0:
265,74,83725,2,0,P|345:80|400:23,1,140,12|4,0:0|0:0,0:0:0:0:
458,92,84417,1,0,0:0:0:0:
452,175,84648,2,0,P|450:217|464:246,2,70,12|4|4,0:0|0:0|0:0,0:0:0:0:
350,309,85571,5,12,0:0:0:0:
182,321,86032,1,4,0:0:0:0:
63,200,86494,1,12,0:0:0:0:
101,124,86725,1,0,0:0:0:0:
163,68,86955,2,0,P|222:26|306:39,1,140,4|8,0:0|0:0,0:0:0:0:
441,96,87878,2,0,P|377:135|301:110,1,140,4|8,0:0|0:0,0:0:0:0:
234,142,88571,5,4,0:0:0:0:
162,185,88801,2,0,P|221:224|303:188,1,140,4|8,0:0|0:0,1:1:0:0:
367,354,89725,2,0,P|307:312|235:314,1,140,4|8,0:0|0:0,0:0:0:0:
161,334,90417,1,4,0:0:0:0:
85,296,90648,2,0,L|6:271,1,70,4|0,0:0|0:0,0:0:0:0:
66,206,91109,2,0,L|2:120,1,70,8|0,0:0|0:0,0:0:0:0:
55,71,91571,1,6,0:0:0:0:
221,89,92032,2,0,P|266:88|301:73,2,70,6|8|4,0:0|0:0|0:0,0:0:0:0:
222,257,92955,5,8,0:0:0:0:
370,335,93417,2,0,P|440:309|467:236,1,140,4|8,0:0|0:0,0:0:0:0:
382,247,94109,1,0,0:0:0:0:
403,165,94340,2,0,P|399:93|342:50,1,140,4|8,0:0|0:0,0:0:0:0:
325,132,95032,1,0,0:0:0:0:
296,210,95263,2,0,P|254:174|255:86,2,140,4|8|4,0:0|0:0|0:0,0:0:0:0:
136,271,96648,5,8,0:0:0:0:
47,128,97109,2,0,P|89:65|170:64,1,140,4|8,0:0|0:0,0:0:0:0:
131,138,97801,1,0,0:0:0:0:
213,119,98032,2,0,P|280:100|332:53,1,140,4|8,0:0|0:0,0:0:0:0:
414,70,98725,1,0,0:0:0:0:
388,149,98955,2,0,P|327:170|271:230,1,140,4|8,0:0|0:0,0:0:0:0:
264,306,99648,5,4,0:0:0:0:
193,260,99878,1,4,0:0:0:0:
32,208,100340,1,4,0:0:0:0:
196,174,100801,1,4,0:0:0:0:
34,126,101263,1,4,0:0:0:0:
198,92,101725,1,4,0:0:0:0:
36,45,102186,1,4,0:0:0:0:
200,9,102648,1,4,0:0:0:0:
358,65,103109,5,6,0:0:0:0:
358,65,103340,1,2,0:0:0:0:
441,69,103571,2,0,P|409:134|333:143,2,140,4|8|4,1:0|0:0|0:0,0:0:0:0:
404,232,104955,1,12,0:0:0:0:
404,232,105186,1,2,0:0:0:0:
323,249,105417,2,0,P|353:298|430:311,2,140,4|8|4,0:0|0:0|0:0,0:0:0:0:
164,194,106801,5,12,0:0:0:0:
164,194,107032,1,2,0:0:0:0:
121,267,107263,2,0,P|79:195|116:124,1,140,4|8,0:0|0:0,0:0:0:0:
219,259,108186,2,0,P|249:192|203:118,1,140,4|8,0:0|0:0,0:0:0:0:
386,90,109109,2,0,P|454:105|490:202,1,140,4|8,0:0|0:0,0:0:0:0:
324,185,110032,2,0,P|361:238|442:251,1,140,4|8,0:0|0:0,0:0:0:0:
409,171,110725,1,4,0:0:0:0:
386,90,110955,6,0,P|352:31|276:20,2,140,4|8|4,1:1|0:0|0:0,0:0:0:0:
245,181,112340,1,8,0:0:0:0:
245,181,112571,1,0,0:0:0:0:
161,188,112801,2,0,P|194:248|277:259,2,140,4|8|4,0:0|0:0|0:0,0:0:0:0:
309,109,114186,1,8,0:0:0:0:
309,109,114417,1,0,0:0:0:0:
290,27,114648,2,0,P|364:47|391:124,1,140,4|8,0:0|0:0,0:0:0:0:
470,248,115571,5,4,0:0:0:0:
470,248,115801,1,2,0:0:0:0:
394,210,116032,1,8,0:0:0:0:
394,210,116263,1,2,0:0:0:0:
397,294,116494,2,0,P|352:338|272:333,1,140,4|8,0:0|0:0,0:0:0:0:
317,261,117186,1,2,0:0:0:0:
314,176,117417,2,0,P|255:201|235:282,1,140,4|8,0:0|0:0,0:0:0:0:
153,239,118109,5,2,0:0:0:0:
135,321,118340,2,0,P|81:284|84:193,1,140,4|8,0:0|0:0,0:0:0:0:
129,151,119032,1,2,0:0:0:0:
210,171,119263,2,0,P|201:101|137:67,1,140,4|8,0:0|0:0,0:0:0:0:
61,61,119955,1,0,0:0:0:0:
45,143,120186,2,0,P|64:209|145:232,2,140,4|8|4,0:0|0:0|0:0,0:0:0:0:
196,104,121571,6,0,L|312:16,1,140,4|4,0:0|0:0,0:0:0:0:
94,19,129417,5,4,1:0:0:0:
173,50,129648,1,0,0:0:0:0:
106,101,129878,1,4,0:0:0:0:
33,252,130340,2,0,P|73:245|103:224,1,70,4|0,0:0|0:0,0:0:0:0:
157,171,130801,1,8,0:0:0:0:
306,247,131263,6,0,P|281:268|244:276,1,70,4|0,0:0|0:0,0:0:0:0:
244,191,131725,2,0,P|274:167|326:157,1,70,8|0,0:0|0:0,0:0:0:0:
376,201,132186,2,0,P|390:238|378:282,1,70,4|0,0:0|0:0,0:0:0:0:
336,335,132648,2,0,P|400:350|460:304,1,140,8|0,0:0|0:0,0:0:0:0:
487,230,133340,1,0,0:0:0:0:
453,152,133571,1,8,0:0:0:0:
287,178,134032,6,0,P|256:162|237:130,1,70,4|0,0:0|0:0,0:0:0:0:
230,48,134494,1,8,0:0:0:0:
72,107,134955,2,0,P|103:105|137:89,1,70,4|0,0:0|0:0,0:0:0:0:
176,185,135417,2,0,P|202:208|238:219,1,70,8|0,0:0|0:0,0:0:0:0:
200,295,135878,2,0,P|224:330|261:353,1,70,4|0,0:0|0:0,0:0:0:0:
330,341,136340,1,4,0:0:0:0:
388,280,136571,1,4,0:0:0:0:
376,197,136801,6,0,L|312:152,1,70,8|0,0:0|0:0,0:0:0:0:
387,107,137263,2,0,L|457:154,1,70,4|0,0:0|0:0,0:0:0:0:
469,65,137725,2,0,L|403:25,1,70,0|0,0:0|0:0,0:0:0:0:
328,51,138186,2,0,P|274:91|191:84,1,140,8|0,0:0|0:0,0:0:0:0:
119,93,138878,5,0,0:0:0:0:
142,173,139109,2,0,P|158:248|102:326,1,140,8|0,0:0|0:0,0:0:0:0:
206,340,139801,1,0,0:0:0:0:
250,268,140032,2,0,P|296:207|371:200,1,140,8|4,0:0|0:0,0:0:0:0:
438,184,140725,1,0,0:0:0:0:
410,263,140955,1,8,0:0:0:0:
361,102,141417,5,4,0:0:0:0:
305,38,141648,1,0,0:0:0:0:
280,118,141878,2,0,P|226:139|144:126,1,140,8|4,0:0|0:0,0:0:0:0:
67,157,142571,1,0,0:0:0:0:
108,229,142801,2,0,P|174:246|247:240,1,140,8|4,0:0|0:0,0:0:0:0:
411,211,143725,5,4,0:0:0:0:
432,130,143955,1,4,0:0:0:0:
492,188,144186,1,4,0:0:0:0:
332,240,144648,1,4,0:0:0:0:
368,76,145109,1,4,0:0:0:0:
256,201,145571,1,4,0:0:0:0:
294,37,146032,1,4,0:0:0:0:
187,167,146494,1,4,0:0:0:0:
224,3,146955,1,4,0:0:0:0:
115,131,147417,5,4,0:0:0:0:
115,131,147648,1,2,0:0:0:0:
65,198,147878,2,0,P|44:262|67:333,2,140,4|8|4,1:1|0:0|0:0,0:0:0:0:
220,262,149263,1,8,0:0:0:0:
220,262,149494,1,2,0:0:0:0:
284,315,149725,2,0,P|298:234|252:184,2,140,4|8|4,0:0|0:0|0:0,0:0:0:0:
415,210,151109,5,8,0:0:0:0:
415,210,151340,1,2,0:0:0:0:
462,140,151571,2,0,P|450:70|388:32,1,140,4|8,0:0|0:0,0:0:0:0:
296,168,152494,2,0,P|236:128|230:54,1,140,4|8,0:0|0:0,0:0:0:0:
98,173,153417,2,0,P|86:243|29:289,1,140,4|8,0:0|0:0,0:0:0:0:
204,290,154340,2,0,P|264:334|337:328,1,140,4|8,0:0|0:0,0:0:0:0:
391,277,155032,1,4,0:0:0:0:
385,196,155263,6,0,P|446:214|474:281,2,140,4|8|4,1:0|0:0|0:0,0:0:0:0:
216,216,156648,1,8,0:0:0:0:
216,216,156878,1,0,0:0:0:0:
131,213,157109,2,0,P|166:145|253:138,2,140,4|8|4,0:0|0:0|0:0,0:0:0:0:
32,80,158494,1,8,0:0:0:0:
32,80,158725,1,2,0:0:0:0:
105,40,158955,2,0,P|170:30|294:68,1,140,4|8,0:0|0:0,0:0:0:0:
391,120,159878,5,4,0:0:0:0:
391,120,160109,1,2,0:0:0:0:
307,108,160340,1,8,0:0:0:0:
307,108,160571,1,2,0:0:0:0:
337,185,160801,2,0,P|300:235|227:249,1,140,4|8,0:0|0:0,0:0:0:0:
250,167,161494,1,2,0:0:0:0:
222,87,161725,2,0,P|176:41|98:43,1,140,4|8,0:0|0:0,0:0:0:0:
141,115,162417,1,2,0:0:0:0:
96,186,162648,6,0,P|110:251|185:284,1,140,4|8,0:0|0:0,0:0:0:0:
181,200,163340,1,2,0:0:0:0:
247,251,163571,2,0,P|314:238|351:181,1,140,4|8,0:0|0:0,0:0:0:0:
267,169,164263,1,2,0:0:0:0:
321,105,164494,2,0,P|383:64|461:74,3,140,4|8|4|8,0:0|0:0|0:0|0:0,0:0:0:0:
441,235,166340,6,0,P|385:279|307:275,1,140,4|8,0:0|0:0,0:0:0:0:
272,209,167032,1,2,0:0:0:0:
231,282,167263,2,0,P|165:319|89:307,1,140,4|8,0:0|0:0,0:0:0:0:
34,264,167955,1,2,0:0:0:0:
59,183,168186,2,0,P|126:156|163:88,2,140,4|8|4,0:0|0:0|0:0,0:0:0:0:
226,166,169571,5,4,0:0:0:0:
226,166,169801,1,4,0:0:0:0:
266,239,170032,2,0,P|307:195|299:119,2,140,4|8|4,1:1|0:0|0:0,0:0:0:0:
230,80,171417,1,8,0:0:0:0:
230,80,171648,1,2,0:0:0:0:
156,119,171878,2,0,P|141:183|189:238,2,140,4|8|4,0:0|0:0|0:0,0:0:0:0:
88,272,173263,1,8,0:0:0:0:
243,336,173725,6,0,P|286:333|328:306,1,70,4|2,0:0|0:0,0:0:0:0:
350,248,174186,2,0,P|389:228|408:195,1,70,8|2,0:0|0:0,0:0:0:0:
368,127,174648,2,0,P|389:96|394:63,1,70,4|2,0:0|0:0,0:0:0:0:
326,13,175109,1,8,0:0:0:0:
22,26,175571,6,0,P|45:59|86:72,1,70,4|0,0:0|0:0,0:0:0:0:
69,154,176032,2,0,P|101:165|145:163,1,70,8|2,0:0|0:0,0:0:0:0:
165,244,176494,2,0,P|207:248|255:229,1,70,4|2,0:0|0:0,0:0:0:0:
310,275,176955,5,4,0:0:0:0:
310,275,177186,1,4,0:0:0:0:
333,355,177417,2,0,P|388:308|379:227,2,140,4|8|4,1:1|0:0|0:0,0:0:0:0:
313,188,178801,1,8,0:0:0:0:
313,188,179032,1,2,0:0:0:0:
292,106,179263,2,0,P|241:142|235:218,2,140,4|8|4,0:0|0:0|0:0,0:0:0:0:
405,180,180648,5,8,0:0:0:0:
262,267,181109,2,0,P|236:291|193:298,2,70,4|0|8,0:0|0:0|0:0,0:0:0:0:
122,173,182032,2,0,P|157:144|217:136,1,70,4|0,0:0|0:0,0:0:0:0:
197,218,182494,1,8,0:0:0:0:
357,268,182955,6,0,P|388:248|400:205,1,70,4|0,0:0|0:0,0:0:0:0:
318,194,183417,2,0,P|287:174|275:144,1,70,8|0,0:0|0:0,0:0:0:0:
355,119,183878,6,0,P|386:99|397:69,1,70,4|0,0:0|0:0,0:0:0:0:
317,43,184340,2,0,L|242:43,1,70,8|0,0:0|0:0,0:0:0:0:
256,192,184801,12,0,192186,0:0:0:0:
