osu file format v14

[General]
AudioFilename: Kradness - Senbonzakura.mp3
AudioLeadIn: 0
PreviewTime: -1
Countdown: 1
SampleSet: Soft
StackLeniency: 0.3
Mode: 0
LetterboxInBreaks: 1
WidescreenStoryboard: 0

[Editor]
DistanceSpacing: 0.5
BeatDivisor: 4
GridSize: 8
TimelineZoom: 2.2

[Metadata]
Title:Senbonzakura
TitleUnicode:Senbonzakura
Artist:kradness
ArtistUnicode:kradness
Creator:cheezstik
Version:Extra
Source:
Tags:
BeatmapID:772549
BeatmapSetID:350412

[Difficulty]
HPDrainRate:6.2
CircleSize:4
OverallDifficulty:8.2
ApproachRate:9.2
SliderMultiplier:1.7
SliderTickRate:1

[Events]
//Background and Video events
0,0,"senbonzakura.jpg",0,0
//Break Periods
2,1961,3248
//Storyboard Layer 0 (Background)
//Storyboard Layer 1 (Fail)
//Storyboard Layer 2 (Pass)
//Storyboard Layer 3 (Foreground)
//Storyboard Sound Samples

[TimingPoints]
1589.7545065499,342.857142857143,4,2,1,100,1,0
6732,-300,4,2,1,100,0,0
7075,-100,4,2,1,100,0,0
36561,-200,4,2,1,100,0,0
38618,-100,4,2,1,100,0,0
42046,-200,4,2,1,100,0,0
44104,-400,4,2,1,100,0,0
44446,-100,4,2,1,100,0,0
44618,-400,4,2,1,100,0,0
45132,-100,4,2,1,100,0,0
53704,-125,4,2,1,100,0,0
54046,-100,4,2,1,100,0,0
54389,-83.3333333333333,4,2,1,100,0,0
54732,-71.4285714285714,4,2,1,100,0,0

[HitObjects]
256,192,1589,5,4,3:0:0:0:
256,192,1761,1,4,3:0:0:0:
256,192,3818,5,4,3:0:0:0:
256,192,4161,5,4,3:0:0:0:
256,192,4246,1,4,3:0:0:0:
256,192,4332,1,4,3:0:0:0:
256,192,4504,1,4,3:0:0:0:
256,192,5532,5,0,3:0:0:0:
256,192,5618,1,0,3:0:0:0:
256,192,5704,2,0,B|195:201|195:201|156:188|156:188|148:156|132:128,1,127.5,4|0,3:0|0:0,0:0:0:0:
207,123,6046,2,0,B|264:114|264:114|303:127|303:127|311:159|310:151,1,127.5,4|0,3:0|0:0,0:0:0:0:
329,236,6389,2,0,L|372:252,1,42.5,4|0,3:0|0:0,0:0:0:0:
474,192,6561,2,0,L|434:177,1,42.5,4|0,3:0|0:0,0:0:0:0:
381,79,6732,2,0,B|389:59|418:45,1,42.5,2|0,1:2|0:0,0:0:0:0:
441,34,7075,5,4,3:0:0:0:
289,2,7246,1,0,0:0:0:0:
220,106,7418,1,10,0:0:0:0:
207,123,7504,1,2,0:0:0:0:
197,209,7589,1,2,0:0:0:0:
175,209,7675,1,2,0:0:0:0:
114,142,7761,6,0,B|93:162|93:162|77:216,1,85,0|0,3:0|0:0,0:0:0:0:
172,302,8104,1,10,0:0:0:0:
186,311,8189,1,2,0:0:0:0:
175,209,8275,1,2,0:0:0:0:
153,222,8361,1,2,0:0:0:0:
207,123,8446,6,0,B|194:99|194:99|165:75|161:42,1,85,0|0,3:0|0:0,0:0:0:0:
280,69,8789,1,10,0:0:0:0:
299,76,8875,1,2,0:0:0:0:
298,134,8961,1,2,0:0:0:0:
317,141,9046,1,2,0:0:0:0:
316,199,9132,2,0,P|339:219|360:249,1,63.75,0|0,3:0|0:0,0:0:0:0:
391,268,9304,2,0,L|422:280,3,28.3333333333333,2|2|2|8,0:0|0:0|0:0|0:0,0:0:0:0:
308,337,9646,1,2,0:0:0:0:
186,311,9818,5,2,3:2:0:0:
77,195,9989,1,2,0:0:0:0:
101,177,10075,1,2,0:0:0:0:
124,158,10161,1,10,0:0:0:0:
196,234,10332,1,2,0:0:0:0:
181,178,10418,1,2,0:0:0:0:
170,121,10504,1,2,3:2:0:0:
170,121,10675,5,2,0:0:0:0:
173,52,10761,5,2,0:0:0:0:
238,33,10846,5,10,0:0:0:0:
276,90,10932,5,2,0:0:0:0:
234,143,11018,5,2,0:0:0:0:
170,121,11104,5,2,0:0:0:0:
173,52,11189,5,2,3:2:0:0:
37,60,11361,2,0,L|1:31,1,28.3333333333333,2|2,0:0|0:0,0:0:0:0:
37,81,11489,2,0,L|0:74,1,28.3333333333333,2|10,0:0|0:0,0:0:0:0:
75,195,11704,6,0,L|105:200,1,21.25,2|0,0:0|0:0,0:0:0:0:
270,256,11875,6,0,L|240:251,1,21.25,2|0,3:2|0:0,0:0:0:0:
124,158,12046,6,0,L|154:163,1,21.25,2|0,3:2|0:0,0:0:0:0:
339,222,12218,6,0,L|319:219,1,21.25,2|0,0:0|0:0,0:0:0:0:
5,228,12389,6,0,L|35:233,1,21.25,2|0,0:0|0:0,0:0:0:0:
388,185,12561,5,4,3:0:0:0:
220,56,12732,1,0,0:0:0:0:
190,224,12904,1,10,0:0:0:0:
202,206,12989,1,2,0:0:0:0:
270,256,13075,1,2,0:0:0:0:
275,235,13161,1,2,0:0:0:0:
221,167,13246,5,0,3:0:0:0:
59,107,13418,1,0,0:0:0:0:
94,322,13589,1,10,0:0:0:0:
93,301,13675,1,2,0:0:0:0:
177,298,13761,1,2,0:0:0:0:
168,278,13846,1,2,0:0:0:0:
110,206,13932,5,0,3:0:0:0:
220,56,14104,1,0,0:0:0:0:
376,121,14275,2,0,L|327:146,1,42.5,10|2,0:0|0:0,0:0:0:0:
184,188,14446,2,0,L|221:168,1,42.5,2|2,0:0|0:0,0:0:0:0:
139,98,14618,2,0,P|92:92|65:108,1,63.75,0|0,3:0|0:0,0:0:0:0:
59,107,14789,2,0,L|47:80,1,28.3333333333333,2|2,0:0|0:0,0:0:0:0:
38,126,14918,2,0,L|15:98,1,28.3333333333333,2|10,0:0|0:0,0:0:0:0:
29,273,15132,1,2,0:0:0:0:
184,188,15304,5,0,3:0:0:0:
38,250,15475,1,0,0:0:0:0:
196,310,15646,1,10,0:0:0:0:
220,320,15732,1,2,0:0:0:0:
231,244,15818,1,2,0:0:0:0:
256,249,15904,1,2,0:0:0:0:
184,188,15989,5,0,3:0:0:0:
330,250,16161,1,0,0:0:0:0:
172,310,16332,1,10,0:0:0:0:
148,320,16418,1,2,0:0:0:0:
137,244,16504,1,2,0:0:0:0:
112,249,16589,1,2,0:0:0:0:
184,188,16675,5,0,3:0:0:0:
38,126,16846,1,0,0:0:0:0:
330,126,17018,1,8,0:0:0:0:
156,189,17189,5,2,0:0:0:0:
137,132,17275,5,2,0:0:0:0:
185,97,17361,5,0,3:0:0:0:
233,132,17446,5,2,0:0:0:0:
215,189,17532,5,2,0:0:0:0:
156,189,17618,5,2,0:0:0:0:
137,132,17704,5,10,0:0:0:0:
330,126,17875,1,2,0:0:0:0:
288,315,18046,5,0,3:0:0:0:
215,189,18218,1,0,0:0:0:0:
83,184,18389,2,0,L|58:228,1,42.5,10|2,0:0|0:0,0:0:0:0:
151,295,18561,2,0,L|126:251,1,42.5,2|2,0:0|0:0,0:0:0:0:
21,297,18732,5,0,3:0:0:0:
215,189,18904,1,0,0:0:0:0:
288,315,19075,2,0,L|301:260,1,42.5,10|2,0:0|0:0,0:0:0:0:
330,126,19246,2,0,L|320:167,1,42.5,2|2,0:0|0:0,0:0:0:0:
137,132,19418,5,0,3:0:0:0:
330,126,19589,1,0,0:0:0:0:
478,210,19761,2,0,L|439:188,1,42.5,10|2,0:0|0:0,0:0:0:0:
384,284,19932,2,0,L|423:262,1,42.5,2|2,0:0|0:0,0:0:0:0:
512,329,20104,2,0,P|475:362|446:377,1,63.75,0|0,3:0|0:0,0:0:0:0:
421,377,20275,2,0,L|386:372,3,28.3333333333333,2|2|2|10,0:0|0:0|0:0|0:0,0:0:0:0:
478,210,20618,1,2,0:0:0:0:
330,126,20789,5,2,3:2:0:0:
299,60,20875,5,2,0:0:0:0:
233,29,20961,5,2,0:0:0:0:
163,48,21046,5,2,0:0:0:0:
122,107,21132,5,10,0:0:0:0:
128,179,21218,5,2,0:0:0:0:
179,230,21304,5,2,0:0:0:0:
251,237,21389,5,2,0:0:0:0:
310,194,21475,6,0,L|328:204,1,21.25,0|0,3:0|0:0,0:0:0:0:
122,107,21646,6,0,L|104:117,1,21.25,0|0,3:0|0:0,0:0:0:0:
396,77,21818,6,0,L|426:93,1,21.25,0|0,3:0|0:0,0:0:0:0:
66,230,21989,6,0,L|34:246,1,21.25,0|0,3:0|0:0,0:0:0:0:
310,194,22161,5,4,3:0:0:0:
310,194,22418,1,4,3:0:0:0:
66,230,22675,5,4,1:0:0:0:
310,194,22846,1,4,3:0:0:0:
396,77,23189,6,0,L|366:61,1,21.25,2|0,1:2|0:0,0:0:0:0:
377,67,23532,5,0,3:0:0:0:
353,57,23618,1,0,0:0:0:0:
327,54,23704,1,0,0:0:0:0:
302,58,23789,1,0,0:0:0:0:
255,101,23875,5,8,0:0:0:0:
229,105,23961,1,0,0:0:0:0:
203,102,24046,1,0,3:0:0:0:
179,92,24132,1,0,0:0:0:0:
139,41,24218,5,0,3:0:0:0:
139,41,24304,1,0,0:0:0:0:
139,41,24389,2,0,P|104:30|82:26,1,42.5,0|0,3:0|0:0,0:0:0:0:
63,130,24561,5,8,0:0:0:0:
63,130,24646,1,0,0:0:0:0:
63,130,24732,2,0,P|91:117|118:109,1,42.5,0|0,3:0|3:0,0:0:0:0:
137,208,24904,5,0,3:0:0:0:
147,214,24989,1,0,0:0:0:0:
159,217,25075,1,0,3:0:0:0:
171,218,25161,1,0,0:0:0:0:
188,205,25246,5,8,0:0:0:0:
234,183,25332,1,0,0:0:0:0:
284,187,25418,1,0,3:0:0:0:
326,215,25504,1,0,0:0:0:0:
353,247,25589,5,2,3:0:0:0:
370,266,25675,1,2,3:0:0:0:
393,274,25761,1,2,3:0:0:0:
418,274,25846,1,0,0:0:0:0:
447,263,25932,6,0,L|455:214,1,42.5
410,123,26104,2,0,L|402:170,1,42.5
326,215,26275,5,0,3:0:0:0:
291,240,26361,1,0,0:0:0:0:
253,259,26446,1,0,0:0:0:0:
227,293,26532,1,0,0:0:0:0:
180,286,26618,5,8,0:0:0:0:
133,294,26704,1,0,0:0:0:0:
88,279,26789,1,0,3:0:0:0:
70,235,26875,1,0,0:0:0:0:
67,179,26961,5,0,3:0:0:0:
92,182,27046,1,0,0:0:0:0:
117,185,27132,1,0,3:0:0:0:
142,188,27218,1,0,3:0:0:0:
159,169,27304,5,8,0:0:0:0:
175,167,27389,1,0,0:0:0:0:
191,165,27475,1,0,0:0:0:0:
207,163,27561,1,0,0:0:0:0:
218,140,27646,5,0,3:0:0:0:
253,116,27732,1,0,0:0:0:0:
295,116,27818,1,0,0:0:0:0:
328,90,27904,1,0,3:0:0:0:
360,63,27989,6,0,P|380:57|409:53,1,42.5,8|0,0:0|0:0,0:0:0:0:
281,20,28161,2,0,P|262:28|237:45,1,42.5
218,140,28332,5,0,3:0:0:0:
237,147,28418,1,0,0:0:0:0:
256,154,28504,1,0,3:0:0:0:
275,161,28589,1,0,0:0:0:0:
294,169,28675,6,0,L|345:166,1,42.5,8|0,0:0|0:0,0:0:0:0:
370,241,28846,2,0,L|422:216,1,42.5
378,319,29018,5,0,3:0:0:0:
336,327,29104,1,0,0:0:0:0:
296,311,29189,1,0,0:0:0:0:
253,311,29275,1,0,0:0:0:0:
211,256,29361,5,8,0:0:0:0:
172,274,29446,1,0,0:0:0:0:
129,269,29532,1,0,3:0:0:0:
88,280,29618,1,0,0:0:0:0:
57,218,29704,5,0,3:0:0:0:
36,223,29789,1,0,0:0:0:0:
69,146,29875,5,0,3:0:0:0:
47,146,29961,1,0,0:0:0:0:
110,75,30046,5,8,0:0:0:0:
88,74,30132,1,0,0:0:0:0:
173,35,30218,5,0,3:0:0:0:
154,23,30304,1,0,0:0:0:0:
186,124,30389,5,0,0:0:0:0:
205,140,30475,1,0,0:0:0:0:
229,147,30561,1,0,3:0:0:0:
254,144,30646,1,0,0:0:0:0:
271,125,30732,5,8,0:0:0:0:
315,99,30818,1,0,0:0:0:0:
365,92,30904,1,0,3:0:0:0:
412,108,30989,1,0,0:0:0:0:
407,154,31075,5,0,3:0:0:0:
382,156,31161,1,0,0:0:0:0:
360,168,31246,1,0,3:0:0:0:
345,189,31332,1,0,0:0:0:0:
347,214,31418,5,8,0:0:0:0:
341,247,31504,1,0,0:0:0:0:
322,285,31589,1,0,0:0:0:0:
275,303,31675,1,0,0:0:0:0:
225,304,31761,6,0,L|181:292,1,42.5,0|0,3:0|0:0,0:0:0:0:
266,232,31932,2,0,L|313:226,1,42.5
158,183,32104,6,0,L|207:172,1,42.5,8|0,0:0|0:0,0:0:0:0:
335,109,32275,2,0,L|289:111,1,42.5,0|0,3:0|0:0,0:0:0:0:
104,82,32446,6,0,L|160:89,1,42.5,0|0,3:0|0:0,0:0:0:0:
359,188,32618,2,0,L|303:178,1,42.5,0|0,3:0|3:0,0:0:0:0:
121,204,32789,6,0,L|179:170,1,42.5,8|0,0:0|0:0,0:0:0:0:
373,90,32961,2,0,L|306:122,1,42.5
256,192,33132,12,0,34161,0:0:0:0:
392,256,34504,5,0,3:0:0:0:
291,121,34675,1,0,0:0:0:0:
297,96,34846,1,0,0:0:0:0:
280,256,35018,1,0,3:0:0:0:
409,96,35189,1,8,0:0:0:0:
403,121,35361,1,0,0:0:0:0:
392,256,35532,1,0,3:0:0:0:
297,96,35704,1,0,0:0:0:0:
202,256,35875,5,0,3:0:0:0:
107,96,36046,1,0,3:0:0:0:
110,82,36132,1,0,3:0:0:0:
114,69,36218,1,0,3:0:0:0:
291,121,36389,1,0,3:0:0:0:
297,96,36475,1,0,3:0:0:0:
303,71,36561,2,0,L|314:24,1,42.5,8|0,0:0|0:0,0:0:0:0:
110,82,36904,1,0,3:0:0:0:
202,256,37075,1,0,0:0:0:0:
21,217,37246,5,0,3:0:0:0:
212,112,37418,1,0,0:0:0:0:
342,286,37589,1,0,0:0:0:0:
216,93,37761,1,0,3:0:0:0:
25,198,37932,2,0,L|34:152,1,42.5,8|0,0:0|0:0,0:0:0:0:
220,74,38275,1,0,3:0:0:0:
37,137,38446,1,0,0:0:0:0:
202,256,38618,6,0,B|229:238|258:245|258:245|286:230,1,85,0|0,3:0|3:0,0:0:0:0:
300,222,38875,1,0,3:0:0:0:
318,211,38961,1,0,3:0:0:0:
220,74,39132,1,0,3:0:0:0:
224,55,39218,1,0,3:0:0:0:
228,36,39304,1,8,0:0:0:0:
130,135,39475,1,0,0:0:0:0:
202,256,39646,1,0,3:0:0:0:
336,200,39818,1,0,0:0:0:0:
358,59,39989,5,0,3:0:0:0:
161,137,40161,1,0,0:0:0:0:
361,201,40332,1,0,0:0:0:0:
228,36,40504,1,0,3:0:0:0:
246,245,40675,1,8,0:0:0:0:
358,59,40846,1,0,3:0:0:0:
161,137,41018,1,0,0:0:0:0:
361,201,41189,1,0,3:0:0:0:
231,358,41361,5,0,3:0:0:0:
91,242,41532,1,0,3:0:0:0:
97,221,41618,1,0,3:0:0:0:
103,200,41704,1,0,3:0:0:0:
253,265,41875,1,0,3:0:0:0:
246,245,41961,1,0,3:0:0:0:
238,225,42046,2,0,L|221:182,1,42.5,8|0,0:0|0:0,0:0:0:0:
44,93,42389,1,0,3:0:0:0:
91,242,42561,1,0,3:0:0:0:
190,117,42732,5,0,3:0:0:0:
190,117,42904,1,0,3:0:0:0:
190,117,43246,1,0,3:0:0:0:
370,53,43418,1,8,0:0:0:0:
133,31,43589,1,0,3:0:0:0:
112,35,43675,1,0,3:0:0:0:
91,39,43761,1,0,3:0:0:0:
190,117,43932,1,0,3:0:0:0:
211,121,44018,1,0,3:0:0:0:
232,125,44104,6,0,L|257:132,1,21.25,4|0,3:0|0:0,0:0:0:0:
133,203,44446,6,0,L|85:216,1,42.5,4|0,3:0|0:0,0:0:0:0:
190,289,44618,6,0,L|238:302,1,42.5,4|0,3:0|0:0,0:0:0:0:
264,207,45132,6,0,L|250:186,1,21.25,2|0,1:2|0:0,0:0:0:0:
264,207,45475,5,0,3:0:0:0:
398,98,45646,2,0,L|418:136,1,28.3333333333333
389,221,45818,1,0,3:0:0:0:
300,71,45989,1,0,0:0:0:0:
191,128,46161,5,0,3:0:0:0:
185,121,46246,1,0,0:0:0:0:
179,114,46332,1,0,0:0:0:0:
173,107,46418,1,0,0:0:0:0:
167,100,46504,1,0,3:0:0:0:
38,82,46675,1,0,0:0:0:0:
9,216,46846,6,0,L|69:203,1,42.5,0|0,3:0|0:0,0:0:0:0:
48,299,47018,1,0,0:0:0:0:
48,299,47104,2,0,P|85:316|108:338,1,56.6666666666667,0|0,0:0|3:0,0:0:0:0:
76,208,47361,1,0,0:0:0:0:
189,304,47532,5,0,3:0:0:0:
206,291,47618,1,0,0:0:0:0:
161,230,47704,5,0,0:0:0:0:
184,220,47789,1,0,0:0:0:0:
147,156,47875,5,0,3:0:0:0:
168,152,47961,1,0,0:0:0:0:
155,76,48046,5,0,0:0:0:0:
178,81,48132,1,0,0:0:0:0:
246,35,48218,5,0,3:0:0:0:
355,127,48389,2,0,L|351:157,1,28.3333333333333
243,133,48561,1,0,3:0:0:0:
359,269,48732,1,0,0:0:0:0:
212,239,48904,1,0,3:0:0:0:
212,239,48989,1,0,0:0:0:0:
212,239,49075,1,0,0:0:0:0:
209,235,49161,2,0,P|185:251|159:258,1,42.5,0|0,0:0|3:0,0:0:0:0:
130,265,49332,1,0,0:0:0:0:
83,265,49418,1,0,0:0:0:0:
35,237,49504,1,0,0:0:0:0:
9,179,49589,5,0,3:0:0:0:
32,154,49675,1,0,0:0:0:0:
54,141,49761,1,0,0:0:0:0:
70,137,49846,1,0,0:0:0:0:
87,137,49932,1,0,3:0:0:0:
111,144,50018,1,0,0:0:0:0:
139,162,50104,1,0,0:0:0:0:
171,170,50189,1,0,0:0:0:0:
202,156,50275,6,0,L|257:130,1,42.5,0|0,3:0|0:0,0:0:0:0:
307,53,50446,2,0,L|252:58,1,42.5
139,129,50618,6,0,L|205:119,1,42.5,0|0,3:0|0:0,0:0:0:0:
365,53,50789,2,0,L|327:74,1,42.5
148,25,50961,5,0,3:0:0:0:
264,56,51132,2,0,L|298:25,1,28.3333333333333
259,207,51304,1,0,3:0:0:0:
392,135,51475,1,0,0:0:0:0:
358,253,51646,1,0,3:0:0:0:
373,258,51732,1,0,0:0:0:0:
388,264,51818,1,0,0:0:0:0:
403,269,51904,1,0,0:0:0:0:
418,275,51989,1,0,3:0:0:0:
277,341,52161,1,0,0:0:0:0:
259,207,52332,5,0,3:0:0:0:
65,207,52504,1,0,0:0:0:0:
150,292,52675,1,0,3:0:0:0:
259,119,52846,1,0,0:0:0:0:
358,253,53018,1,0,3:0:0:0:
354,73,53189,1,0,0:0:0:0:
154,58,53361,1,0,3:0:0:0:
259,207,53532,1,0,0:0:0:0:
52,113,53704,6,0,B|64:126|64:126|113:124|131:163|131:163|133:172,1,102,0|0,3:0|0:0,0:0:0:0:
65,207,54046,6,0,B|37:238|53:266|38:300|109:312|92:266,1,127.5,0|0,3:0|0:0,0:0:0:0:
154,238,54389,6,0,B|187:264|232:242|233:327|279:302|284:276,1,152.999995330811,0|0,3:0|0:0,0:0:0:0:
259,207,54732,6,0,B|211:174|304:114|260:26|234:66,1,178.499994552612,0|0,3:0|0:0,0:0:0:0:
154,58,55075,5,0,3:0:0:0:
334,100,55246,1,2,0:0:0:0:
337,76,55332,1,2,0:0:0:0:
340,52,55418,6,0,L|343:18,1,29.7499990921021,2|0,3:2|0:0,0:0:0:0:
131,165,55589,2,0,L|151:142,1,29.7499990921021,2|0,0:0|0:0,0:0:0:0:
333,202,55761,6,0,L|308:174,1,29.7499990921021,2|0,3:2|0:0,0:0:0:0:
110,230,55932,2,0,L|158:222,1,29.7499990921021,2|0,3:2|0:0,0:0:0:0:
412,147,56104,6,0,L|375:151,1,29.7499990921021,2|0,3:2|0:0,0:0:0:0:
124,57,56275,2,0,L|167:58,1,29.7499990921021,2|0,3:2|0:0,0:0:0:0:
333,202,56446,5,4,3:2:0:0:
445,238,56618,2,0,L|475:281,1,39.6666654561361
336,284,56789,1,0,3:0:0:0:
487,305,56961,1,0,0:0:0:0:
336,364,57132,5,0,3:0:0:0:
312,359,57218,1,0,0:0:0:0:
288,355,57304,1,0,0:0:0:0:
264,351,57389,1,0,0:0:0:0:
240,347,57475,1,0,3:0:0:0:
175,201,57646,1,0,0:0:0:0:
20,177,57818,6,0,L|57:113,1,59.4999981842042,0|0,3:0|0:0,0:0:0:0:
31,319,57989,2,0,L|84:294,1,59.4999981842042
175,201,58161,1,0,3:0:0:0:
165,82,58332,1,0,0:0:0:0:
261,54,58504,5,0,3:0:0:0:
283,62,58589,1,0,0:0:0:0:
257,130,58675,5,0,0:0:0:0:
280,127,58761,1,0,0:0:0:0:
284,201,58846,5,0,3:0:0:0:
299,191,58932,1,0,0:0:0:0:
305,271,59018,5,0,0:0:0:0:
319,261,59104,1,0,0:0:0:0:
368,325,59189,5,0,3:0:0:0:
448,240,59361,2,0,L|493:219,1,39.6666654561361
368,181,59532,1,0,3:0:0:0:
283,62,59704,1,0,0:0:0:0:
254,214,59875,1,0,3:0:0:0:
208,195,59961,1,0,0:0:0:0:
171,167,60046,1,0,0:0:0:0:
136,134,60132,1,0,0:0:0:0:
109,94,60218,2,0,P|95:46|104:1,3,59.4999981842042,0|0|0|0,3:0|0:0|0:0|0:0,0:0:0:0:
182,97,60561,5,0,3:0:0:0:
136,134,60646,1,0,0:0:0:0:
90,173,60732,1,0,0:0:0:0:
58,224,60818,1,0,0:0:0:0:
37,289,60904,5,0,3:0:0:0:
58,298,60989,1,0,0:0:0:0:
74,315,61075,1,0,0:0:0:0:
88,333,61161,1,0,0:0:0:0:
109,344,61246,6,0,L|190:358,1,59.4999981842042,0|0,3:0|0:0,0:0:0:0:
309,234,61418,2,0,L|234:207,1,59.4999981842042
16,272,61589,6,0,L|99:279,1,59.4999981842042,0|0,3:0|0:0,0:0:0:0:
358,163,61761,2,0,L|281:184,1,59.4999981842042
