osu file format v14

[General]
AudioFilename: yuuuuuuuustitia.mp3
AudioLeadIn: 0
PreviewTime: 72334
Countdown: 0
SampleSet: None
StackLeniency: 0.7
Mode: 0
LetterboxInBreaks: 1
WidescreenStoryboard: 0

[Editor]
Bookmarks: 22247
DistanceSpacing: 1.4
BeatDivisor: 4
GridSize: 4
TimelineZoom: 1.6

[Metadata]
Title:Inochi no Justitia
TitleUnicode:命のユースティティア
Artist:kradness
ArtistUnicode:kradness
Creator:-Hanashi-
Version:Hard
Source:
Tags:neru vocaloid utaite cover kagamine len
BeatmapID:820437
BeatmapSetID:366788

[Difficulty]
HPDrainRate:6
CircleSize:3.7
OverallDifficulty:6
ApproachRate:6
SliderMultiplier:1.2
SliderTickRate:1

[Events]
//Background and Video events
0,0,"this is NOT SAO.png",0,0
//Break Periods
//Storyboard Layer 0 (Background)
//Storyboard Layer 1 (Fail)
//Storyboard Layer 2 (Pass)
//Storyboard Layer 3 (Foreground)
//Storyboard Sound Samples

[TimingPoints]
1671,384.615384615385,4,2,0,100,1,0
7055,-133.333333333333,4,2,0,100,0,0
7824,-100,4,2,0,100,0,0
19940,-111.111111111111,4,2,0,100,0,0

[Colours]
Combo1 : 255,111,255
Combo2 : 1,197,254
Combo3 : 175,96,255
Combo4 : 39,231,124
Combo5 : 255,60,60

[HitObjects]
93,120,1671,6,0,L|217:125,1,120,4|0,0:0|0:0,0:0:0:0:
284,115,2247,2,0,P|245:194|315:189,1,180,4|0,0:0|0:0,0:0:0:0:
363,156,3017,1,0,0:0:0:0:
363,156,3209,1,4,0:0:0:0:
149,189,3786,5,0,0:0:0:0:
149,189,3978,2,0,B|67:188,1,60
26,224,4363,2,0,P|26:292|-2:344,1,120,0|4,0:0|0:0,0:0:0:0:
256,192,4844,12,4,6286,0:0:0:0:
184,97,7055,6,0,L|77:106,1,90.0000034332277
57,236,7824,2,0,P|77:300|137:311,1,120,4|0,0:0|0:0,0:0:0:0:
177,180,8594,2,0,L|313:174,1,120
360,208,9171,5,0,0:0:0:0:
363,218,9267,1,0,0:0:0:0:
364,226,9363,2,0,B|315:245|315:245|239:249,1,120
111,295,10132,2,0,P|68:254|62:232,1,60
17,203,10517,2,0,P|23:165|49:133,1,60
80,91,10901,5,0,0:0:0:0:
80,91,11094,1,0,0:0:0:0:
219,57,11478,1,0,0:0:0:0:
219,57,11671,2,0,L|322:72,2,90
219,147,12440,6,0,P|226:201|186:269,1,120
52,260,13209,2,0,P|24:207|31:148,1,120
68,88,13786,1,0,0:0:0:0:
68,88,13882,1,0,0:0:0:0:
68,88,13978,6,0,B|108:104|108:104|208:96,1,120
244,56,14555,2,0,P|316:44|368:56,1,120
340,124,15132,2,0,P|376:128|412:108,1,60
464,144,15517,6,0,L|472:208,2,60
452,72,16094,1,0,0:0:0:0:
248,144,16478,1,0,0:0:0:0:
192,188,16671,2,0,L|104:180,1,60
256,192,16959,12,0,18594,0:0:0:0:
128,152,19940,5,0,0:0:0:0:
128,152,20036,1,0,0:0:0:0:
128,152,20132,2,0,B|148:172|152:204|152:204|200:188|276:208,1,161.999995056153
320,168,20901,2,0,B|400:168|400:168|452:208|428:256,1,161.999995056153
360,244,21671,6,0,L|256:244,1,80.9999975280763
176,288,22247,2,0,P|132:260|68:272,1,107.999996704102
28,212,22824,2,0,L|16:136,1,53.9999983520508
28,84,23209,5,0,0:0:0:0:
136,56,23497,1,0,0:0:0:0:
228,120,23786,1,0,0:0:0:0:
228,120,23978,2,0,B|224:168|260:200,1,80.9999975280763
180,280,24555,2,0,L|128:292,1,53.9999983520508
88,160,25517,6,0,P|136:164|192:124,1,107.999996704102
240,84,26094,1,0,0:0:0:0:
240,84,26286,2,0,P|288:120|344:104,1,107.999996704102
388,60,26863,1,0,0:0:0:0:
388,60,26959,1,0,0:0:0:0:
388,60,27055,2,0,B|432:128|372:180|372:180|304:200,1,188.999994232178
