osu file format v14

[General]
AudioFilename: kradness & Reol - Oni KYOKAN.mp3
AudioLeadIn: 0
PreviewTime: 56295
Countdown: 0
SampleSet: Normal
StackLeniency: 0.7
Mode: 0
LetterboxInBreaks: 0
WidescreenStoryboard: 0

[Editor]
Bookmarks: 1358,25545,56858,91234,143644,158150,204963
DistanceSpacing: 1.2
BeatDivisor: 4
GridSize: 4
TimelineZoom: 1.6

[Metadata]
Title:Oni KYOKAN
TitleUnicode:鬼KYOKAN
Artist:kradness & Reol
ArtistUnicode:kradness & れをる
Creator:Jujuba
Version:Hard
Source:
Tags:vocaloid kagamine Rin and Len IA Jesus-P japanese Utaite Reol kradness cover
BeatmapID:712975
BeatmapSetID:308121

[Difficulty]
HPDrainRate:5
CircleSize:3.5
OverallDifficulty:6
ApproachRate:7
SliderMultiplier:1.4
SliderTickRate:1

[Events]
//Background and Video events
0,0,"BG.jpg",0,0
//Break Periods
2,19732,24233
2,80594,89825
2,133095,142326
//Storyboard Layer 0 (Background)
//Storyboard Layer 1 (Fail)
//Storyboard Layer 2 (Pass)
//Storyboard Layer 3 (Foreground)
//Storyboard Sound Samples

[TimingPoints]
45,375,4,1,1,100,1,0
56858,329.67032967033,4,1,1,100,1,1
66748,-100,4,1,1,100,0,0
67407,-100,4,1,1,100,0,1
80594,-100,4,1,1,100,0,0
90484,375,4,1,1,100,1,0
91234,375,4,1,1,100,1,0
122546,329.67032967033,4,1,1,100,1,1
133095,-100,4,1,1,100,0,0
158150,-100,4,1,1,100,0,1
168040,-100,4,1,1,100,0,0
168699,-100,4,1,1,100,0,1
178754,-100,4,1,1,100,0,0
179249,-100,4,1,1,100,0,1
189139,-100,4,1,1,100,0,0
189798,-100,4,1,1,100,0,1
200348,-100,4,1,1,100,0,0

[Colours]
Combo1 : 0,43,85
Combo2 : 255,128,64
Combo3 : 12,106,175
Combo4 : 132,66,66
Combo5 : 236,236,0
Combo6 : 197,71,207

[HitObjects]
432,224,1358,6,0,P|440:152|388:100,1,140,8|0,0:0|0:0,0:0:0:0:
364,180,1920,2,0,P|332:156|320:116,1,70,2|0,0:0|0:0,0:0:0:0:
324,44,2295,2,0,P|260:68|236:136,1,140,2|2,0:0|0:0,0:0:0:0:
76,96,3045,6,0,P|96:168|156:200,1,140,2|2,0:0|0:0,0:0:0:0:
216,252,3607,2,0,L|244:320,1,70,0|2,0:0|0:0,0:0:0:0:
328,308,3983,2,0,L|268:176,1,140,8|8,0:0|0:0,0:0:0:0:
220,112,4545,6,0,P|288:96|344:140,1,140,2|2,0:0|0:0,0:0:0:0:
204,236,5295,2,0,L|168:300,2,70,2|0|2,0:0|0:0|0:0,0:0:0:0:
148,172,5857,2,0,L|112:232,1,70,0|8,0:0|0:0,0:0:0:0:
256,320,6420,1,2,0:0:0:0:
256,152,6795,2,8,L|256:40,2,105,8|8|12,0:0|0:0|0:0,0:0:0:0:
260,236,7545,6,0,P|196:216|172:152,1,140,2|2,0:0|0:0,0:0:0:0:
88,180,8107,1,0,0:0:0:0:
100,96,8295,2,0,P|144:64|204:68,2,105,2|0|0,0:0|0:0|0:0,0:0:0:0:
88,180,9045,6,0,L|144:224,1,70,2|0,0:0|0:0,0:0:0:0:
120,304,9420,2,0,L|188:316,1,70,2|0,0:0|0:0,0:0:0:0:
224,244,9795,2,0,P|228:188|272:156,2,105,2|0|0,0:0|0:0|0:0,0:0:0:0:
308,232,10545,6,0,P|340:208|344:168,1,70,2|0,0:0|0:0,0:0:0:0:
344,96,10920,2,0,P|334:63|305:44,1,70,2|0,0:0|0:0,0:0:0:0:
264,140,11295,2,0,L|188:140,2,70,2|0|0,0:0|0:0|0:0,0:0:0:0:
224,244,11857,1,0,0:0:0:0:
224,244,12045,6,8,P|260:300|332:308,1,140,8|10,0:0|0:0,0:0:0:0:
368,155,12795,2,8,P|352:203|308:231,2,105,8|8|12,0:0|0:0|0:0,0:0:0:0:
444,120,13545,6,0,P|396:76|316:92,1,140,2|2,0:0|0:0,0:0:0:0:
284,148,14107,1,0,0:0:0:0:
212,108,14295,2,0,P|208:180|260:228,1,140,2|0,0:0|0:0,0:0:0:0:
416,228,15045,6,0,B|416:296|340:296|340:352,1,140,2|2,0:0|0:0,0:0:0:0:
256,340,15607,1,0,0:0:0:0:
172,340,15795,2,0,B|173:295|97:295|97:227,1,140,2|0,0:0|0:0,0:0:0:0:
236,132,16545,6,0,L|376:132,1,140,2|2,0:0|0:0,0:0:0:0:
344,296,17295,2,0,L|308:360,2,70,2|0|0,0:0|0:0|0:0,0:0:0:0:
428,300,17857,2,0,L|420:228,1,70,0|8,0:0|0:0,0:0:0:0:
256,192,18420,1,8,0:0:0:0:
308,32,18795,2,8,P|256:20|204:32,2,105,8|8|12,0:0|0:0|0:0,0:0:0:0:
69,310,25545,6,0,B|96:272|96:272|112:296|136:316|172:320,1,140,8|2,0:0|0:0,0:0:0:0:
340,320,26295,2,0,B|376:316|400:296|416:272|416:272|444:312,1,140,2|0,0:0|0:0,0:0:0:0:
316,200,27045,6,0,P|368:152|436:152,1,140,8|2,0:0|0:0,0:0:0:0:
436,68,27607,1,0,0:0:0:0:
360,28,27795,2,0,P|291:29|241:76,1,140,2|0,0:0|0:0,0:0:0:0:
240,244,28545,6,0,B|220:220|228:188|228:188|208:192|208:192|212:160|184:140,1,140,8|2,0:0|0:0,0:0:0:0:
28,80,29295,2,0,B|48:104|40:136|40:136|60:132|60:132|56:164|84:184,1,140,2|0,0:0|0:0,0:0:0:0:
240,244,30045,6,0,L|316:244,1,70,8|0,0:0|0:0,0:0:0:0:
348,320,30420,2,0,B|416:280|404:180|328:160|328:160|328:76,1,280,2|2,0:0|0:0,0:0:0:0:
176,24,31545,6,0,B|176:88|176:88|160:88|160:88|160:148,1,140,8|2,0:0|0:0,0:0:0:0:
64,160,32295,2,0,B|64:224|64:224|80:224|80:224|80:284,1,140,2|0,0:0|0:0,0:0:0:0:
244,244,33045,6,0,P|196:188|208:120,1,140,8|2,0:0|0:0,0:0:0:0:
276,168,33607,1,0,0:0:0:0:
300,88,33795,2,0,P|352:136|348:208,1,140,2|0,0:0|0:0,0:0:0:0:
460,80,34545,6,0,L|460:156,1,70,0|2,0:0|0:0,0:0:0:0:
460,236,34920,2,0,P|436:300|364:328,1,140,8|2,0:0|0:0,0:0:0:0:
376,244,35482,2,0,P|312:272|292:336,1,140,8|0,0:0|0:0,0:0:0:0:
208,336,36045,6,0,L|208:260,1,70
128,196,36420,2,0,L|128:272,1,70
52,336,36795,2,0,L|52:264,1,70
52,156,37170,2,0,L|52:80,2,70,0|0|4,0:0|0:0|0:0,0:0:0:0:
128,196,37732,5,0,0:0:0:0:
132,112,37920,2,0,P|196:148|208:216,1,140,2|2,0:0|0:0,0:0:0:0:
236,288,38482,1,0,0:0:0:0:
316,264,38670,1,2,0:0:0:0:
316,264,38858,2,0,P|360:212|356:140,1,140,0|2,0:0|0:0,0:0:0:0:
420,88,39420,6,0,L|460:152,1,70,8|0,0:0|0:0,0:0:0:0:
440,228,39795,2,0,L|480:292,1,70,2|0,0:0|0:0,0:0:0:0:
404,328,40170,1,8,0:0:0:0:
324,348,40358,6,0,B|292:336|256:336|220:348|220:348|204:312,1,140,0|2,0:0|0:0,0:0:0:0:
260,252,40920,1,8,0:0:0:0:
180,232,41107,2,0,B|148:244|112:244|76:232|76:232|60:268,1,140
168,132,41857,6,0,P|236:124|272:64,1,140,0|2,0:0|0:0,0:0:0:0:
356,52,42420,2,0,P|388:64|408:104,1,70,8|0,0:0|0:0,0:0:0:0:
336,140,42795,1,2,0:0:0:0:
336,140,42982,1,0,0:0:0:0:
444,192,43170,1,0,0:0:0:0:
444,192,43357,2,0,L|444:264,1,70
364,292,43732,5,0,0:0:0:0:
292,252,43920,2,0,L|228:220,2,70,2|0|2,0:0|0:0|0:0,0:0:0:0:
292,336,44482,1,0,0:0:0:0:
292,336,44670,1,2,0:0:0:0:
216,304,44858,6,0,B|132:264|132:264|120:228|132:204,1,140,0|2,0:0|0:0,0:0:0:0:
52,180,45420,2,0,P|76:148|116:136,1,70,8|0,0:0|0:0,0:0:0:0:
96,52,45795,2,0,P|136:56|164:80,1,70,2|0,0:0|0:0,0:0:0:0:
192,152,46170,1,8,0:0:0:0:
272,136,46357,6,0,B|300:164|300:164|269:175|244:206|244:243,1,140,0|2,0:0|0:0,0:0:0:0:
332,244,46920,1,8,0:0:0:0:
332,244,47107,1,0,0:0:0:0:
348,328,47295,2,0,B|381:322|407:291|413:260|413:260|446:282,1,140,2|8,0:0|0:0,0:0:0:0:
472,196,47857,6,0,P|484:132|440:72,1,140,0|2,0:0|0:0,0:0:0:0:
404,148,48420,2,0,P|368:120|328:112,1,70,8|0,0:0|0:0,0:0:0:0:
272,156,48795,2,8,P|239:144|208:116,2,70,8|0|12,0:0|0:0|0:0,0:0:0:0:
104,160,49545,5,2,0:0:0:0:
192,304,49920,1,2,0:0:0:0:
272,156,50295,1,2,0:0:0:0:
104,160,50670,1,2,0:0:0:0:
244,68,51045,6,0,P|312:72|360:128,1,140,2|0,0:0|0:0,0:0:0:0:
340,204,51607,1,0,0:0:0:0:
340,288,51795,2,0,L|284:332,1,70
236,264,52170,2,0,L|164:276,1,70,2|4,0:0|0:0,0:0:0:0:
180,192,52545,6,0,L|180:48,1,140,2|2,0:0|0:0,0:0:0:0:
24,112,53295,1,2,0:0:0:0:
64,276,53670,1,2,0:0:0:0:
216,344,54045,1,2,0:0:0:0:
208,176,54420,2,0,L|280:176,1,70,2|0,0:0|0:0,0:0:0:0:
336,236,54795,2,8,P|364:172|332:112,1,140,8|12,0:0|0:0,0:0:0:0:
256,192,55545,12,0,56576,0:0:0:0:
192,276,56858,6,0,P|252:252|320:276,1,140,8|2,0:0|0:0,0:0:0:0:
400,248,57352,1,0,0:0:0:0:
396,164,57517,2,0,P|436:172|464:196,2,70,2|0|0,0:0|0:0|0:0,0:0:0:0:
388,80,58011,6,0,P|332:108|316:184,1,140,0|2,0:0|0:0,0:0:0:0:
228,156,58506,1,8,0:0:0:0:
228,156,58671,1,0,0:0:0:0:
208,236,58836,2,0,P|176:224|152:188,1,70,2|0,0:0|0:0,0:0:0:0:
72,220,59165,2,0,P|68:184|88:144,1,70,8|0,0:0|0:0,0:0:0:0:
148,96,59495,6,0,P|204:56|272:64,2,140,0|2|0,0:0|0:0|0:0,0:0:0:0:
228,156,60319,1,8,0:0:0:0:
228,156,60484,1,0,0:0:0:0:
312,160,60649,6,0,B|312:264|312:264|284:296,1,140,0|2,0:0|0:0,0:0:0:0:
364,328,61143,1,8,0:0:0:0:
440,292,61308,2,0,B|416:264|416:264|416:160,1,140
364,96,61803,2,0,L|364:24,1,70,2|0,0:0|0:0,0:0:0:0:
280,32,62132,6,0,L|212:64,1,70,2|0,0:0|0:0,0:0:0:0:
260,136,62462,2,0,L|184:152,1,70,2|0,0:0|0:0,0:0:0:0:
204,232,62792,2,0,L|128:224,1,70,2|0,0:0|0:0,0:0:0:0:
104,304,63121,2,0,L|44:260,1,70,2|0,0:0|0:0,0:0:0:0:
60,180,63451,2,0,P|64:100|124:60,1,140,8|0,0:0|0:0,0:0:0:0:
136,144,63945,1,6,0:0:0:0:
256,264,64275,6,0,L|256:192,2,70,0|2|0,0:0|0:0|0:0,0:0:0:0:
256,348,64770,5,8,0:0:0:0:
404,268,65099,1,8,0:0:0:0:
256,194,65429,1,8,0:0:0:0:
104,268,65759,1,8,0:0:0:0:
124,100,66088,2,0,P|256:64|396:104,1,280,2|4,0:0|0:0,0:0:0:0:
440,172,66912,6,0,P|408:188|372:184,1,70
352,264,67242,1,0,0:0:0:0:
352,264,67407,2,0,P|300:220|304:148,1,140,8|2,0:0|0:0,0:0:0:0:
216,136,67901,2,0,L|148:168,1,70,0|2,0:0|0:0,0:0:0:0:
152,252,68231,2,0,L|216:224,1,70
232,308,68561,6,0,P|172:348|100:336,1,140,0|2,0:0|0:0,0:0:0:0:
64,268,69055,2,0,L|64:196,1,70,8|0,0:0|0:0,0:0:0:0:
140,160,69385,2,0,L|140:88,1,70,2|0,0:0|0:0,0:0:0:0:
224,80,69715,2,0,L|224:8,1,70,8|0,0:0|0:0,0:0:0:0:
304,36,70044,6,8,P|312:104|248:168,2,140,8|2|0,0:0|0:0|0:0,0:0:0:0:
388,20,70868,2,0,P|400:56|400:96,1,70,8|0,0:0|0:0,0:0:0:0:
384,172,71198,6,0,L|420:312,1,140
336,316,71693,2,0,L|316:244,1,70,2|0,0:0|0:0,0:0:0:0:
256,192,72022,1,2,0:0:0:0:
196,248,72187,6,0,L|177:315,2,70,0|2|0,0:0|0:0|0:0,0:0:0:0:
176,164,72682,2,8,B|216:104|216:104|260:104,2,105,8|8|12,0:0|0:0|0:0,0:0:0:0:
344,184,73506,6,0,L|344:108,2,70,0|2|0,0:0|0:0|0:0,0:0:0:0:
404,244,74000,2,8,B|444:184|444:184|488:184,2,105,8|8|12,0:0|0:0|0:0,0:0:0:0:
236,248,74825,6,0,L|236:324,2,70
320,236,75319,6,0,L|348:168,1,70,2|0,0:0|0:0,0:0:0:0:
264,164,75649,2,0,L|260:88,1,70,2|0,0:0|0:0,0:0:0:0:
180,128,75978,2,0,L|144:60,1,70,2|0,0:0|0:0,0:0:0:0:
96,136,76308,2,0,L|36:92,1,70,2|0,0:0|0:0,0:0:0:0:
16,176,76638,2,0,B|32:244|124:296|188:264|252:232|348:268|388:328,1,420,10|8,0:0|0:0,0:0:0:0:
440,164,77956,5,8,0:0:0:0:
188,144,78451,2,8,L|188:72,2,70,8|2|12,0:0|0:0|0:0,0:0:0:0:
324,240,79110,2,8,L|324:312,2,70,8|2|8,0:0|0:0|0:0,0:0:0:0:
292,160,79605,2,8,B|240:176|252:244|192:252,1,140,8|12,0:0|0:0,0:0:0:0:
384,244,91234,6,0,P|328:276|256:268,1,140,8|2,0:0|0:0,0:0:0:0:
376,152,91984,2,0,P|444:176|476:248,1,140,2|0,0:0|0:0,0:0:0:0:
440,308,92546,6,0,B|420:344|380:352,1,70,0|8,0:0|0:0,0:0:0:0:
304,352,92921,2,0,B|270:345|250:309,1,70,0|2,0:0|0:0,0:0:0:0:
256,224,93296,1,0,0:0:0:0:
288,148,93484,2,0,P|216:152|176:212,1,140,2|0,0:0|0:0,0:0:0:0:
100,240,94046,6,0,P|120:272|152:284,2,70,0|8|0,0:0|0:0|0:0,0:0:0:0:
100,156,94609,2,0,P|120:124|152:112,1,70,2|0,0:0|0:0,0:0:0:0:
204,48,94984,2,0,P|156:28|100:44,2,105,2|0|2,0:0|0:0|0:0,0:0:0:0:
224,132,95734,6,0,L|196:196,1,70,8|0,0:0|0:0,0:0:0:0:
276,220,96109,2,0,L|228:328,2,105,2|0|2,0:0|0:0|0:0,0:0:0:0:
312,144,96859,6,0,P|360:196|348:264,1,140,8|8,0:0|0:0,0:0:0:0:
432,268,97421,1,0,0:0:0:0:
480,204,97609,2,0,P|432:152|444:84,1,140,2|2,0:0|0:0,0:0:0:0:
360,64,98171,2,0,L|288:36,1,70
212,48,98546,6,0,L|220:124,1,70,0|8,0:0|0:0,0:0:0:0:
300,136,98921,2,0,L|272:200,1,70,0|2,0:0|0:0,0:0:0:0:
188,196,99296,1,0,0:0:0:0:
168,276,99484,2,0,P|116:236|112:164,1,140,2|0,0:0|0:0,0:0:0:0:
252,256,100234,5,8,0:0:0:0:
252,256,100421,2,0,L|316:288,1,70,0|2,0:0|0:0,0:0:0:0:
416,224,100796,1,0,0:0:0:0:
416,224,100984,2,0,L|352:192,1,70,0|2,0:0|0:0,0:0:0:0:
208,112,101546,6,0,P|144:84|80:112,1,140
144,168,102109,2,0,P|140:204|152:240,1,70,2|0,0:0|0:0,0:0:0:0:
232,248,102484,1,0,0:0:0:0:
316,264,102671,2,0,P|320:300|308:336,2,70,0|2|0,0:0|0:0|0:0,0:0:0:0:
392,228,103234,1,12,0:0:0:0:
336,168,103421,6,0,P|312:136|308:96,1,70,0|2,0:0|0:0,0:0:0:0:
256,40,103796,1,0,0:0:0:0:
200,104,103984,2,0,P|192:137|170:164,1,70,2|0,0:0|0:0,0:0:0:0:
116,100,104359,1,0,0:0:0:0:
80,176,104546,6,0,B|80:240|144:240|144:300,1,140,0|2,0:0|0:0,0:0:0:0:
220,332,105109,2,0,P|228:292|216:256,1,70,8|0,0:0|0:0,0:0:0:0:
304,244,105484,2,0,P|288:208|252:188,1,70,2|0,0:0|0:0,0:0:0:0:
312,124,105859,1,8,0:0:0:0:
340,44,106046,6,0,P|388:88|388:160,1,140,0|2,0:0|0:0,0:0:0:0:
468,192,106609,2,0,P|448:224|420:240,1,70,8|0,0:0|0:0,0:0:0:0:
452,316,106984,2,0,P|412:324|384:312,1,70,2|0,0:0|0:0,0:0:0:0:
336,248,107359,1,8,0:0:0:0:
256,224,107546,6,0,L|256:80,1,140,0|2,0:0|0:0,0:0:0:0:
188,36,108109,2,0,L|120:64,1,70,8|0,0:0|0:0,0:0:0:0:
156,140,108484,2,0,L|92:184,1,70,2|0,0:0|0:0,0:0:0:0:
168,228,108859,2,0,L|132:296,1,70,8|0,0:0|0:0,0:0:0:0:
208,336,109234,1,12,0:0:0:0:
256,268,109421,5,0,0:0:0:0:
316,212,109609,2,0,L|384:244,1,70,2|0,0:0|0:0,0:0:0:0:
460,260,109984,1,2,0:0:0:0:
444,176,110171,2,0,L|376:148,1,70
296,128,110546,6,0,P|228:108|176:64,1,140,0|2,0:0|0:0,0:0:0:0:
132,136,111109,1,8,0:0:0:0:
132,136,111296,1,0,0:0:0:0:
124,220,111484,2,0,P|88:208|56:220,1,70,2|0,0:0|0:0,0:0:0:0:
88,296,111859,5,8,0:0:0:0:
168,320,112046,2,0,P|224:268|232:204,1,140,0|2,0:0|0:0,0:0:0:0:
248,120,112609,2,0,P|240:80|216:48,2,70,8|0|2,0:0|0:0|0:0,0:0:0:0:
316,172,113171,1,0,0:0:0:0:
316,172,113359,1,8,0:0:0:0:
400,188,113546,6,0,B|416:216|416:264|392:288|392:288|352:288,1,140,0|2,0:0|0:0,0:0:0:0:
276,284,114109,2,0,L|200:284,1,70,8|0,0:0|0:0,0:0:0:0:
120,284,114484,2,0,B|86:284|86:284|62:260|62:212|78:184,1,140
104,104,115046,1,0,0:0:0:0:
168,40,115234,5,8,0:0:0:0:
200,204,115609,1,2,0:0:0:0:
324,92,115984,1,2,0:0:0:0:
168,40,116359,1,2,0:0:0:0:
200,204,116734,6,0,P|264:232|304:292,1,140,10|2,0:0|0:0,0:0:0:0:
384,316,117296,2,0,P|388:276|376:240,1,70,2|0,0:0|0:0,0:0:0:0:
464,236,117671,2,0,P|444:192|424:176,1,70,2|0,0:0|0:0,0:0:0:0:
344,168,118046,1,2,0:0:0:0:
324,92,118234,6,0,P|256:80|184:92,1,140,10|2,0:0|0:0,0:0:0:0:
104,236,118984,1,2,0:0:0:0:
272,212,119359,1,2,0:0:0:0:
208,368,119734,1,2,0:0:0:0:
104,236,120109,2,0,P|120:200|120:164,1,70,2|0,0:0|0:0,0:0:0:0:
48,128,120484,2,8,P|108:88|180:108,1,140,10|12,0:0|0:0,0:0:0:0:
256,192,121046,12,0,122171,0:0:0:0:
192,92,122546,6,0,P|252:68|320:92,1,140,8|2,0:0|0:0,0:0:0:0:
404,92,123040,1,0,0:0:0:0:
372,168,123205,2,0,P|408:176|456:152,2,70,2|0|0,0:0|0:0|0:0,0:0:0:0:
360,252,123699,6,0,B|328:284|328:284|296:240|236:248,1,140,0|2,0:0|0:0,0:0:0:0:
256,336,124194,1,8,0:0:0:0:
180,304,124359,1,0,0:0:0:0:
168,220,124524,2,0,P|136:208|112:172,1,70,2|0,0:0|0:0,0:0:0:0:
32,204,124853,2,0,P|28:168|48:128,1,70,8|0,0:0|0:0,0:0:0:0:
116,92,125183,6,0,P|172:48|240:60,2,140,2|8|2,0:0|0:0|0:0,0:0:0:0:
192,128,126007,1,8,0:0:0:0:
276,140,126172,1,0,0:0:0:0:
228,208,126337,6,0,B|228:272|160:264|164:336,1,140,0|2,0:0|0:0,0:0:0:0:
248,344,126831,1,8,0:0:0:0:
308,284,126996,2,0,B|304:221|372:229|372:165,1,140,0|2,0:0|0:0,0:0:0:0:
456,168,127491,2,0,L|456:96,1,70,8|0,0:0|0:0,0:0:0:0:
372,84,127820,6,0,L|312:44,1,70,2|0,0:0|0:0,0:0:0:0:
284,124,128150,2,0,L|216:108,1,70,2|0,0:0|0:0,0:0:0:0:
216,192,128480,2,0,L|140:196,1,70,2|0,0:0|0:0,0:0:0:0:
172,276,128809,2,0,L|100:300,1,70,2|0,0:0|0:0,0:0:0:0:
152,368,129139,2,0,L|284:324,1,140,10|0,0:0|0:0,0:0:0:0:
360,288,129633,1,4,0:0:0:0:
296,132,129963,6,0,L|368:132,2,70,0|2|0,0:0|0:0|0:0,0:0:0:0:
296,48,130458,5,8,0:0:0:0:
256,212,130787,1,8,0:0:0:0:
216,48,131117,1,8,0:0:0:0:
256,212,131447,1,8,0:0:0:0:
256,192,131776,12,4,132765,0:0:0:0:
296,56,143644,6,0,P|280:124|216:156,1,140,8|2,0:0|0:0,0:0:0:0:
52,164,144304,1,2,0:0:0:0:
196,248,144633,1,2,0:0:0:0:
132,92,144963,1,2,0:0:0:0:
96,256,145293,1,0,0:0:0:0:
248,328,145622,6,8,P|288:268|276:200,1,140,10|12,0:0|0:0,0:0:0:0:
444,224,146282,6,0,P|416:160|350:132,1,140,8|2,0:0|0:0,0:0:0:0:
204,56,146941,1,2,0:0:0:0:
212,224,147271,1,2,0:0:0:0:
296,196,147436,1,0,0:0:0:0:
354,132,147600,1,2,0:0:0:0:
204,56,147930,1,2,0:0:0:0:
296,196,148260,6,8,P|252:144|180:140,1,140,10|12,0:0|0:0,0:0:0:0:
268,284,148919,6,0,L|208:328,1,70,8|0,0:0|0:0,0:0:0:0:
188,244,149249,2,0,B|152:272|152:272|100:264|80:212,1,140,2|2,0:0|0:0,0:0:0:0:
140,156,149743,1,0,0:0:0:0:
116,76,149908,2,0,B|80:80|80:80|64:116,2,70,0|0|8,0:0|0:0|0:0,0:0:0:0:
200,92,150403,2,0,L|256:136,1,70,0|2,0:0|0:0,0:0:0:0:
340,136,150732,1,0,0:0:0:0:
412,180,150897,6,0,P|360:220|284:200,1,140,2|6,0:0|0:0,0:0:0:0:
140,156,151556,6,0,L|124:224,1,70,8|0,0:0|0:0,0:0:0:0:
160,300,151886,2,0,P|226:286|276:330,1,140,2|2,0:0|0:0,0:0:0:0:
360,332,152381,2,0,L|340:264,1,70
420,240,152710,2,0,L|380:180,1,70,0|8,0:0|0:0,0:0:0:0:
340,108,153040,2,0,P|372:96|412:104,2,70,0|2|0,0:0|0:0|0:0,0:0:0:0:
292,180,153535,6,0,L|152:180,1,140,2|6,0:0|0:0,0:0:0:0:
256,192,154194,12,4,156831,0:0:0:0:
408,128,157655,6,0,L|408:56,2,70,0|0|2,0:0|0:0|0:0,0:0:0:0:
408,212,158150,2,0,B|360:204|320:172|328:112|328:112|256:84|204:140,2,280,8|8|14,0:0|0:0|0:0,0:0:0:0:
368,284,159633,2,0,P|332:276|304:252,1,70,0|2,0:0|0:0,0:0:0:0:
228,224,159963,1,0,0:0:0:0:
228,224,160128,1,2,0:0:0:0:
204,139,160293,2,0,P|236:127|264:99,2,70
148,200,160787,6,0,P|96:248|88:316,2,140,8|2|10,0:0|0:0|0:0,0:0:0:0:
124,120,161611,1,0,0:0:0:0:
124,120,161776,1,0,0:0:0:0:
184,60,161941,2,0,P|252:68|288:124,1,140,0|2,0:0|0:0,0:0:0:0:
368,92,162436,1,8,0:0:0:0:
452,104,162600,2,0,P|408:168|348:176,1,140,0|2,0:0|0:0,0:0:0:0:
376,256,163095,5,8,0:0:0:0:
376,256,163260,1,0,0:0:0:0:
292,244,163425,2,0,L|272:320,1,70,2|0,0:0|0:0,0:0:0:0:
204,268,163754,2,0,L|221:200,1,70,2|0,0:0|0:0,0:0:0:0:
136,208,164084,2,0,L|116:284,1,70,2|0,0:0|0:0,0:0:0:0:
48,232,164414,2,0,L|65:164,1,70,2|0,0:0|0:0,0:0:0:0:
136,120,164743,6,0,B|180:80|236:128|268:72,1,140,8|2,0:0|0:0,0:0:0:0:
263,78,165238,1,0,0:0:0:0:
344,224,165567,2,0,L|288:268,2,70,0|2|0,0:0|0:0|0:0,0:0:0:0:
428,240,166062,5,8,0:0:0:0:
276,168,166392,1,8,0:0:0:0:
412,72,166721,1,8,0:0:0:0:
428,240,167051,1,8,0:0:0:0:
276,168,167381,1,12,0:0:0:0:
276,168,167546,2,0,L|160:252,1,140
144,164,168040,1,0,0:0:0:0:
168,84,168205,6,0,P|192:56|228:48,2,70,0|2|0,0:0|0:0|0:0,0:0:0:0:
144,164,168699,2,0,B|119:158|97:140|87:111|87:111|31:133,1,140,8|2,0:0|0:0,0:0:0:0:
56,216,169194,1,0,0:0:0:0:
136,248,169359,2,0,L|176:312,1,70,2|0,0:0|0:0,0:0:0:0:
256,312,169688,1,0,0:0:0:0:
340,320,169853,6,0,B|332:244|332:244|272:220,1,140,0|2,0:0|0:0,0:0:0:0:
196,180,170348,2,0,B|220:152|220:152|260:140,1,70,8|0,0:0|0:0,0:0:0:0:
336,132,170677,2,0,B|332:96|332:96|296:72,1,70,2|0,0:0|0:0,0:0:0:0:
372,28,171007,1,8,0:0:0:0:
452,56,171172,1,0,0:0:0:0:
428,136,171337,6,8,L|492:264,2,140,8|10|8,0:0|0:0|0:0,0:0:0:0:
372,200,172161,2,0,L|404:268,1,70
316,268,172491,2,0,P|284:192|308:140,1,140
248,80,172985,1,2,0:0:0:0:
248,80,173150,1,4,0:0:0:0:
184,236,173480,6,0,L|184:160,2,70
184,344,173974,2,8,P|144:372|88:368,2,105,8|8|12,0:0|0:0|0:0,0:0:0:0:
328,236,174798,6,0,L|328:160,2,70,0|2|0,0:0|0:0|0:0,0:0:0:0:
328,344,175292,2,8,P|372:372|428:368,2,105,8|8|12,0:0|0:0|0:0,0:0:0:0:
256,192,176117,5,0,0:0:0:0:
256,192,176282,2,0,L|256:120,1,70
332,84,176611,6,0,L|400:112,2,70,8|0|0,0:0|0:0|0:0,0:0:0:0:
352,184,177106,2,0,L|420:212,2,70,8|0|0,0:0|0:0|0:0,0:0:0:0:
372,284,177600,2,0,L|440:312,2,70,8|0|0,0:0|0:0|0:0,0:0:0:0:
288,276,178095,6,8,L|288:352,2,70,8|10|8,0:0|0:0|0:0,0:0:0:0:
208,296,178589,1,0,0:0:0:0:
128,324,178754,2,0,P|79:276|75:199,1,140,8|2,0:0|0:0,0:0:0:0:
156,188,179249,6,0,P|152:116|200:60,1,140,8|2,0:0|0:0,0:0:0:0:
276,68,179743,2,0,P|272:32|244:-4,2,70,0|2|0,0:0|0:0|0:0,0:0:0:0:
228,140,180238,1,0,0:0:0:0:
308,180,180403,6,0,L|308:320,1,140,0|2,0:0|0:0,0:0:0:0:
392,324,180897,2,0,L|392:252,1,70,8|0,0:0|0:0,0:0:0:0:
468,216,181227,2,0,L|420:160,1,70,2|0,0:0|0:0,0:0:0:0:
464,88,181556,2,0,L|392:56,1,70,8|0,0:0|0:0,0:0:0:0:
324,100,181886,6,8,B|256:120|256:120|188:100,2,140,8|10|8,0:0|0:0|0:0,0:0:0:0:
324,184,182710,2,0,L|324:256,1,70
240,268,183040,6,0,P|204:328|136:343,1,140,0|2,0:0|0:0,0:0:0:0:
155,260,183535,1,8,0:0:0:0:
70,248,183699,2,0,P|106:190|173:176,1,140
256,28,184359,6,0,L|256:104,1,70,0|10,0:0|0:0,0:0:0:0:
340,100,184688,2,0,L|308:168,1,70,0|2,0:0|0:0,0:0:0:0:
384,200,185018,2,0,L|332:252,1,70,0|2,0:0|0:0,0:0:0:0:
392,312,185348,2,0,L|320:336,2,70,0|2|0,0:0|0:0|0:0,0:0:0:0:
456,256,185842,6,0,P|468:176|436:124,1,140,8|0,0:0|0:0,0:0:0:0:
408,48,186337,1,6,0:0:0:0:
256,116,186666,6,0,P|224:96|188:96,2,70,0|2|0,0:0|0:0|0:0,0:0:0:0:
320,172,187161,1,8,0:0:0:0:
156,208,187491,1,8,0:0:0:0:
272,332,187820,1,8,0:0:0:0:
320,172,188150,1,8,0:0:0:0:
192,284,188480,6,0,P|160:300|124:288,2,70
260,232,188974,2,2,P|304:120|176:72,1,280
220,152,189798,6,0,P|156:176|88:148,1,140,8|2,0:0|0:0,0:0:0:0:
28,208,190293,1,0,0:0:0:0:
100,248,190458,2,0,P|140:260|181:250,1,70,2|0,0:0|0:0,0:0:0:0:
252,252,190787,1,0,0:0:0:0:
304,184,190952,6,0,P|324:120|392:96,1,140,0|2,0:0|0:0,0:0:0:0:
388,180,191447,1,8,0:0:0:0:
388,180,191611,1,0,0:0:0:0:
460,224,191776,2,0,P|436:252|404:260,1,70
440,336,192106,2,0,P|408:348|368:332,1,70
292,328,192436,6,8,P|220:332|168:276,2,140,8|10|8,0:0|0:0|0:0,0:0:0:0:
252,252,193260,2,0,P|232:220|192:204,1,70
120,224,193589,6,0,P|100:160|120:88,1,140
180,36,194084,2,0,P|200:64|200:104,1,70,2|0,0:0|0:0,0:0:0:0:
240,172,194414,1,2,0:0:0:0:
320,152,194578,6,0,L|352:88,2,70
340,256,195073,2,8,P|404:236|440:248,2,105,8|8|12,0:0|0:0|0:0,0:0:0:0:
192,152,195897,6,0,L|160:88,2,70
176,256,196392,2,8,P|112:236|76:248,2,105,8|8|12,0:0|0:0|0:0,0:0:0:0:
328,304,197216,6,0,L|384:260,1,70,0|2,0:0|0:0,0:0:0:0:
324,200,197546,2,0,L|384:148,1,70,0|2,0:0|0:0,0:0:0:0:
128,200,198205,2,0,L|68:148,1,70,0|12,0:0|0:0,0:0:0:0:
256,192,198864,12,0,200018,0:0:0:0:
256,192,200348,5,8,0:0:0:0:
464,52,200842,2,0,L|464:124,2,70,0|2|0,0:0|0:0|0:0,0:0:0:0:
372,192,201502,2,0,L|372:264,2,70,0|2|6,0:0|0:0|0:0,0:0:0:0:
300,148,201996,6,0,P|232:148|176:200,1,140,2|0,0:0|0:0,0:0:0:0:
104,44,202655,2,0,P|60:96|64:168,1,140,2|12,0:0|0:0,0:0:0:0:
304,260,203480,6,0,L|376:260,2,70,0|2|6,0:0|0:0|0:0,0:0:0:0:
208,124,204139,2,0,L|136:124,2,70,0|2|0,0:0|0:0|0:0,0:0:0:0:
292,132,204633,2,0,B|292:192|220:192|220:252,1,140,10|12,0:0|0:0,0:0:0:0:
