osu file format v13

[General]
AudioFilename: Sensitive Heart-yokan.mp3
AudioLeadIn: 0
PreviewTime: 139930
Countdown: 0
SampleSet: Soft
StackLeniency: 0.7
Mode: 0
LetterboxInBreaks: 1
WidescreenStoryboard: 1

[Editor]
Bookmarks: 37240,61240,85240,112240,163240
DistanceSpacing: 1.4
BeatDivisor: 4
GridSize: 4
TimelineZoom: 2.1

[Metadata]
Title:Yokan
TitleUnicode:予感
Artist:koutaq
ArtistUnicode:koutaq
Creator:Streliteela
Version:Normal
Source:
Tags:COMIC MARKET Sensitive Heart 二胡陽炎 千秋恋歌
BeatmapID:420911
BeatmapSetID:173531

[Difficulty]
HPDrainRate:3
CircleSize:3
OverallDifficulty:3
ApproachRate:4
SliderMultiplier:1.2
SliderTickRate:2

[Events]
//Background and Video events
0,0,"BG.jpg",0,0
//Break Periods
2,112005,113110
//Storyboard Layer 0 (Background)
//Storyboard Layer 1 (Fail)
//Storyboard Layer 2 (Pass)
//Storyboard Layer 3 (Foreground)
//Storyboard Sound Samples
//Background Colour Transformations
3,100,163,162,255

[TimingPoints]
31180,750,4,2,1,30,1,0
34180,-100,4,2,1,35,0,0
35680,-100,4,2,1,40,0,0
37180,-100,4,2,1,50,0,0
37555,-100,4,2,1,30,0,0
37930,-100,4,2,1,50,0,0
38305,-100,4,2,1,30,0,0
38680,-100,4,2,1,50,0,0
40930,-100,4,2,4,50,0,0
42055,-100,4,2,1,30,0,0
42805,-100,4,2,1,50,0,0
58930,-100,4,2,2,50,0,0
61180,-100,4,1,1,80,0,1
67180,-100,4,1,1,60,0,1
67555,-100,4,1,1,80,0,1
84430,-100,4,2,1,50,0,0
89680,-100,4,2,3,50,0,0
90055,-100,4,2,1,50,0,0
95680,-100,4,2,3,50,0,0
96055,-100,4,2,1,50,0,0
101680,-100,4,2,3,50,0,0
102055,-100,4,2,1,5,0,0
102430,-100,4,2,1,50,0,0
107680,-100,4,2,3,50,0,0
108055,-100,4,2,1,50,0,0
114430,-100,4,2,1,30,0,0
125680,-100,4,2,3,30,0,0
126430,-100,4,2,1,30,0,0
131680,-100,4,2,3,30,0,0
132055,-100,4,2,1,30,0,0
138430,-100,4,2,1,35,0,0
139930,-100,4,2,2,80,0,0
140680,-100,4,1,1,80,0,1
146680,-100,4,1,1,60,0,1
147430,-100,4,1,1,80,0,1
161680,-100,4,2,1,60,0,0

[Colours]
Combo1 : 165,22,165
Combo2 : 255,128,0
SliderBorder : 255,255,255

[HitObjects]
108,292,31180,5,0,0:0:0:0:
85,210,31555,2,0,L|67:143,2,60,0|8|0,0:0|0:0|0:0,0:0:0:0:
167,192,32680,1,0,0:0:0:0:
249,208,33055,2,0,L|267:282,2,60,0|8|0,0:0|0:0|0:0,0:0:0:0:
330,185,34180,5,0,0:0:0:0:
414,204,34555,2,0,L|396:130,2,60,0|8|0,0:0|0:0|0:0,0:0:0:0:
361,272,35680,1,0,0:0:0:0:
278,258,36055,2,0,L|298:322,2,60,0|8|0,0:0|0:0|0:0,0:0:0:0:
253,178,37180,6,0,P|192:157|142:178,2,120,4|2|8,0:0|0:1|0:0,0:0:0:0:
100,248,39430,2,0,L|30:231,1,60,8|0,0:0|0:0,0:0:0:0:
81,156,40180,2,0,L|160:172,1,60,8|0,0:0|0:0,0:0:0:0:
217,200,40930,2,0,P|223:168|216:142,1,60,10|0,0:2|0:0,0:0:0:0:
299,114,41680,2,0,P|309:191|281:291,1,180,8|0,0:0|0:0,0:0:0:0:
199,297,43180,6,0,P|224:348|281:371,1,120,8|2,0:0|0:1,0:0:0:0:
282,288,44305,1,0,0:0:0:0:
364,273,44680,2,0,P|322:215|260:207,1,120,8|0,0:0|0:0,0:0:0:0:
194,194,45805,1,0,0:0:0:0:
110,193,46180,2,0,P|130:137|181:110,2,120,8|2|8,0:0|0:1|0:0,0:0:0:0:
68,357,48430,2,0,L|51:272,1,60,8|0,0:0|0:0,0:0:0:0:
139,311,49180,6,0,L|153:242,1,60,8|0,0:0|0:0,0:0:0:0:
222,295,49930,2,0,B|260:282|291:296|291:296|362:296,1,120,2|8,0:1|0:0,0:1:0:0:
250,153,51430,2,0,B|215:160|185:144|186:143|186:143|132:143,1,120,8|8,0:0|0:0,0:0:0:0:
285,82,52930,1,2,0:1:0:0:
218,236,53680,1,8,0:0:0:0:
285,82,54430,6,0,P|337:106|370:172,1,120,8|8,0:0|0:0,0:0:0:0:
193,137,55930,2,0,P|195:101|182:66,1,60,2|0,0:1|0:0,0:0:0:0:
105,46,56680,2,0,B|74:75|123:136|86:166,1,120,8|0,0:0|0:0,0:0:0:0:
86,241,57805,1,0,0:0:0:0:
91,160,58180,2,0,P|148:190|166:246,1,120
233,289,59305,2,0,P|207:316|163:315,2,60,0|0|0,0:0|0:0|0:0,0:0:0:0:
255,208,60430,6,0,P|241:133|279:84,1,120,0|4,0:0|0:0,0:0:0:0:
112,20,61930,2,0,P|133:74|111:129,1,120,8|4,0:0|0:0,0:0:0:0:
112,297,63430,6,0,P|97:268|102:223,1,60,8|0,0:0|0:0,0:0:0:0:
156,181,64180,2,0,P|188:182|225:209,1,60,4|0,0:0|0:0,0:0:0:0:
236,275,64930,2,0,P|218:302|176:320,2,60,8|0|4,0:0|0:0|0:0,0:0:0:0:
278,198,66055,1,0,0:0:0:0:
289,114,66430,1,8,0:0:0:0:
232,51,66805,1,0,0:0:0:0:
232,52,67180,6,0,L|184:87,1,60,4|0,0:0|0:0,0:0:0:0:
114,39,67930,2,0,L|101:103,1,60,8|0,0:0|0:0,0:0:0:0:
18,108,68680,2,0,L|55:164,1,60,4|0,0:0|0:0,0:0:0:0:
0,224,69430,2,0,L|82:248,1,60,8|0,0:0|0:0,0:0:0:0:
140,226,70180,2,0,P|132:291|85:323,2,120,4|8|4,0:0|0:0|0:0,0:0:0:0:
225,81,72430,6,0,P|166:96|138:150,1,120,8|4,0:0|0:0,0:0:0:0:
306,147,73930,2,0,L|384:131,1,60,8|0,0:0|0:0,0:0:0:0:
406,208,74680,2,0,B|349:221|349:221|313:274,1,120,4|8,0:0|0:0,0:0:0:0:
292,353,75805,1,0,0:0:0:0:
230,295,76180,6,0,P|174:273|122:294,2,120,4|8|4,0:0|0:0|0:0,0:0:0:0:
177,360,78055,1,0,0:0:0:0:
94,376,78430,1,8,0:0:0:0:
38,312,78805,1,0,0:0:0:0:
78,233,79180,6,0,P|122:193|138:136,1,120,4|8,0:0|0:0,0:0:0:0:
114,55,80305,1,0,0:0:0:0:
195,35,80680,2,0,L|269:16,1,60,4|0,0:0|0:0,0:0:0:0:
279,99,81430,2,0,L|215:117,1,60,8|0,0:0|0:0,0:0:0:0:
256,192,82180,12,2,84430,0:1:0:0:
154,144,85180,6,0,P|212:126|281:155,1,120,8|2,0:0|0:1,0:0:0:0:
342,105,86305,1,0,0:0:0:0:
422,128,86680,2,0,P|384:178|325:189,1,120,8|8,0:0|0:2,0:0:0:0:
255,341,88180,6,0,P|293:292|355:281,2,120,8|2|2,0:0|0:1|0:0,0:0:0:0:
173,318,90055,1,0,0:0:0:0:
115,257,90430,1,0,0:0:0:0:
92,176,90805,1,0,0:0:0:0:
101,92,91180,2,0,P|48:104|12:155,1,120,8|2,0:0|0:1,0:0:0:0:
176,123,92680,5,8,0:0:0:0:
255,95,93055,1,0,0:0:0:0:
335,119,93430,2,0,P|398:134|454:113,1,120,8|8,0:0|0:0,0:0:0:0:
337,242,94930,6,0,P|313:225|300:196,1,60,2|0,0:1|0:0,0:0:0:0:
377,164,95680,1,2,0:0:0:0:
418,241,96055,2,0,P|448:232|488:250,2,60
379,316,97180,6,0,P|324:336|259:309,1,120,8|2,0:0|0:1,0:0:0:0:
224,244,98305,1,0,0:0:0:0:
278,179,98680,2,0,P|218:160|168:182,1,120,8|0,0:0|0:0,0:0:0:0:
113,245,99805,1,0,0:0:0:0:
84,324,100180,6,0,P|42:291|30:226,1,120,8|2,0:0|0:1,0:0:0:0:
81,164,101305,1,0,0:0:0:0:
93,80,101680,2,0,P|35:92|0:142,1,120,2|0,0:0|0:0,0:0:0:0:
81,164,102805,1,0,0:0:0:0:
162,186,103180,6,0,P|223:199|279:185,1,120,8|2,0:0|0:1,0:0:0:0:
343,132,104305,1,0,0:0:0:0:
422,158,104680,2,0,L|500:179,1,60,8|0,0:0|0:0,0:0:0:0:
483,257,105430,2,0,L|417:240,1,60
364,300,106180,5,8,0:0:0:0:
292,255,106555,2,0,L|349:209,1,60,0|2,0:0|0:1,0:0:0:0:
270,168,107305,2,0,L|212:140,1,60,0|2,0:0|0:0,0:0:0:0:
215,226,108055,2,0,L|215:286,2,60
270,168,109180,6,0,P|311:126|377:120,1,120,8|2,0:0|0:2,0:0:0:0:
348,200,110305,1,2,0:0:0:0:
421,240,110680,2,0,P|375:280|313:278,1,120,8|2,0:0|0:0,0:0:0:0:
348,200,111805,1,2,0:2:0:0:
384,310,114430,6,0,B|412:275|360:212|392:186,1,120,0|8,0:0|0:0,0:0:0:0:
400,116,115555,1,0,0:0:0:0:
351,47,115930,2,0,L|277:56,1,60
251,128,116680,2,0,P|189:144|130:121,1,120,8|0,0:0|0:0,0:0:0:0:
66,81,117805,1,0,0:0:0:0:
66,165,118180,6,0,L|66:229,1,60,8|0,0:0|0:0,0:0:0:0:
67,308,118930,2,0,L|144:273,1,60,0|0,0:0|0:0,0:0:0:0:
194,241,119680,2,0,L|145:201,1,60,8|0,0:0|0:0,0:0:0:0:
194,133,120430,2,0,L|258:186,1,60
310,216,121180,5,8,0:0:0:0:
370,275,121555,1,0,0:0:0:0:
429,216,121930,1,0,0:0:0:0:
370,157,122305,1,0,0:0:0:0:
309,216,122680,2,0,L|260:260,1,60,8|0,0:0|0:0,0:0:0:0:
193,301,123430,2,0,L|183:239,1,60
237,177,124180,6,0,P|177:158|125:180,2,120,8|0|2,0:0|0:0|0:0,0:0:0:0:
80,237,126430,2,0,P|57:211|55:169,1,60
68,105,127180,2,0,P|94:82|136:80,1,60,8|0,0:0|0:0,0:0:0:0:
200,101,127930,2,0,P|223:127|225:169,1,60
212,233,128680,2,0,P|186:256|144:258,1,60,8|0,0:0|0:0,0:0:0:0:
84,289,129430,2,0,P|109:327|141:341,1,60
204,341,130180,6,0,P|262:325|322:344,1,120,8|0,0:0|0:0,0:0:0:0:
400,337,131305,1,0,0:0:0:0:
420,255,131680,2,0,P|404:187|420:124,1,120,2|0,0:0|0:0,0:0:0:0:
380,61,132805,1,0,0:0:0:0:
380,61,133180,6,0,P|313:81|240:70,1,120,8|0,0:0|0:0,0:0:0:0:
188,39,134305,1,0,0:0:0:0:
105,27,134680,2,0,L|32:69,1,60,8|0,0:0|0:0,0:0:0:0:
120,108,135430,2,0,L|154:171,1,60,0|0,0:0|0:0,0:0:0:0:
142,244,136180,2,0,P|199:227|230:177,1,120,8|0,0:0|0:0,0:0:0:0:
256,192,137680,12,0,139930,0:0:0:0:
435,320,140680,6,0,P|421:252|441:199,1,120,4|8,0:0|0:0,0:0:0:0:
459,124,141805,1,0,0:0:0:0:
379,96,142180,2,0,L|342:35,1,60,4|0,0:0|0:0,0:0:0:0:
277,91,142930,2,0,L|215:65,1,60,8|0,0:0|0:0,0:0:0:0:
208,152,143680,6,0,P|145:164|88:152,2,120,4|8|4,0:0|0:0|0:0,0:0:0:0:
277,91,145555,1,0,0:0:0:0:
352,128,145930,1,8,0:0:0:0:
387,204,146305,1,0,0:0:0:0:
386,287,146680,6,0,P|443:268|469:211,1,120,4|8,0:0|0:0,0:0:0:0:
387,204,147805,1,0,0:0:0:0:
313,244,148180,2,0,P|301:275|304:303,1,60,4|0,0:0|0:0,0:0:0:0:
266,376,148930,2,0,P|236:354|221:323,1,60,8|0,0:0|0:0,0:0:0:0:
228,250,149680,2,0,P|170:268|138:323,2,120,4|8|4,0:0|0:0|0:0,0:0:0:0:
302,84,151930,6,0,P|271:128|207:142,1,120,8|4,0:0|0:0,0:0:0:0:
376,130,153430,2,0,L|445:131,1,60,8|0,0:0|0:0,0:0:0:0:
409,210,154180,2,0,B|347:209|347:209|289:164,1,120,4|8,0:0|0:0,0:0:0:0:
254,107,155305,1,0,0:0:0:0:
220,30,155680,6,0,B|167:56|167:56|167:131,2,120,4|8|4,0:0|0:0|0:0,0:0:0:0:
298,178,157930,2,0,B|351:152|351:152|351:91,1,120,8|4,0:0|0:0,0:0:0:0:
425,241,159430,2,0,L|345:278,1,60,8|0,0:0|0:0,0:0:0:0:
314,329,160180,6,0,B|255:340|255:340|195:329,1,120,4|8,0:0|0:0,0:0:0:0:
137,268,161305,1,0,0:0:0:0:
256,192,161680,12,8,164742,0:0:0:0:
