osu file format v13

[General]
AudioFilename: Sensitive Heart-yokan.mp3
AudioLeadIn: 0
PreviewTime: 139930
Countdown: 0
SampleSet: Normal
StackLeniency: 0.7
Mode: 0
LetterboxInBreaks: 1
WidescreenStoryboard: 1

[Editor]
Bookmarks: 37180
DistanceSpacing: 1.5
BeatDivisor: 4
GridSize: 4
TimelineZoom: 1.4

[Metadata]
Title:Yokan
TitleUnicode:予感
Artist:koutaq
ArtistUnicode:koutaq
Creator:Streliteela
Version:Hard
Source:
Tags:COMIC MARKET Sensitive Heart 二胡陽炎 千秋恋歌
BeatmapID:419342
BeatmapSetID:173531

[Difficulty]
HPDrainRate:6
CircleSize:4
OverallDifficulty:6
ApproachRate:7
SliderMultiplier:1.6
SliderTickRate:2

[Events]
//Background and Video events
0,0,"BG.jpg",0,0
//Break Periods
2,112180,113530
//Storyboard Layer 0 (Background)
//Storyboard Layer 1 (Fail)
//Storyboard Layer 2 (Pass)
//Storyboard Layer 3 (Foreground)
//Storyboard Sound Samples
//Background Colour Transformations
3,100,163,162,255

[TimingPoints]
31180,750,4,2,1,30,1,0
34180,-100,4,2,1,35,0,0
35680,-100,4,2,1,40,0,0
37180,-100,4,2,1,50,0,0
40930,-100,4,2,4,50,0,0
41305,-100,4,2,1,50,0,0
43930,-100,4,2,4,50,0,0
44305,-100,4,2,1,50,0,0
46930,-100,4,2,4,50,0,0
47305,-100,4,2,1,50,0,0
52930,-100,4,1,1,50,0,0
53680,-100,4,2,1,50,0,0
58930,-100,4,2,2,70,0,0
59305,-100,4,2,1,70,0,0
59680,-100,4,2,2,70,0,0
61180,-100,4,1,1,80,0,1
67180,-100,4,1,1,60,0,1
72055,-100,4,1,1,50,0,1
72430,-100,4,1,1,80,0,1
84430,-100,4,2,1,50,0,0
87055,-100,4,2,1,5,0,0
87430,-100,4,2,1,50,0,0
89680,-100,4,2,3,50,0,0
90055,-100,4,2,1,50,0,0
95680,-100,4,2,3,50,0,0
96055,-100,4,2,1,50,0,0
101680,-100,4,2,3,50,0,0
102055,-100,4,2,3,50,0,0
102430,-100,4,2,1,50,0,0
107680,-100,4,2,3,50,0,0
108055,-100,4,2,1,50,0,0
114430,-133.333333333333,4,2,1,30,0,0
121555,-133.333333333333,4,2,1,5,0,0
121930,-133.333333333333,4,2,1,30,0,0
125680,-133.333333333333,4,2,3,30,0,0
127180,-133.333333333333,4,2,1,30,0,0
131680,-133.333333333333,4,2,3,30,0,0
132055,-133.333333333333,4,2,1,30,0,0
139180,-133.333333333333,4,1,2,40,0,0
139555,-133.333333333333,4,1,2,60,0,0
139930,-133.333333333333,4,1,1,80,0,0
140680,-83.3333333333333,4,1,1,80,0,1
151555,-83.3333333333333,4,1,1,50,0,1
151930,-83.3333333333333,4,1,1,80,0,1
161680,-83.3333333333333,4,2,1,40,0,0

[Colours]
Combo1 : 165,22,165
Combo2 : 255,128,0
SliderBorder : 255,255,255

[HitObjects]
93,313,31180,6,0,P|113:285|114:235,1,80
75,152,31930,1,8,0:0:0:0:
94,57,32305,1,0,0:0:0:0:
165,120,32680,2,0,P|205:131|245:117,1,80
308,52,33430,1,8,0:0:0:0:
336,143,33805,1,0,0:0:0:0:
261,204,34180,6,0,P|288:234|357:229,1,80
411,198,34930,1,8,0:0:0:0:
336,143,35305,1,0,0:0:0:0:
261,204,35680,1,0,0:0:0:0:
338,261,36055,2,0,L|385:301,1,40
404,318,36430,2,0,P|396:352|341:390,1,80,8|0,0:2|0:0,0:0:0:0:
261,204,37180,5,4,0:0:0:0:
396,169,37555,2,0,L|360:186,1,40,0|0,0:0|0:0,0:0:0:0:
262,204,37930,2,0,L|288:111,1,80,2|0,0:1|0:0,0:0:0:0:
325,279,38680,2,0,L|300:368,1,80,8|0,0:0|0:0,0:0:0:0:
182,296,39430,1,2,0:1:0:0:
111,186,39805,1,0,0:0:0:0:
161,57,40180,6,0,L|248:40,1,80,8|0,0:0|0:0,0:0:0:0:
313,148,40930,2,0,L|216:167,1,80,10|0,0:0|0:0,0:0:0:0:
111,186,41680,1,0,0:0:0:0:
182,297,42055,2,0,L|249:288,1,40,0|0,0:0|0:0,0:0:0:0:
261,286,42430,2,0,P|301:268|325:233,1,80,2|0,0:1|0:0,0:0:0:0:
342,95,43180,5,8,0:0:0:0:
232,164,43555,2,0,L|265:141,1,40,0|0,0:0|0:0,0:0:0:0:
354,180,43930,2,0,L|365:273,1,80,10|0,0:2|0:0,0:0:0:0:
342,95,44680,2,0,P|302:64|238:61,1,80,8|0,0:0|0:0,0:0:0:0:
231,57,45242,1,0,0:0:0:0:
199,83,45430,1,2,0:1:0:0:
76,202,45805,1,0,0:0:0:0:
30,40,46180,5,8,0:0:0:0:
76,202,46555,1,0,0:0:0:0:
199,83,46930,1,10,0:2:0:0:
1,134,47305,1,0,0:0:0:0:
128,13,47680,1,8,0:2:0:0:
168,185,48055,1,0,0:0:0:0:
312,73,48430,6,0,P|271:68|231:75,2,80,2|0|0,0:1|0:0|0:0,0:0:0:0:
420,148,49555,1,0,0:0:0:0:
394,183,49742,1,0,0:0:0:0:
354,198,49930,2,0,P|318:207|273:200,1,80,2|0,0:1|0:0,0:0:0:0:
168,188,50680,2,0,P|147:225|168:285,1,80,8|0,0:2|0:0,0:0:0:0:
243,339,51430,2,0,P|282:332|311:305,1,80,2|0,0:1|0:0,0:0:0:0:
289,186,52180,2,0,P|261:107|194:64,2,160,8|2|8,0:0|0:0|0:0,0:0:0:0:
306,314,54055,1,0,0:0:0:0:
345,306,54242,1,0,0:0:0:0:
378,283,54430,2,0,P|408:253|413:203,1,80,2|0,0:1|0:0,0:0:0:0:
415,112,55180,6,0,P|393:75|354:57,1,80,8|0,0:0|0:0,0:0:0:0:
206,70,55930,1,2,0:1:0:0:
214,108,56117,1,0,0:0:0:0:
236,142,56305,1,0,0:0:0:0:
268,164,56492,1,0,0:0:0:0:
307,173,56680,2,0,P|354:164|394:178,1,80,8|0,0:0|0:0,0:0:0:0:
276,328,57430,2,0,P|238:338|191:323,1,80,2|0,0:1|0:0,0:0:0:0:
105,230,58180,6,0,P|145:220|184:232,1,80,8|0,0:0|0:0,0:0:0:0:
366,107,58930,1,0,0:0:0:0:
327,115,59117,1,0,0:0:0:0:
295,139,59305,1,0,0:0:0:0:
277,174,59492,1,0,0:0:0:0:
275,214,59680,2,0,P|272:262|226:295,1,80,0|0,0:0|0:0,0:0:0:0:
132,299,60242,1,0,0:0:0:0:
132,298,60430,2,0,P|143:254|189:219,1,80,0|0,0:0|0:0,0:0:0:0:
379,194,61180,5,4,0:0:0:0:
393,293,61555,1,0,0:0:0:0:
359,271,61742,1,0,0:0:0:0:
320,260,61930,2,0,P|278:258|238:266,1,80,8|0,0:0|0:0,0:0:0:0:
121,186,62492,1,0,0:0:0:0:
121,186,62680,2,0,P|163:169|208:165,1,80,4|0,0:0|0:0,0:0:0:0:
296,74,63430,2,0,P|254:62|209:66,1,80,8|0,0:0|0:0,0:0:0:0:
437,147,64180,6,0,P|448:104|431:69,1,80,4|0,0:0|0:0,0:0:0:0:
296,74,64930,2,0,P|284:112|299:147,1,80,8|0,0:0|0:0,0:0:0:0:
318,182,65492,1,0,0:0:0:0:
318,182,65680,2,0,L|382:191,1,40,4|0,0:0|0:0,0:0:0:0:
428,266,66055,2,0,L|377:259,1,40
238,313,66430,2,0,P|280:303|311:265,1,80,8|0,0:0|0:0,0:0:0:0:
323,83,67180,5,4,0:0:0:0:
504,188,67555,2,0,L|456:157,1,40,0|0,0:0|0:0,0:0:0:0:
390,148,67930,2,0,P|402:113|444:91,1,80,8|0,0:0|0:0,0:0:0:0:
503,188,68492,1,0,0:0:0:0:
503,188,68680,2,0,P|485:226|451:248,1,80,4|0,0:0|0:0,0:0:0:0:
303,227,69430,2,0,P|277:195|270:151,1,80,8|0,0:0|0:0,0:0:0:0:
149,61,70180,6,4,P|113:88|100:136,1,80,4|0,0:0|0:0,0:0:0:0:
88,157,70742,1,0,0:0:0:0:
89,196,70930,2,0,P|99:240|151:274,1,80,8|0,0:0|0:0,0:0:0:0:
148,294,71492,1,0,0:0:0:0:
184,311,71680,5,4,0:0:0:0:
334,199,72055,1,4,0:0:0:0:
238,228,72430,2,0,P|257:262|296:288,1,80,8|0,0:0|0:0,0:0:0:0:
430,160,73180,6,0,P|407:122|368:103,1,80,4|0,0:0|0:0,0:0:0:0:
334,99,73742,1,0,0:0:0:0:
295,109,73930,2,0,L|240:129,1,40,8|0,0:0|0:0,0:0:0:0:
160,69,74305,2,0,L|227:41,1,40
179,226,74680,2,0,P|169:190|180:148,1,80,4|0,0:0|0:0,0:0:0:0:
295,109,75430,2,0,P|307:149|295:191,1,80,8|0,0:0|0:0,0:0:0:0:
160,68,76180,6,0,P|119:76|93:102,1,80,4|0,0:0|0:0,0:0:0:0:
171,246,76930,2,0,P|211:234|239:201,1,80,8|0,0:0|0:0,0:0:0:0:
285,92,77680,2,0,P|321:110|341:151,1,80,4|0,0:0|0:0,0:0:0:0:
348,182,78242,1,0,0:0:0:0:
356,221,78430,2,0,P|372:254|413:281,1,80,8|0,0:0|0:0,0:0:0:0:
446,191,79180,5,4,0:0:0:0:
302,296,79555,2,0,L|237:332,1,40,0|0,0:0|0:0,0:0:0:0:
200,167,79930,2,0,L|234:147,1,40,8|0,0:0|0:0,0:0:0:0:
190,270,80305,2,0,L|152:290,1,40,0|0,0:0|0:0,0:0:0:0:
103,202,80680,2,0,P|92:162|108:117,1,80,4|0,0:0|0:0,0:0:0:0:
292,126,81430,2,0,P|302:169|282:221,1,80,8|0,0:0|0:0,0:0:0:0:
256,192,82180,12,2,83680,0:0:0:0:
132,128,84430,5,0,0:0:0:0:
257,66,84805,1,0,0:0:0:0:
390,126,85180,2,0,P|398:186|366:230,1,80,8|0,0:0|0:0,0:0:0:0:
383,241,85742,1,0,0:0:0:0:
358,272,85930,2,0,L|258:304,1,80,2|0,0:1|0:0,0:0:0:0:
189,319,86680,2,0,B|182:278|197:226|240:204|290:200,1,160,8|0,0:0|0:0,0:0:0:0:
281,296,87805,1,0,0:0:0:0:
131,233,88180,5,8,0:0:0:0:
189,319,88555,1,0,0:0:0:0:
30,229,88930,1,2,0:1:0:0:
131,233,89305,1,0,0:0:0:0:
184,140,89680,1,2,0:0:0:0:
131,233,90055,1,0,0:0:0:0:
183,141,90430,2,0,P|210:109|257:89,1,80,8|0,0:2|0:0,0:0:0:0:
437,65,91180,6,0,P|419:100|385:120,1,80,8|0,0:2|0:0,0:0:0:0:
307,123,91930,2,0,P|346:130|384:120,1,80
342,32,92680,1,8,0:2:0:0:
384,120,93055,1,0,0:0:0:0:
422,208,93430,1,2,0:1:0:0:
457,297,93805,1,0,0:0:0:0:
371,335,94180,6,0,P|328:291|281:291,1,80,8|0,0:0|0:0,0:0:0:0:
272,284,94742,1,0,0:0:0:0:
236,303,94930,2,0,P|213:324|152:322,1,80,2|0,0:1|0:0,0:0:0:0:
129,199,95680,2,0,P|167:173|207:180,1,80,2|0,0:0|0:0,0:0:0:0:
233,65,96430,1,8,0:0:0:0:
280,68,96617,1,0,0:0:0:0:
323,88,96805,1,0,0:0:0:0:
350,127,96992,1,0,0:0:0:0:
364,172,97180,6,0,P|393:228|434:251,1,80,8|0,0:0|0:0,0:0:0:0:
479,337,97930,1,2,0:1:0:0:
479,337,98305,2,0,L|412:323,1,40
345,315,98680,2,0,B|295:344|236:287|184:327,1,160,8|0,0:0|0:0,0:0:0:0:
102,267,99805,1,0,0:0:0:0:
185,220,100180,6,8,P|157:187|108:171,1,80,8|0,0:2|0:2,0:2:0:0:
26,121,100930,1,2,0:1:0:0:
26,121,101305,2,0,L|76:82,1,40
157,77,101680,2,0,B|201:35|276:130|325:50,1,160,2|8,0:0|0:0,0:0:0:0:
443,58,102805,2,0,L|390:87,1,40
436,164,103180,6,0,P|458:223|423:292,1,120,8|0,0:0|0:0,0:0:0:0:
403,290,103930,2,0,L|323:319,1,80,2|0,0:1|0:0,0:0:0:0:
273,237,104680,2,0,P|224:243|187:285,1,80,8|0,0:0|0:0,0:0:0:0:
145,341,105430,2,0,P|115:307|107:251,1,80,0|0,0:0|0:0,0:0:0:0:
114,86,106180,6,0,P|141:113|157:159,1,80,8|0,0:0|0:0,0:0:0:0:
183,243,106930,1,2,2:1:0:0:
114,86,107305,2,0,L|58:103,1,40
158,151,107680,2,0,P|200:139|238:98,2,80,2|0|0,0:0|0:0|0:0,0:0:0:0:
66,192,108805,1,0,0:0:0:0:
74,285,109180,6,0,P|112:275|141:248,1,80,8|0,0:0|0:0,0:0:0:0:
66,192,109930,1,2,0:2:0:0:
220,300,110305,1,2,0:2:0:0:
300,248,110680,2,0,P|273:220|232:204,1,80,8|0,0:0|0:0,0:0:0:0:
220,300,111430,1,2,0:2:0:0:
248,112,111805,1,2,0:2:0:0:
319,326,114430,6,0,P|356:310|376:279,1,60.0000022888184
301,123,115180,2,0,P|286:180|301:238,1,120.000004577637,8|0,0:0|0:0,0:0:0:0:
392,274,116305,1,0,0:0:0:0:
392,274,116680,2,0,P|394:240|386:204,1,60.0000022888184,8|0,0:0|0:0,0:0:0:0:
458,103,117430,2,0,P|456:137|463:168,1,60.0000022888184
312,120,118180,6,0,P|314:85|310:60,1,60.0000022888184,8|0,0:0|0:0,0:0:0:0:
168,107,118930,2,0,P|164:136|169:183,2,60.0000022888184,0|0|8,0:0|0:0|0:0,0:0:0:0:
235,253,120055,1,0,0:0:0:0:
205,273,120242,1,0,0:0:0:0:
172,287,120430,2,0,P|137:284|93:291,1,60.0000022888184
179,167,121180,6,0,B|238:153|238:153|295:166,1,120.000004577637,8|0,0:0|0:0,0:0:0:0:
364,46,122305,1,8,0:2:0:0:
295,166,122680,2,0,P|334:192|362:201,1,60.0000022888184,8|0,0:2|0:0,0:0:0:0:
279,75,123430,2,0,P|243:55|200:52,1,60.0000022888184
46,138,124180,5,8,0:0:0:0:
136,96,124555,1,0,0:0:0:0:
210,249,124930,1,8,0:0:0:0:
128,192,125305,1,0,0:0:0:0:
227,55,125680,1,2,0:0:0:0:
219,155,126055,1,0,0:0:0:0:
128,192,126430,2,0,P|98:208|84:232,1,60.0000022888184
117,316,127180,6,0,P|151:298|164:265,1,60.0000022888184,8|0,0:0|0:0,0:0:0:0:
85,229,127930,1,0,0:0:0:0:
228,343,128305,1,0,0:0:0:0:
250,181,128680,6,0,P|232:146|193:128,1,60.0000022888184,8|0,0:0|0:0,0:0:0:0:
100,264,129430,1,0,0:0:0:0:
244,314,129805,1,0,0:0:0:0:
221,136,130180,6,0,P|193:120|162:123,1,60.0000022888184,8|0,0:0|0:0,0:0:0:0:
103,299,130930,1,0,0:0:0:0:
260,287,131305,1,0,0:0:0:0:
168,123,131680,6,0,P|132:124|100:160,1,60.0000022888184,2|0,0:0|0:0,0:0:0:0:
191,224,132430,2,0,L|261:200,1,60.0000022888184
193,339,133180,6,0,P|178:281|191:223,1,120.000004577637,8|0,0:0|0:0,0:0:0:0:
228,140,134305,1,0,0:0:0:0:
285,208,134680,2,0,P|321:206|350:192,1,60.0000022888184,8|0,0:0|0:0,0:0:0:0:
475,281,135430,2,0,P|438:280|407:301,1,60.0000022888184
344,340,136180,2,0,P|331:311|333:279,1,60.0000022888184,8|0,0:0|0:0,0:0:0:0:
417,150,136930,2,0,P|428:182|427:209,1,60.0000022888184
256,192,137680,12,4,139180,0:0:0:0:
241,127,139555,5,4,0:0:0:0:
122,221,139930,1,12,0:1:0:0:
97,64,140305,1,0,0:0:0:0:
98,64,140492,1,0,0:0:0:0:
241,127,140680,6,0,P|292:147|359:146,1,95.9999970703126,4|0,0:0|0:0,0:0:0:0:
429,84,141430,1,8,0:0:0:0:
435,201,141805,1,0,0:0:0:0:
435,201,141992,1,0,0:0:0:0:
435,201,142180,2,0,P|398:236|335:248,1,95.9999970703126,4|0,0:0|0:0,0:0:0:0:
350,133,142742,1,0,0:0:0:0:
350,133,142930,2,0,P|388:97|456:87,1,95.9999970703126,8|0,0:0|0:0,0:0:0:0:
248,46,143680,6,0,P|206:78|136:89,1,95.9999970703126,4|0,0:0|0:1,0:0:0:0:
117,97,144242,1,0,0:0:0:0:
75,120,144430,2,0,P|66:172|96:240,1,95.9999970703126,8|0,0:0|0:0,0:0:0:0:
307,322,145180,2,0,L|261:333,1,47.9999985351563,4|0,0:0|0:0,0:0:0:0:
198,213,145555,2,0,L|245:203,1,47.9999985351563
179,300,145930,2,0,P|129:323|79:317,1,95.9999970703126,8|0,0:0|0:0,0:0:0:0:
109,144,146680,5,4,0:0:0:0:
245,203,147055,2,0,L|316:224,1,47.9999985351563
447,136,147430,2,0,L|324:156,1,95.9999970703126,8|0,0:0|0:0,0:0:0:0:
261,93,147992,1,0,0:0:0:0:
261,93,148180,2,0,L|189:117,1,47.9999985351563,4|0,0:0|0:0,0:0:0:0:
200,219,148555,2,0,L|269:193,1,47.9999985351563,0|0,0:0|0:0,0:0:0:0:
114,148,148930,2,0,L|42:172,1,47.9999985351563,8|0,0:0|0:0,0:0:0:0:
56,271,149305,2,0,L|125:245,1,47.9999985351563
180,328,149680,6,0,P|247:335|292:313,1,95.9999970703126,4|0,0:0|0:0,0:0:0:0:
308,309,150242,1,0,0:0:0:0:
344,297,150430,2,0,P|392:285|464:325,1,95.9999970703126,8|0,0:0|0:0,0:0:0:0:
470,313,150992,1,0,0:0:0:0:
477,199,151180,5,4,0:0:0:0:
399,111,151555,1,4,0:0:0:0:
281,111,151930,2,0,P|244:139|182:147,1,95.9999970703126,8|0,0:0|0:0,0:0:0:0:
125,329,152680,6,0,P|174:295|231:301,1,95.9999970703126,4|0,0:0|0:0,0:0:0:0:
245,286,153242,1,0,0:0:0:0:
282,293,153430,2,0,P|354:314|399:295,1,95.9999970703126,8|0,0:0|0:0,0:0:0:0:
393,162,153992,1,0,0:0:0:0:
393,162,154180,2,0,P|349:141|274:155,1,95.9999970703126,4|0,0:0|0:0,0:0:0:0:
119,161,154930,2,0,P|161:141|209:142,1,95.9999970703126,8|0,0:0|0:0,0:0:0:0:
77,104,155680,6,0,L|32:88,1,47.9999985351563,4|0,0:0|0:0,0:0:0:0:
189,187,156055,2,0,L|234:203,1,47.9999985351563
53,185,156430,2,0,L|26:225,1,47.9999985351563,8|0,0:0|0:0,0:0:0:0:
160,102,156805,2,0,L|181:59,1,47.9999985351563
127,236,157180,2,0,P|114:284|151:352,2,95.9999970703126,4|0|8,0:0|0:0|0:0,0:0:0:0:
144,189,158117,1,0,0:0:0:0:
173,151,158305,1,0,0:0:0:0:
216,131,158492,1,0,0:0:0:0:
264,129,158680,6,0,P|317:141|359:123,1,95.9999970703126,4|0,0:0|0:0,0:0:0:0:
399,108,159242,1,0,0:0:0:0:
438,81,159430,2,0,P|433:138|450:178,1,95.9999970703126,8|0,0:0|0:0,0:0:0:0:
466,216,159992,1,0,0:0:0:0:
481,261,160180,2,0,P|477:312|411:355,1,95.9999970703126,4|0,0:0|0:0,0:0:0:0:
408,317,160742,1,0,0:0:0:0:
361,303,160930,2,0,P|314:291|268:303,1,95.9999970703126,8|0,0:0|0:0,0:0:0:0:
256,192,161680,12,8,164742,0:0:0:0:
