osu file format v9

[General]
AudioFilename: L.E.D. vs kors k - SOLID STATE SQUAD.mp3
AudioLeadIn: 2000
PreviewTime: 226393
Countdown: 0
SampleSet: Normal
StackLeniency: 0.7
Mode: 0
LetterboxInBreaks: 0

[Editor]
Bookmarks: 12711,25098,37485,49872,62259,74646,87033,100969,113356,125743,138130,150517,162904,162909,175291,187678,197409,201614,214001,226388,238775,251162,263549,275936
DistanceSpacing: 0.5
BeatDivisor: 4
GridSize: 4

[Metadata]
Title:SOLID STATE SQUAD
Artist:kors k vs. L.E.D.
Creator:yeahyeahyeahhh
Version:Another
Source:beatmania IIDX
Tags:la cataline Konami bemani Denjin-K Hardstyle iidx13 distorted collab kirby starrodkirby86

[Difficulty]
HPDrainRate:5
CircleSize:4
OverallDifficulty:8
ApproachRate:8
SliderMultiplier:2
SliderTickRate:0.5

[Events]
//Background and Video events
0,0,"SOLID STATE SQUAD-bg.jpg"
//Break Periods
2,23754,24353
2,35947,36740
2,48528,49127
2,85690,86288
2,101174,112611
2,113561,124611
2,186335,186933
2,200270,200869
//Storyboard Layer 0 (Background)
//Storyboard Layer 1 (Fail)
//Storyboard Layer 2 (Pass)
//Storyboard Layer 3 (Foreground)
//Storyboard Sound Samples
//Background Colour Transformations
3,100,163,162,255

[TimingPoints]
329,387.096774193548,4,1,0,100,1,0
517,-100,4,2,1,80,0,0
5936,-100,4,1,1,80,0,0
6711,-100,4,2,1,80,0,0
10969,-100,4,1,1,80,0,0
11356,-100,4,2,1,80,0,0
12619,-100,4,1,1,80,0,0
12807,-100,4,2,1,80,0,0
13001,-100,4,1,1,80,0,0
13291,-100,4,2,1,80,0,0
13485,-100,4,1,1,80,0,0
13678,-100,4,2,1,80,0,0
13775,-100,4,1,1,80,0,0
13969,-100,4,2,1,80,0,0
14162,-100,4,1,1,80,0,0
14453,-100,4,2,1,80,0,0
14549,-100,4,1,1,80,0,0
14840,-100,4,2,1,80,0,0
14936,-100,4,1,1,80,0,0
15227,-100,4,2,1,80,0,0
15323,-100,4,1,1,80,0,0
16001,-100,4,2,1,80,0,0
16098,-100,4,1,1,80,0,0
16388,-100,4,2,1,80,0,0
16485,-100,4,1,1,80,0,0
16775,-100,4,2,1,80,0,0
16872,-100,4,1,1,80,0,0
17162,-100,4,2,1,80,0,0
17259,-100,4,1,1,80,0,0
17549,-100,4,2,1,80,0,0
17646,-100,4,1,1,80,0,0
17936,-100,4,2,1,80,0,0
18033,-100,4,1,1,80,0,0
18227,-100,4,2,1,80,0,0
18420,-100,4,1,1,80,0,0
19098,-100,4,2,1,80,0,0
19194,-100,4,1,1,80,0,0
19582,-100,4,2,1,80,0,0
19872,-100,4,1,1,80,0,0
20646,-100,4,2,1,80,0,0
20743,-100,4,1,1,80,0,0
21130,-100,4,2,1,80,0,0
21420,-100,4,1,1,80,0,0
22678,-100,4,2,1,80,0,0
22872,-100,4,1,1,79,0,0
35840,-100,4,1,0,18,0,0
37485,-100,4,1,0,60,0,0
43194,-100,4,1,0,100,0,0
43388,-100,4,1,0,60,0,0
43582,-100,4,1,0,100,0,0
43775,-100,4,1,0,60,0,0
48227,-100,4,1,0,70,0,0
49872,-100,4,1,1,71,0,1
56070,-100,4,1,1,70,0,0
87038,-133.333333333333,4,1,1,80,0,0
87135,-133.333333333333,4,2,1,80,0,0
88490,-133.333333333333,4,1,1,80,0,0
88683,-133.333333333333,4,2,1,80,0,0
90038,-133.333333333333,4,1,1,80,0,0
90232,-133.333333333333,4,2,1,80,0,0
90909,-133.333333333333,4,1,1,80,0,0
91006,-133.333333333333,4,2,1,80,0,0
91199,-133.333333333333,4,1,1,40,0,0
91587,-133.333333333333,4,1,1,80,0,0
91780,-133.333333333333,4,2,1,80,0,0
92361,-133.333333333333,4,1,1,80,0,0
92651,-133.333333333333,4,2,1,80,0,0
93135,-133.333333333333,4,1,1,80,0,0
93328,-133.333333333333,4,2,1,80,0,0
93909,-133.333333333333,4,1,1,80,0,0
94103,-133.333333333333,4,2,1,80,0,0
94296,-133.333333333333,4,1,1,80,0,0
94490,-133.333333333333,4,2,1,80,0,0
94683,-133.333333333333,4,1,1,80,0,0
94877,-133.333333333333,4,2,1,80,0,0
95458,-133.333333333333,4,1,1,80,0,0
95651,-133.333333333333,4,2,1,80,0,0
95845,-133.333333333333,4,1,1,80,0,0
96038,-133.333333333333,4,2,1,80,0,0
96232,-133.333333333333,4,1,1,80,0,0
97393,-133.333333333333,4,1,1,40,0,0
97780,-133.333333333333,4,1,1,80,0,0
125167,-133.333333333333,4,1,1,60,0,0
125941,-200,4,2,2,79,0,0
138038,-100,4,1,1,60,0,0
138038,-100,4,1,1,80,0,0
138229,-100,4,2,1,80,0,0
138232,-133.333333333333,4,1,1,35,0,0
138716,-133.333333333333,4,2,1,30,0,0
138812,-133.333333333333,4,1,1,35,0,0
139103,-133.333333333333,4,2,1,30,0,0
139199,-133.333333333333,4,1,1,35,0,0
139490,-133.333333333333,4,2,1,30,0,0
139587,-133.333333333333,4,1,1,35,0,0
140554,-133.333333333333,4,2,1,30,0,0
140748,-133.333333333333,4,1,1,35,0,0
140941,-133.333333333333,4,2,1,30,0,0
141135,-133.333333333333,4,1,1,35,0,0
141425,-133.333333333333,4,2,1,30,0,0
141619,-133.333333333333,4,1,1,35,0,0
141812,-133.333333333333,4,2,1,30,0,0
141909,-133.333333333333,4,1,1,35,0,0
142199,-133.333333333333,4,2,1,30,0,0
142296,-133.333333333333,4,1,1,35,0,0
142587,-133.333333333333,4,2,1,30,0,0
142683,-133.333333333333,4,1,1,35,0,0
143651,-133.333333333333,4,2,1,30,0,0
143845,-133.333333333333,4,1,1,35,0,0
144425,-133.333333333333,4,2,1,30,0,0
145006,-133.333333333333,4,1,1,35,0,0
145199,-133.333333333333,4,2,1,30,0,0
145393,-133.333333333333,4,1,1,35,0,0
145587,-133.333333333333,4,2,1,30,0,0
145780,-133.333333333333,4,1,1,35,0,0
146361,-133.333333333333,4,2,1,30,0,0
146941,-200,4,1,1,35,0,0
148296,-133.333333333333,4,2,1,30,0,0
148490,-133.333333333333,4,1,1,35,0,0
148683,-133.333333333333,4,2,1,30,0,0
150522,-100,4,1,1,31,0,0
152070,-100,4,1,1,31,0,0
153619,-100,4,1,1,39,0,0
155167,-100,4,1,1,31,0,0
156716,-100,4,1,1,39,0,0
158264,-100,4,1,1,31,0,0
159812,-100,4,1,1,39,0,0
161361,-100,4,1,1,31,0,0
173458,-200,4,1,1,31,0,0
175296,-100,4,1,1,41,0,0
186135,-100,4,1,1,41,0,1
187683,-100,4,1,1,80,0,0
198522,-100,4,1,1,71,0,0
216909,-100,4,2,1,71,0,0
217006,-100,4,1,1,71,0,0
217393,-100,4,2,1,71,0,0
217587,-100,4,1,1,71,0,0
218458,-100,4,2,1,71,0,0
218554,-100,4,1,1,71,0,0
218941,-100,4,2,1,71,0,0
219135,-100,4,1,1,71,0,0
219522,-100,4,1,1,100,0,0
220103,-100,4,1,1,71,0,0
224941,-100,4,2,1,100,0,0
226006,-100,4,1,1,71,0,0
226388,-100,4,1,1,70,0,1
244199,-100,4,1,1,100,0,1
244780,-100,4,1,1,70,0,1
249716,-100,4,2,1,100,0,1
250974,-100,4,1,1,70,0,1
251162,-100,4,1,1,80,0,0
251361,-100,4,2,1,80,0,0
251458,-100,4,1,1,80,0,0
251748,-100,4,2,1,80,0,0
251845,-100,4,1,1,80,0,0
252135,-100,4,2,1,80,0,0
252232,-100,4,1,1,80,0,0
252522,-100,4,2,1,80,0,0
252619,-100,4,1,1,80,0,0
252812,-100,4,2,1,80,0,0
253006,-100,4,1,1,80,0,0
253199,-100,4,2,1,80,0,0
253393,-100,4,1,1,80,0,0
253587,-100,4,2,1,80,0,0
253780,-100,4,1,1,80,0,0
254458,-100,4,2,1,80,0,0
254554,-100,4,1,1,80,0,0
254845,-100,4,2,1,80,0,0
254941,-100,4,1,1,80,0,0
255232,-100,4,2,1,80,0,0
255328,-100,4,1,1,80,0,0
255619,-100,4,2,1,80,0,0
255716,-100,4,1,1,80,0,0
255909,-100,4,2,1,80,0,0
256103,-100,4,1,1,80,0,0
256296,-100,4,2,1,80,0,0
256490,-100,4,1,1,80,0,0
256683,-100,4,2,1,80,0,0
256877,-100,4,1,1,80,0,0
257554,-100,4,2,1,80,0,0
257651,-100,4,1,1,80,0,0
257941,-100,4,2,1,80,0,0
258038,-100,4,1,1,80,0,0
258232,-100,4,2,1,80,0,0
258425,-100,4,1,1,80,0,0
258619,-100,4,2,1,80,0,0
258812,-100,4,1,1,80,0,0
259103,-100,4,2,1,80,0,0
259199,-100,4,1,1,80,0,0
259490,-100,4,2,1,80,0,0
259587,-100,4,1,1,80,0,0
259877,-100,4,2,1,80,0,0
259974,-100,4,1,1,80,0,0
260651,-100,4,2,1,80,0,0
260748,-100,4,1,1,80,0,0
261038,-100,4,2,1,80,0,0
261135,-100,4,1,1,80,0,0
261425,-100,4,2,1,80,0,0
261522,-100,4,1,1,80,0,0
263748,-100,4,2,1,80,0,0
263845,-100,4,1,1,80,0,0
264135,-100,4,2,1,80,0,0
264328,-100,4,1,1,80,0,0
264522,-100,4,2,1,80,0,0
264619,-100,4,1,1,80,0,0
264909,-100,4,2,1,80,0,0
265006,-100,4,1,1,80,0,0
265296,-100,4,2,1,80,0,0
265393,-100,4,1,1,80,0,0
265683,-100,4,2,1,80,0,0
265780,-100,4,1,1,80,0,0
266845,-100,4,2,1,80,0,0
266941,-100,4,1,1,80,0,0
267232,-100,4,2,1,80,0,0
267425,-100,4,1,1,80,0,0
267619,-100,4,2,1,80,0,0
267716,-100,4,1,1,80,0,0
268006,-100,4,2,1,80,0,0
268103,-100,4,1,1,80,0,0
268296,-100,4,2,1,80,0,0
268490,-100,4,1,1,80,0,0
268683,-100,4,2,1,80,0,0
268877,-100,4,1,1,80,0,0
269070,-100,4,2,1,80,0,0
269264,-100,4,1,1,80,0,0
269941,-100,4,2,1,80,0,0
270038,-100,4,1,1,80,0,0
270232,-100,4,2,1,80,0,0
270522,-100,4,1,1,80,0,0
270716,-100,4,2,1,80,0,0
270812,-100,4,1,1,80,0,0
271780,-100,4,2,1,80,0,0
272070,-100,4,1,1,80,0,0
272167,-100,4,2,1,80,0,0
272458,-100,4,1,1,80,0,0
273038,-100,4,2,1,80,0,0
273135,-100,4,1,1,80,0,0
273328,-100,4,2,1,80,0,0
273522,-100,4,1,1,80,0,0
274587,-100,4,2,1,80,0,0
275070,-100,4,1,1,80,0,0
275361,-100,4,2,1,80,0,0
275845,-100,4,1,1,80,0,0
276038,-100,4,2,1,80,0,0
279038,-100,4,2,1,80,0,0
279232,-100,4,2,1,76,0,0
279425,-100,4,2,1,70,0,0
279619,-100,4,2,1,66,0,0
279812,-100,4,2,1,60,0,0
280006,-100,4,2,1,55,0,0
280199,-100,4,2,1,50,0,0
280393,-100,4,2,1,46,0,0
280587,-100,4,2,1,40,0,0
280780,-100,4,2,1,35,0,0
280974,-100,4,2,1,30,0,0
281167,-100,4,2,1,26,0,0
281361,-100,4,2,1,19,0,0
281554,-100,4,2,1,11,0,0
281748,-100,4,2,1,0,0,0

[HitObjects]
256,192,329,1,0
368,96,716,5,2
464,176,1103,1,2
328,208,1490,1,2
184,176,1877,1,2
48,208,2264,1,2
144,288,2651,1,2
88,88,3038,5,2
88,88,3232,1,0
88,88,3425,2,0,B|296:88,1,200,2|2
456,192,4199,2,0,B|256:192,1,200,2|2
88,296,4974,2,0,B|296:296,2,200,2|2|2
416,312,6135,5,0
416,312,6522,1,0
336,200,6909,5,2
200,224,7296,1,2
104,128,7683,1,2
240,104,8070,2,0,B|456:104,2,200,2|2|2
64,264,9232,5,2
64,264,9425,1,0
64,264,9619,1,2
104,128,10006,1,2
192,240,10393,1,2
304,152,10780,1,2
440,192,11167,5,0
256,96,11554,1,2
72,192,11941,1,2
256,288,12328,1,2
256,288,12716,5,4
152,272,12909,1,0
56,240,13103,2,0,B|8:200|24:128,1,100,0|2
152,272,13490,2,0,B|200:312|184:384,1,100,0|2
136,168,13877,1,0
256,128,14070,1,0
376,200,14264,6,0,B|272:232,1,100
352,336,14651,2,0,B|456:304,1,100,0|2
376,200,15038,2,0,B|361:142|393:94,1,100,0|2
480,160,15425,1,0
480,56,15619,1,4
304,88,15812,6,0,B|256:64|200:88,1,100
350,174,16199,2,0,B|301:195|253:171,1,100,0|2
254,171,16587,2,0,B|150:229,1,100,0|2
254,270,16974,2,0,B|167:319,1,100
168,320,17361,6,0,B|120:304|54:326,1,100
248,368,17748,2,0,B|296:384|361:361,1,100,0|2
344,232,18135,1,0
456,304,18328,1,2
344,232,18522,1,0
464,160,18716,1,0
344,232,18909,6,0,B|320:176|360:128,1,100
464,160,19296,1,0
432,56,19490,1,0
432,56,19587,2,0,B|368:8|288:40,1,150,2|0
184,256,20070,1,0
160,256,20167,1,0
136,248,20264,1,0
120,232,20361,1,0
112,216,20458,6,0,B|168:216|200:152,1,100
120,104,20845,1,0
208,72,21038,1,0
208,72,21135,2,0,B|288:88|288:184,1,150,2|0
272,336,21619,1,0
416,272,21812,1,4
328,272,22006,5,0
216,272,22199,1,0
200,272,22296,1,0
184,272,22393,1,0
272,200,22587,1,0
272,200,22683,2,0,B|273:106|193:90,1,150,2|0
120,56,23167,1,0
96,48,23264,1,0
72,48,23361,1,4
48,48,23458,1,0
24,56,23554,1,4
76,356,25103,6,0,B|88:232,1,100
60,168,25490,2,0,B|172:176,1,100
180,176,25780,1,0
200,176,25877,1,0
296,232,26070,1,0
376,176,26264,2,0,B|288:104,1,100
392,72,26651,6,0,B|480:144,1,100
470,135,26941,1,0
470,135,27038,1,0
456,232,27232,1,0
456,232,27328,1,0
456,232,27425,2,0,B|400:240|384:304,3,100
296,232,28199,5,4
272,232,28296,1,0
248,232,28393,1,0
224,232,28490,1,0
200,232,28587,1,0
112,184,28780,1,0
112,184,28877,1,0
112,184,28974,2,0,B|168:96,1,100
240,152,29361,2,0,B|256:32,1,100
344,72,29748,6,0,B|408:144|368:248,2,150
240,152,30522,1,0
232,184,30619,1,0
224,216,30716,1,0
176,88,30909,1,4
176,88,31296,6,0,B|288:80,1,100,4|0
448,160,31683,2,0,B|336:152,1,100
328,152,31974,1,0
312,152,32070,1,0
212,224,32264,1,0
164,312,32458,2,0,B|212:344|260:312,1,100
356,304,32845,5,0
460,192,33038,1,0
452,220,33135,1,0
444,248,33232,1,0
348,192,33425,1,0
360,164,33522,1,0
372,136,33619,1,0
356,40,33812,1,0
264,76,34006,2,0,B|227:39|171:54,1,100
116,196,34393,5,4
44,260,34587,1,0
124,324,34780,1,0
196,260,34974,1,0
220,240,35070,1,0
252,240,35167,1,0
272,216,35264,1,0
300,212,35361,1,0
324,192,35458,1,0
352,188,35554,2,0,B|456:140,1,100
96,336,37490,6,0,B|56:296|80:232,1,100,4|0
147,268,37877,2,0,B|167:215|127:175,1,100,2|0
60,124,38264,2,2,B|100:84|164:108,1,100,0|2
8,56,38651,1,0
128,176,38845,2,10,B|240:216|312:128,1,200,2|6
352,64,39425,1,4
392,136,39619,1,0
392,136,39716,1,0
392,136,39812,1,0
432,64,40006,5,4
344,208,40199,1,0
272,56,40393,1,0
432,216,40587,6,0,B|448:272|408:320,1,100,6|0
344,368,40974,1,0
328,280,41167,2,0,B|272:264|224:304,1,100,2|0
233,296,41554,2,2,B|160:224,1,100,2|0
176,352,41941,2,4,B|105:281,1,100,2|0
88,200,42328,1,2
16,136,42522,1,4
56,40,42716,1,0
160,56,42909,1,0
168,152,43103,1,4
96,112,43296,5,0
232,112,43490,1,0
289,184,43683,2,2,B|297:130|350:112,1,100,0|2
350,113,44070,2,2,B|361:57|317:24,1,100,0|2
352,113,44458,2,0,B|384:160|438:153,1,100,0|2
424,296,44845,1,0
296,320,45038,1,2
328,230,45232,6,0,B|360:182|432:190,1,100,0|2
328,230,45619,2,0,B|339:286|282:331,1,100,4|0
328,230,46006,2,0,B|273:211|262:139,1,100,0|6
265,158,46393,2,2,B|96:159,1,150,0|0
96,128,46780,6,0,B|48:152|0:128,1,100,2|0
24,224,47167,1,2
48,56,47361,1,2
48,56,47554,2,0,B|96:32|144:56,1,100,0|2
223,103,47941,2,2,B|272:128|320:104,1,100,0|2
400,64,48328,1,4
400,64,49877,5,4
384,336,50264,1,0
112,320,50651,1,0
128,48,51038,1,0
456,208,51425,5,0
272,16,51812,1,0
48,168,52199,2,0,B|288:192,1,200,0|0
408,336,52974,5,0
408,336,53361,1,0
312,144,53748,1,0
312,144,54135,1,0
120,240,54522,1,0
120,240,54909,1,0
256,336,55296,5,8
256,240,55490,1,0
256,208,55587,1,0
256,176,55683,1,8
256,144,55780,1,0
256,112,55877,1,0
400,64,56070,5,12
400,64,56264,1,0
432,176,56458,1,8
432,176,56651,1,0
328,200,56845,2,0,B|208:216,1,100,8|0
128,256,57232,2,0,B|112:136,1,100,8|0
48,64,57619,5,8
48,64,57812,1,0
160,40,58006,1,8
160,40,58199,1,0
240,128,58393,2,0,B|128:144,1,100,8|0
64,256,58780,2,0,B|264:224,1,200,0|8
336,112,59361,5,0
360,208,59554,2,0,B|392:320,1,100,8|0
484,328,59941,1,8
460,232,60135,1,0
436,136,60328,2,0,B|412:24,1,100,8|0
336,112,60716,5,8
284,196,60909,2,0,B|287:187|244:236|180:236,1,100,0|8
92,180,61296,2,0,B|132:140|196:140,1,100,0|8
244,312,61683,2,0,B|204:351|154:351,1,100,0|8
136,352,61974,1,8
116,348,62070,1,0
172,272,62264,6,2,B|228:208|188:128,1,150,4|0
191,133,62651,2,2,B|92:168,1,100,0|2
28,112,63038,2,2,B|128:76,1,100,0|2
208,44,63425,1,0
344,164,63619,2,0,B|400:164|440:116,1,100,2|0
424,32,64006,2,2,B|368:32|328:80,1,100,2|0
256,120,64393,1,2
240,208,64587,1,4
224,296,64780,1,2
152,248,64974,2,0,B|120:288|64:288,1,100,2|0
80,200,65361,6,2,B|24:176|48:88,1,100,4|2
152,120,65748,1,0
256,120,65941,1,2
256,120,66135,2,2,B|278:63|199:18,1,100,0|2
112,32,66522,1,0
152,120,66716,2,0,B|200:232,1,100,2|0
320,208,67103,2,2,B|359:299,1,100,2|4
359,299,67490,1,2
288,136,67683,2,2,B|248:44,1,100,0|2
224,276,68070,2,2,B|264:368,1,100,4|2
360,300,68458,6,2,B|440:300|496:236,1,150,6|0
492,240,68845,2,2,B|464:144,1,100,0|2
288,136,69232,2,2,B|384:107,1,100,0|2
456,64,69619,1,0
392,192,69812,2,2,B|320:288,1,100,2|0
120,192,70199,2,0,B|192:288,1,100,2|0
256,144,70587,1,2
179,272,70780,1,4
333,272,70974,1,2
256,144,71167,2,0,B|256:40,1,100,2|0
160,96,71554,5,6
120,192,71748,1,0
179,272,71941,1,2
224,184,72135,5,2
72,288,72329,1,0
64,104,72522,1,2
16,200,72716,5,0
178,272,72909,2,2,B|194:320|194:320|258:336,1,100,2|0
344,331,73296,2,2,B|392:320|392:320|408:272,1,100,2|4
288,224,73683,1,2
344,120,73877,2,2,B|392:136|392:136|408:200,1,100,0|2
240,120,74264,2,2,B|192:136|192:136|176:200,1,100,4|2
168,304,74651,6,2,B|116:328|60:308,1,100,0|2
16,240,75038,2,0,B|64:220|120:240,1,100,2|0
208,212,75425,1,0
300,248,75619,6,0,B|388:296,1,100,2|0
432,164,76006,2,2,B|456:264,1,100,2|0
352,180,76393,6,0,B|296:96,1,100,2|0
208,212,76780,2,0,B|224:108,1,100,2|0
244,32,77167,1,2
164,60,77361,2,2,B|52:100,1,100,0|0
52,104,77651,1,0
36,112,77748,1,8
80,192,77941,5,0
164,160,78135,2,0,B|260:184,1,100,8|0
336,236,78522,2,0,B|368:284|336:332,3,100,8|0|8|0
262,279,79296,2,0,B|230:231|262:183,3,100,8|0|8|0
334,132,80070,2,0,B|366:84|334:36,3,100,8|0|8|0
256,84,80845,6,2,B|152:56,1,100,4|2
64,148,81232,2,2,B|168:176,1,100,2|0
160,173,81619,1,0
252,160,81812,6,0,B|256:212|212:252,1,100,2|0
124,256,82199,2,0,B|136:316|196:332,1,100,2|0
344,368,82587,2,0,B|332:308|272:292,1,100,2|0
328,216,82974,2,0,B|344:160|400:155,1,100,2|0
436,240,83361,2,0,B|490:235|506:179,1,100,2|0
468,80,83748,5,8
468,80,83845,1,8
468,80,83941,1,0
388,28,84135,1,0
388,136,84329,1,0
304,76,84522,1,0
304,184,84716,1,0
220,124,84909,1,0
220,232,85103,1,0
136,172,85296,1,0
136,280,85490,5,4
136,280,87038,5,4
216,348,87232,1,2
240,248,87425,1,2
272,248,87522,1,2
304,248,87619,1,0
336,248,87716,1,0
360,248,87812,2,2,B|480:248,2,112.499996647239,4|0|2
136,280,88587,5,4
44,188,88780,1,2
168,152,88974,1,2
200,152,89070,1,2
232,152,89167,1,0
264,152,89264,1,0
292,152,89361,2,0,B|388:152,1,74.9999977648259,4|0
212,280,89748,2,0,B|116:280,1,74.9999977648259,2|0
56,280,90135,5,4
144,192,90329,1,2
232,108,90522,2,0,B|352:140,1,112.499996647239,4|2
340,136,90909,1,4
256,220,91103,1,2
376,252,91296,2,0,B|464:276,1,74.9999977648259,2|0
448,271,91683,6,0,B|420:184|480:120,1,149.999995529652,4|2
340,136,92264,1,0
512,64,92458,2,0,B|478:41|434:53,1,74.9999977648259,0|2
352,64,92845,2,0,B|329:97|341:141,1,74.9999977648259,4|0
340,228,93232,6,0,B|350:266|328:300,1,74.9999977648259,0|2
168,276,93619,2,0,B|157:237|180:204,1,74.9999977648259,4|0
111,112,94006,2,0,B|89:145|100:184,1,74.9999977648259,0|2
260,207,94393,2,0,B|282:174|272:136,1,74.9999977648259,0|2
187,158,94780,6,0,B|176:72|236:24,1,149.999995529652,0|4
272,136,95361,1,0
184,244,95554,2,0,B|194:282|171:315,1,74.9999977648259,0|2
104,128,95941,2,0,B|93:89|116:56,1,74.9999977648259,0|2
184,244,96329,21,4
64,264,96522,1,0
204,136,96716,21,4
256,292,96909,1,0
300,136,97103,1,4
448,264,97296,5,0
328,244,97490,1,4
292,228,97587,1,0
264,204,97683,1,2
204,136,97877,5,4
176,132,97974,1,0
148,136,98070,1,0
124,152,98167,1,0
112,176,98264,1,0
112,204,98361,1,0
124,228,98458,1,0
148,236,98554,1,0
172,248,98651,5,4
196,256,98748,1,0
212,276,98845,1,0
220,300,98941,1,0
212,324,99038,1,0
188,340,99135,1,0
164,348,99232,1,0
136,348,99329,1,0
112,340,99425,5,4
256,192,99522,12,0,100974
256,192,113361,5,0
148,336,125361,5,0
148,336,125748,1,4
48,332,126135,1,0
48,332,126328,2,0,B|68:264|124:168|228:172|344:220,1,350
295,95,128070,6,0,B|284:68|294:46,1,50
380,24,128458,1,0
464,52,128651,2,0,B|444:120|388:216|284:212|168:164,1,350
132,148,130199,2,0,B|108:136|84:129|60:132|28:144,2,100
76,212,131167,2,0,B|44:256|80:308,1,100
140,256,131845,1,0
140,256,131941,1,0
200,96,132328,5,0
340,196,132716,1,0
340,196,132909,1,0
508,236,133296,2,0,B|484:308|396:348|308:348|252:308,1,300
32,224,134845,5,0
32,224,135038,1,0
32,224,135328,2,0,B|48:160|120:116|212:104|268:148,1,275
332,136,136780,1,0
356,204,137167,1,0
300,248,137554,1,0
244,204,137941,1,0
216,60,138135,5,0
216,60,138522,2,0,B|196:100|220:144,1,74.9999977648259,0|0
243,205,138909,2,0,B|276:224|316:204,1,74.9999977648259
340,120,139296,2,0,B|360:80|336:36,1,74.9999977648259,0|0
244,204,139683,2,0,B|208:284|264:360,1,149.999995529652,0|8
452,264,140458,1,0
372,264,140651,1,2
412,336,140845,1,8
452,264,141038,5,2
452,264,141135,1,0
452,264,141232,2,0,B|472:224|448:180,1,74.9999977648259,0|0
440,168,141522,1,2
424,152,141619,2,0,B|416:56,1,74.9999977648259,0|2
292,164,142006,2,0,B|296:244,1,74.9999977648259,0|0
220,220,142393,2,0,B|216:140,1,74.9999977648259
84,128,142780,2,0,B|96:292,1,149.999995529652,0|8
94,277,143554,1,0
216,352,143748,1,0
248,348,143845,1,8
276,344,143941,1,8
380,320,144135,1,8
456,252,144328,5,4
360,216,144522,2,0,B|324:136|380:64,1,149.999995529652,0|2
416,0,145103,2,0,B|416:48|376:72,1,74.9999977648259,0|2
272,96,145490,2,0,B|272:48|312:24,1,74.9999977648259,0|0
360,216,145877,2,0,B|352:304|264:336,1,149.999995529652,0|8
96,184,146458,2,0,B|104:96|192:64,1,149.999995529652,0|2
232,192,147038,2,0,B|280:72|416:160|464:24,1,300
462,26,148393,1,2
512,120,148587,1,0
456,200,148780,5,4
256,192,148877,12,0,150135
28,264,150522,6,0,B|152:252,1,100,4|0
200,304,150909,2,0,B|256:236|208:156,1,150
212,164,151296,2,0,B|104:176,1,100
28,91,151683,2,0,B|128:80,1,100
284,100,152070,6,0,B|320:148|292:220,1,100
368,340,152458,2,0,B|328:260|400:196,1,150
392,203,152845,2,0,B|488:228,2,100
392,204,153425,1,0
280,272,153619,6,0,B|224:308|156:256,1,100,0|0
116,332,154006,2,0,B|88:304|69:263|92:216|124:192,1,150
115,198,154393,2,0,B|235:199,1,100
397,198,154780,2,0,B|276:199,1,100
396,332,155167,6,0,B|424:304|443:263|420:216|388:192,2,150
240,232,155941,1,0
232,200,156038,1,0
224,168,156135,1,0
264,304,156328,1,0
264,304,156522,1,0
336,88,156716,6,0,B|212:76,1,100,0|0
140,72,157103,2,0,B|84:140|132:220,1,150
128,212,157490,2,0,B|96:320,1,100
180,356,157877,2,0,B|208:252,1,100
224,172,158264,5,0
224,172,158458,1,0
296,232,158652,2,0,B|376:272|440:200,1,150
432,207,159038,1,0
504,264,159232,1,0
348,160,159425,2,0,B|380:108|452:132,1,100
428,308,159812,6,0,B|396:360|324:336,1,100
260,300,160199,2,0,B|204:232|252:152,1,150,0|0
247,160,160586,2,0,B|364:160,1,100
304,84,160974,2,0,B|187:84,1,100
104,124,161360,6,0,B|157:192|101:264,2,150
220,232,162134,1,0
228,264,162231,1,0
236,296,162328,1,0
200,152,162521,1,0
200,152,162716,1,0
228,48,162909,5,0
308,128,163103,1,0
308,128,163296,2,0,B|424:128,1,100
408,128,163587,1,0
408,128,163877,1,0
384,217,164070,2,0,B|368:272|404:312,1,100
472,200,164458,5,0
288,228,164651,1,0
120,256,164845,2,0,B|136:201|100:161,1,100
101,162,165135,1,0
101,162,165425,1,0
200,104,165619,1,0
224,224,165812,1,0
248,336,166006,5,0
328,256,166199,1,0
352,248,166296,1,0
376,240,166393,2,0,B|424:224|448:164,1,100
444,171,166683,1,0
444,171,166974,1,0
344,96,167167,1,0
256,168,167361,1,0
168,96,167554,5,4
256,264,167845,1,4
344,96,168135,1,4
256,168,168328,1,0
256,168,168425,1,0
256,168,168522,1,0
168,192,168716,5,0
352,192,168909,1,0
256,264,169103,5,0
368,296,169296,1,0
456,232,169490,2,0,B|480:136,1,100
480,134,169780,2,0,B|432:80|336:88,1,150
256,264,170264,2,0,B|200:272|152:240,1,100
88,184,170651,1,0
176,152,170845,1,0
176,152,171038,2,0,B|120:56,1,100
125,65,171328,2,0,B|200:32|272:56,1,150
256,264,171812,2,0,B|304:280|360:264,1,100
328,184,172199,5,0
354,265,172393,1,0
408,200,172587,1,0
344,352,172877,1,0
328,184,173167,1,0
384,120,173361,1,0
288,104,173554,2,0,B|240:120|224:156|224:196|268:228|272:268|260:304|208:328,1,250,0|0
124,316,174716,1,0
144,224,174909,1,0
56,192,175103,1,0
48,80,175296,5,4
72,96,175393,1,0
96,116,175490,1,0
152,24,175683,1,0
160,48,175780,1,0
168,72,175877,1,0
256,16,176070,1,0
256,40,176167,1,0
256,64,176264,1,0
360,24,176458,1,0
352,48,176555,1,0
344,72,176652,1,0
464,80,176845,5,0
440,96,176942,1,0
416,112,177039,1,0
488,192,177232,1,0
464,192,177328,1,0
440,192,177425,1,0
464,304,177619,1,0
440,288,177716,1,0
416,272,177813,1,0
360,360,178006,1,0
352,336,178103,1,0
344,312,178200,1,4
300,192,178587,1,4
188,208,178780,5,0
188,208,178877,1,0
188,208,178974,1,0
176,312,179167,1,0
176,312,179264,1,0
176,312,179361,1,0
88,252,179554,1,0
88,252,179651,1,0
88,252,179748,1,0
112,148,179941,1,0
112,148,180038,1,0
112,148,180135,1,0
212,116,180329,5,0
212,116,180425,1,0
212,116,180522,1,0
280,196,180716,1,0
280,196,180812,1,0
280,196,180909,1,0
372,144,181103,1,0
372,144,181199,1,0
372,144,181296,1,0
446,226,181490,2,0,B|508:204|492:148|508:92|444:68,1,200,0|4
372,140,182070,6,0,B|320:108|268:132,1,100
140,244,182458,2,0,B|192:276|244:252,1,100
312,316,182845,6,0,B|344:264|320:212,1,100
200,68,183232,2,0,B|168:120|192:172,1,100
276,124,183619,6,0,B|376:128,1,100,0|0
236,260,184006,2,0,B|136:256,1,100,0|0
256,192,184393,5,4
256,32,184780,1,4
32,192,185167,1,0
256,352,185554,1,0
480,192,185941,1,0
480,192,186135,1,4
76,168,187683,5,4
172,196,187877,1,0
208,104,188070,5,0
256,256,188264,1,0
300,104,188458,1,0
432,168,188651,5,0
336,196,188845,1,0
256,256,189038,1,0
241,270,189135,1,0
226,284,189232,6,0,B|254:396,1,100,4|0
37,372,189619,2,0,B|13:268,1,100
136,192,190006,1,0
16,272,190199,1,0
136,192,190393,1,0
32,176,190587,2,0,B|40:152,2,25
32,176,190780,6,0,B|8:312,1,100,4|0
128,288,191167,2,0,B|216:336,1,100,0|0
296,336,191554,2,0,B|384:289,1,100,0|0
488,280,191941,2,0,B|471:182,1,100,0|0
368,96,192328,6,0,B|392:232,1,100,4|0
214,242,192716,2,0,B|126:194,1,100,0|0
144,96,193103,6,0,B|126:195,1,100,0|0
297,242,193490,1,0
320,232,193587,1,0
348,220,193683,1,0
428,169,193877,5,4
440,160,193974,1,0
447,147,194070,1,0
451,133,194167,1,0
455,118,194264,1,0
455,102,194361,1,0
452,87,194458,1,0
448,72,194554,1,0
441,60,194651,1,0
429,50,194748,1,0
415,43,194845,1,0
400,38,194941,1,0
385,35,195038,1,0
370,33,195135,1,0
355,37,195232,1,0
276,84,195425,5,4
262,90,195522,1,0
248,95,195619,1,0
234,101,195716,1,0
220,107,195812,1,0
205,111,195909,1,0
189,112,196006,1,0
174,115,196103,1,0
159,112,196199,1,0
144,112,196296,1,0
128,108,196393,1,0
112,103,196490,1,0
99,94,196587,1,0
88,83,196683,1,0
75,75,196780,1,0
56,232,196974,5,0
48,256,197071,1,0
40,280,197167,1,4
176,272,197361,1,0
168,304,197458,1,0
160,336,197554,1,0
296,344,197748,1,0
304,304,197845,1,0
312,256,197941,1,0
320,216,198038,1,0
328,168,198135,1,0
256,96,198328,2,0,B|284:67,2,25
273,78,198522,6,0,B|392:72,1,100,4|0
328,168,198909,2,0,B|428:163,1,100
168,184,199296,2,0,B|50:191,1,100,2|0
144,92,199683,2,0,B|45:98,1,100,2|0
44,98,200070,5,4
284,104,201619,5,4
284,104,201716,1,0
284,104,201812,1,0
384,100,202006,1,0
384,100,202103,1,0
356,196,202296,2,0,B|432:236|500:168,2,150,0|0|0
340,188,202974,1,0
320,180,203070,1,0
300,176,203167,5,0
280,176,203264,1,0
260,180,203361,1,0
164,208,203554,1,0
164,208,203651,1,0
72,168,203845,2,0,B|32:244|100:312,2,150
80,152,204523,1,0
88,132,204619,1,0
92,112,204716,5,0
92,92,204813,1,0
88,72,204910,1,0
200,112,205103,1,0
208,128,205199,1,0
236,272,205393,1,0
244,256,205489,1,0
352,152,205683,1,0
336,160,205779,1,0
480,172,205974,5,0
492,156,206070,1,0
496,136,206167,1,0
492,116,206264,1,0
484,96,206361,1,0
472,80,206458,1,0
376,52,206651,1,0
376,52,206748,1,0
352,152,206942,5,0
200,112,207232,1,4
128,240,207522,1,4
88,332,207716,5,0
12,268,207909,1,0
12,268,208005,1,0
52,176,208199,1,0
52,176,208296,1,0
128,240,208490,2,0,B|276:240,2,150
176,152,209264,5,0
276,140,209458,1,0
276,140,209554,1,0
352,208,209748,1,0
352,208,209845,1,0
440,156,210038,2,0,B|480:232|412:300,2,150
352,208,210812,5,0
328,304,211006,1,0
324,324,211103,1,0
244,224,211296,1,0
248,204,211393,1,0
136,260,211587,1,0
132,280,211684,1,0
44,192,211877,1,0
48,172,211974,1,0
72,76,212167,5,0
84,60,212263,1,0
100,48,212360,1,0
116,40,212457,1,0
136,36,212554,1,0
156,36,212651,1,0
176,40,212748,1,0
192,48,212844,1,0
208,60,212941,1,0
284,124,213135,5,0
296,140,213231,1,0
312,152,213328,1,0
328,160,213425,1,0
348,164,213522,1,0
368,164,213619,1,4
388,160,213716,1,0
404,152,213812,1,0
420,140,213909,1,0
432,124,214006,6,0,B|496:120,2,50,4|0|0
480,256,214393,1,0
504,272,214490,1,0
384,320,214683,2,0,B|340:305|271:332,1,100,0|0
285,326,214974,2,0,B|216:288|232:176,1,150
232,168,215361,1,0
256,80,215554,6,0,B|200:56,2,50
336,148,215941,1,0
312,152,216038,1,0
160,220,216232,2,0,B|138:273|179:328,1,100
170,315,216522,2,0,B|96:356|24:324,1,150
0,303,216909,1,4
49,187,217103,5,0
39,148,217199,1,0
27,109,217296,1,0
131,72,217490,1,4
125,44,217587,1,0
248,46,217780,5,0
259,84,217877,1,0
364,128,218070,1,0
369,158,218166,1,0
471,183,218361,1,0
478,222,218458,1,4
484,261,218554,1,0
446,245,218651,5,0
408,259,218748,1,0
369,271,218845,1,0
203,311,219038,1,4
203,311,219135,1,0
55,345,219328,5,4
49,131,219619,1,4
256,112,219909,1,4
256,112,220199,5,0
160,160,220393,1,2
352,128,220587,2,2,B|344:176|344:176|368:224,1,100,8|2
456,352,220974,2,0,B|464:304|464:304|440:256,1,100,0|2
432,184,221361,1,8
368,304,221554,1,2
256,264,221748,5,4
144,304,221941,1,2
166,189,222135,2,2,B|144:144|144:144|152:96,1,100,8|2
56,8,222522,2,0,B|78:53|78:53|70:101,1,100,0|2
72,192,222909,1,8
152,16,223103,1,2
304,136,223296,5,2
336,152,223393,1,0
368,168,223490,1,0
408,184,223587,1,0
400,144,223683,5,2
440,146,223780,1,0
480,144,223877,1,0
368,296,224070,21,2
336,280,224167,1,0
304,264,224264,1,2
264,248,224361,1,0
272,288,224457,5,0
232,296,224554,1,0
192,304,224651,1,2
152,312,224748,1,0
112,320,224845,5,6
16,336,225038,2,4,B|-14:290|7:228,1,100,2|0
112,145,225425,2,0,B|103:82|155:44,1,100,2|0
272,168,225812,1,2
278,138,225909,1,0
291,111,226006,1,2
308,86,226103,1,0
332,68,226199,1,2
476,136,226393,5,12
476,136,226586,1,2
464,252,226780,1,8
464,252,226974,1,2
376,188,227167,2,0,B|276:168,1,100,8|2
164,96,227554,2,2,B|200:144|164:192,1,100,8|2
96,224,227941,6,0,B|60:272|96:320,1,100,8|0
160,364,228328,2,0,B|196:316|160:268,1,100,8|0
96,224,228716,2,0,B|36:224|18:167,2,100,8|2|8
92,132,229296,1,2
92,132,229393,1,0
92,132,229490,1,10
92,36,229683,5,2
184,64,229876,2,0,B|284:96,1,100,8|2
360,120,230264,1,8
360,120,230458,1,2
248,260,230651,2,2,B|312:180,1,100,8|2
360,120,231038,6,0,B|472:104,1,100,8|0
458,105,231328,1,0
458,105,231425,1,8
452,200,231619,1,0
452,200,231716,1,0
452,200,231812,1,12
388,32,232006,1,2
388,32,232103,1,0
388,32,232199,1,12
284,24,232393,1,10
224,88,232586,6,2,B|176:64|128:104,1,100,12|2
200,168,232973,2,0,B|240:208|208:264,1,100,8|2
120,216,233360,2,0,B|64:184|24:208,1,100,8|2
72,296,233747,2,2,B|88:352|176:344,1,100,8|2
248,336,234135,5,8
360,324,234328,1,0
360,324,234425,1,0
360,324,234522,1,8
276,228,234715,1,0
276,228,234812,1,0
276,228,234909,1,8
388,212,235102,1,2
476,280,235296,2,2,B|512:236|484:160,1,100,8|2
408,112,235683,6,2,B|320:140|244:56,2,150,8|2|0
356,40,236458,2,0,B|304:-20|216:7,2,150,10|0|0
304,192,237231,5,8
272,192,237328,1,0
240,184,237425,1,0
208,168,237522,1,10
188,144,237619,1,8
28,120,237812,1,10
57,126,237909,1,0
79,145,238006,1,8
32,332,238199,1,0
40,303,238296,1,2
59,280,238393,1,8
82,260,238490,1,8
110,251,238586,1,2
139,248,238683,1,0
169,249,238780,5,12
308,268,238974,1,2
328,280,239070,1,0
352,288,239167,2,2,B|408:304|472:272,1,100,8|2
416,200,239554,2,0,B|376:104,1,100,8|2
378,108,239941,2,0,B|322:92|258:124,1,100,8|2
264,120,240232,1,8
248,128,240328,6,0,B|192:144|128:112,1,100,8|0
149,121,240716,2,0,B|48:176,1,100,8|0
61,268,241103,2,2,B|149:315,1,100,8|2
159,222,241490,2,0,B|208:240|256:216,1,100,8|2
368,168,241877,5,6
480,224,242070,1,0
464,248,242167,1,8
448,264,242264,2,0,B|399:246|351:270,1,100,10|2
272,313,242651,2,0,B|224:337|176:320,1,100,8|2
160,224,243038,2,0,B|111:199|63:217,1,100,8|2
32,144,243425,5,12
32,304,243619,1,0
175,320,243812,1,8
175,320,243909,1,8
232,176,244103,5,8
384,216,244393,1,4
456,88,244683,1,6
232,176,244974,6,2,B|144:120,1,100,4|2
112,192,245361,2,2,B|200:248,1,100,8|2
196,245,245748,2,0,B|240:336,1,100,0|2
148,123,246135,2,2,B|104:32,1,100,8|2
104,32,246425,1,8
104,32,246522,6,2,B|155:14|208:32,1,100,12|2
304,72,246909,2,2,B|354:90|407:72,1,100,8|2
402,74,247296,2,0,B|440:168,1,100,0|2
328,216,247683,2,2,B|304:256|296:312,1,100,8|2
184,216,248070,5,6
196,248,248167,1,0
208,276,248264,1,4
216,308,248361,1,2
176,286,248458,5,0
144,280,248554,1,0
115,275,248651,1,2
120,140,248845,5,0
132,108,248942,1,0
144,80,249039,1,6
152,48,249136,1,0
112,70,249233,5,0
80,76,249329,1,0
51,81,249426,1,2
64,220,249619,5,2
25,293,249812,1,2
220,351,250199,1,2
388,264,250587,1,2
352,184,250780,1,2
376,176,250877,1,0
400,176,250974,1,2
424,184,251070,1,0
440,192,251167,6,0,B|460:84,1,100,0|2
376,32,251554,2,0,B|356:140,1,100,0|2
340,216,251941,2,0,B|288:240|240:208,1,100,0|2
152,120,252328,2,0,B|204:96|252:128,1,100,0|2
156,208,252716,5,0
156,208,252909,1,2
160,328,253103,1,0
160,328,253296,1,2
16,332,253490,1,0
16,332,253683,1,2
8,220,253877,1,0
88,272,254070,5,0
88,272,254167,1,0
88,272,254264,2,0,B|200:264,1,100,0|2
280,304,254651,2,0,B|300:252|272:200,1,100,0|2
200,160,255038,2,0,B|96:172,1,100,0|2
216,76,255425,2,0,B|328:64,1,100,0|2
432,52,255812,5,0
432,52,256006,1,2
452,184,256199,1,0
452,184,256393,1,2
328,132,256587,1,0
328,132,256780,1,2
344,264,256974,1,0
344,264,257070,1,0
344,264,257167,1,0
232,204,257361,6,0,B|128:192,1,100,4|2
36,248,257748,2,0,B|48:144,1,100,0|2
104,68,258135,1,0
208,60,258328,1,2
320,160,258522,1,0
216,168,258715,1,2
411,48,258909,6,0,B|312:52,1,100,0|2
432,256,259296,2,0,B|424:152,1,100,0|2
456,344,259683,2,0,B|352:356,1,100,0|2
356,355,260070,1,0
252,328,260264,5,0
252,328,260361,1,0
252,328,260458,2,0,B|240:224,1,100,0|2
136,80,260845,2,0,B|148:184,1,100,0|2
76,344,261232,2,0,B|64:240,1,100,0|2
64,244,261619,1,0
148,180,261812,5,0
148,180,261909,1,0
148,180,262006,1,0
240,228,262199,1,0
324,172,262393,1,0
412,224,262587,1,0
412,224,262683,1,0
412,224,262780,1,0
332,288,262974,1,0
428,328,263167,1,0
428,328,263264,1,0
428,328,263361,1,0
236,340,263554,6,0,B|136:288,1,100,0|2
51,240,263941,2,0,B|140:193,1,100,0|0
139,193,264232,1,2
141,194,264328,2,0,B|229:240,1,100,0|2
325,294,264715,2,0,B|236:339,1,100,0|0
229,240,265103,6,0,B|208:184|244:132,1,100,0|2
332,200,265490,2,0,B|353:256|317:308,1,100,0|0
228,348,265877,2,0,B|131:375,1,100,0|4
332,88,266264,2,0,B|428:60,1,100,0|0
437,195,266651,6,0,B|465:245|436:292,1,100,0|2
228,240,267038,2,0,B|200:190|229:143,1,100,0|0
243,125,267328,1,2
264,112,267425,2,0,B|368:112,1,100,0|2
437,290,267812,2,0,B|322:290,1,100,0|2
280,212,268199,1,0
224,292,268393,1,2
128,270,268586,1,0
96,184,268780,1,2
248,124,268974,1,0
156,112,269167,5,2
332,132,269360,1,0
312,296,269554,1,0
312,296,269651,1,0
312,296,269748,2,0,B|360:328|440:324,1,100,4|2
368,224,270135,1,0
332,132,270328,2,0,B|284:100|204:104,1,100,2|0
392,76,270716,2,0,B|440:108|520:104,1,100
456,216,271103,1,0
468,232,271199,1,0
480,248,271296,6,0,B|480:348,1,100
328,196,271683,1,0
328,196,271877,2,0,B|328:296,1,100,2|0
184,160,272264,2,0,B|184:260,1,100
60,256,272652,1,0
48,240,272748,1,0
36,224,272845,6,0,B|36:124,1,100,0|2
36,124,273232,1,0
184,160,273425,1,2
328,196,273619,1,0
184,260,273812,1,0
184,260,273909,1,0
184,260,274006,1,0
328,296,274199,1,0
360,304,274296,1,0
392,312,274393,6,0,B|496:340,1,100,0|2
120,312,274780,2,0,B|16:340,1,100
120,200,275167,2,0,B|92:144|124:104,1,100,0|4
389,105,275554,2,0,B|420:144|392:200,1,100,0|2
256,152,275941,5,4
256,192,276038,12,0,281748
