osu file format v13

[General]
AudioFilename: 7colors.mp3
AudioLeadIn: 1500
PreviewTime: 52039
Countdown: 0
SampleSet: Normal
StackLeniency: 0.7
Mode: 0
LetterboxInBreaks: 0
WidescreenStoryboard: 0

[Editor]
DistanceSpacing: 1
BeatDivisor: 4
GridSize: 4
TimelineZoom: 1

[Metadata]
Title:7 Colors
TitleUnicode:7 Colors
Artist:kors k feat.Yoshikawa Sunao
ArtistUnicode:kors k feat.吉河順央
Creator:sionKotori
Version:Easy
Source:REFLEC BEAT colette
Tags:summer fanzhen0019 naryuga pop'n music sunny park prism euro jubeat saucer fulfill
BeatmapID:369653
BeatmapSetID:148397

[Difficulty]
HPDrainRate:2
CircleSize:3
OverallDifficulty:2
ApproachRate:3
SliderMultiplier:1.1
SliderTickRate:1

[Events]
//Background and Video events
0,0,"32371347.jpg",0,0
//Break Periods
//Storyboard Layer 0 (Background)
//Storyboard Layer 1 (Fail)
//Storyboard Layer 2 (Pass)
//Storyboard Layer 3 (Foreground)
//Storyboard Sound Samples
//Background Colour Transformations
3,100,163,162,255

[TimingPoints]
309,384.615384615385,4,1,2,70,1,0
14155,-100,4,1,2,70,0,1
14251,-100,4,1,2,70,0,0
52616,-100,4,1,2,70,0,1
79924,-100,4,1,2,70,0,0
80309,-100,4,1,2,70,0,1
80405,-100,4,1,2,70,0,0

[Colours]
Combo1 : 77,77,155
Combo2 : 255,85,85
Combo3 : 255,142,30
Combo4 : 255,255,89
Combo5 : 150,255,45
Combo6 : 128,255,255
Combo7 : 255,98,255

[HitObjects]
256,80,309,5,0,0:0:0:0:
256,300,1078,1,0,0:0:0:0:
48,224,1847,6,0,B|160:224|160:224|256:176|256:176|344:224|344:224|464:224,1,440
256,292,4155,1,0,0:0:0:0:
80,160,4924,6,0,P|184:156|228:36,1,220
432,160,6462,2,0,P|328:156|284:36,1,220
200,268,8001,6,0,B|196:196|140:212|116:176|108:132|128:92|148:80,1,220,2|0,0:0|0:0,0:0:0:0:
256,80,9155,1,0,0:0:0:0:
364,80,9539,6,0,B|381:90|401:130|393:174|369:210|313:194|309:266,2,220,2|0|2,0:0|0:0|0:0,0:0:0:0:
412,296,11847,5,0,0:0:0:0:
256,144,12616,2,0,L|256:232,2,82.5,0|0|0,0:0|0:0|0:0,0:0:0:0:
256,308,13770,1,0,0:0:0:0:
340,332,14155,6,0,P|416:324|448:236,2,165,2|2|2,0:0|0:0|0:0,0:0:0:0:
236,296,15693,2,0,B|148:292|148:292|116:312|116:312|20:308,1,220,2|2,0:0|0:0,0:0:0:0:
144,124,17232,6,0,P|68:132|36:220,2,165,2|2|2,0:0|0:0|0:0,0:0:0:0:
248,160,18770,2,0,B|336:164|336:164|368:144|368:144|464:148,1,220,2|2,0:0|0:0,0:0:0:0:
264,248,20309,6,0,B|234:248|234:248|206:288|206:288|230:328|230:328|270:328,2,165,2|2|2,0:0|0:0|0:0,0:0:0:0:
372,240,21847,2,0,B|356:152|356:152|372:112|372:112|360:24,1,220,2|2,0:0|0:0,0:0:0:0:
164,128,23385,6,0,B|194:128|194:128|222:88|222:88|198:48|198:48|158:48,2,165,2|2|2,0:0|0:0|0:0,0:0:0:0:
72,188,24924,2,0,B|42:188|42:188|14:228|14:228|38:268|38:268|78:268,2,165,2|2|2,0:0|0:0|0:0,0:0:0:0:
153,262,26462,6,0,B|198:263|254:303|254:303|310:267|356:263,1,220
439,192,27616,1,4,0:0:0:0:
354,120,28001,2,0,B|310:117|254:81|254:81|198:121|153:122,1,220
67,191,29155,1,4,0:0:0:0:
132,278,29539,6,0,P|188:190|132:102,2,220,0|0|0,0:0|0:0|0:0,0:0:0:0:
228,330,31462,2,0,L|276:226,1,110,2|0,0:0|0:0,0:0:0:0:
384,229,32232,1,2,0:0:0:0:
359,122,32616,6,0,B|314:121|258:81|258:81|202:117|156:121,1,220
73,192,33770,1,4,0:0:0:0:
157,263,34155,2,0,B|202:267|258:303|258:303|314:263|359:262,1,220
445,193,35309,1,4,0:0:0:0:
370,112,35693,6,0,B|286:112|286:112|238:92|238:92|150:92,1,220
43,96,36847,1,4,0:0:0:0:
97,191,37232,2,0,L|265:191,2,165,8|8|8,0:0|0:0|0:0,0:0:0:0:
39,285,38770,6,0,P|67:325|215:293,1,220,0|0,0:0|0:0,0:0:0:0:
256,195,39924,1,4,0:0:0:0:
298,296,40309,2,0,P|389:347|473:285,1,220,0|0,0:0|0:0,0:0:0:0:
360,96,41847,6,0,B|392:112|392:112|408:132|408:132|388:172|400:240|400:240|368:228|353:232,1,220,0|0,0:0|0:0,0:0:0:0:
256,176,43001,1,4,0:0:0:0:
159,232,43385,2,0,B|144:228|112:240|112:240|124:172|104:132|104:132|120:112|120:112|152:96,1,220,0|0,0:0|0:0,0:0:0:0:
364,160,44924,6,0,P|336:256|228:268,1,220
264,164,46078,1,4,0:0:0:0:
292,56,46462,2,0,P|188:65|157:164,1,220,0|0,0:0|0:0,0:0:0:0:
354,260,48001,6,0,B|256:312|256:312|160:260,2,220,0|0|0,0:0|0:0|0:0,0:0:0:0:
256,208,49924,2,0,B|220:176|220:176|220:104,1,110,0|0,0:0|0:0,0:0:0:0:
288,28,50693,2,0,B|324:60|324:60|324:132,1,110,0|0,0:0|0:0,0:0:0:0:
212,316,52616,6,0,B|372:316|372:316|324:272,1,220,2|0,0:0|0:0,0:0:0:0:
256,192,53770,1,4,0:0:0:0:
184,108,54155,2,0,B|140:68|140:68|300:68,1,220,2|0,0:0|0:0,0:0:0:0:
448,232,55693,6,0,P|456:292|428:332,1,110,0|2,0:0|0:0,0:0:0:0:
324,356,56462,2,0,P|268:332|247:288,1,110,0|2,0:0|0:0,0:0:0:0:
272,184,57232,2,0,P|319:147|368:151,2,110,0|0|2,0:0|0:0|0:0,0:0:0:0:
72,92,58770,6,0,B|72:160|108:196|108:196|112:160|124:136|144:120|176:120,1,220,2|0,0:0|0:0,0:0:0:0:
256,192,59924,1,4,0:0:0:0:
342,263,60309,2,0,B|368:264|388:248|400:224|404:188|404:188|440:224|440:292,2,220,2|0|0,0:0|0:0|0:0,0:0:0:0:
256,196,62232,6,0,L|256:84,2,110,2|0|2,0:0|0:0|0:0,0:0:0:0:
232,304,63385,2,0,B|216:344|216:344|296:344|296:344|280:296,1,165,2|2,0:0|0:0,0:0:0:0:
396,52,64924,6,0,B|408:84|404:104|404:104|328:152|328:152|352:184|356:224,1,220,2|0,0:0|0:0,0:0:0:0:
256,272,66078,1,4,0:0:0:0:
156,222,66462,2,0,B|160:184|184:152|184:152|108:104|108:104|104:84|116:52,1,220,2|0,0:0|0:0,0:0:0:0:
240,232,68001,6,0,P|300:240|340:212,1,110,0|2,0:0|0:0,0:0:0:0:
364,108,68770,2,0,P|340:52|296:31,1,110,0|2,0:0|0:0,0:0:0:0:
192,56,69540,2,0,P|155:103|159:152,2,110,0|0|2,0:0|0:0|0:0,0:0:0:0:
404,120,71078,6,0,B|372:120|340:136|340:136|316:96|272:88|272:88|284:52|268:12,1,220,2|0,0:0|0:0,0:0:0:0:
184,88,72232,1,4,0:0:0:0:
140,188,72616,2,0,L|140:300,1,110,2|0,0:0|0:0,0:0:0:0:
244,332,73385,2,0,L|244:222,1,110,2|0,0:0|0:0,0:0:0:0:
348,180,74155,6,0,B|368:168|396:164|420:172|440:196|440:196|468:148|468:112|464:68|460:52|432:32|416:56|408:72|408:72|420:104,1,330,2|0,0:0|0:0,0:0:0:0:
308,92,75693,2,0,B|248:92|248:92|212:80|212:80|140:80,2,165,2|2|0,0:0|0:0|0:0,0:0:0:0:
388,168,77232,6,0,P|412:224|384:284,1,110,2|0,0:0|0:0,0:0:0:0:
312,340,78001,2,0,B|256:352|256:352|204:340,1,110,2|0,0:0|0:0,0:0:0:0:
116,272,78770,2,0,P|103:220|127:172,1,110,2|2,0:0|0:0,0:0:0:0:
232,132,79539,2,0,P|245:184|221:232,1,110,2|14,0:0|0:0,0:0:0:0:
172,332,80309,6,0,P|80:348|36:288,2,165,2|2|2,0:0|0:0|0:0,0:0:0:0:
276,296,81847,2,0,B|364:292|364:292|396:312|396:312|492:308,1,220,2|2,0:0|0:0,0:0:0:0:
368,124,83386,6,0,P|444:132|476:220,2,165,2|2|2,0:0|0:0|0:0,0:0:0:0:
264,160,84924,2,0,B|176:164|176:164|144:144|144:144|48:148,1,220,2|2,0:0|0:0,0:0:0:0:
248,248,86463,6,0,B|278:248|278:248|306:288|306:288|282:328|282:328|242:328,2,165,2|2|2,0:0|0:0|0:0,0:0:0:0:
140,240,88001,2,0,B|156:152|156:152|140:112|140:112|152:24,1,220,2|2,0:0|0:0,0:0:0:0:
348,128,89539,6,0,B|318:128|318:128|290:88|290:88|314:48|314:48|354:48,2,165,2|2|2,0:0|0:0|0:0,0:0:0:0:
440,188,91078,2,0,B|470:188|470:188|498:228|498:228|474:268|474:268|434:268,2,165,2|2|2,0:0|0:0|0:0,0:0:0:0:
352,256,92616,6,0,L|240:256,1,110,0|4,0:0|0:0,0:0:0:0:
180,164,93385,2,0,L|292:164,1,110,0|4,0:0|0:0,0:0:0:0:
340,64,94155,2,0,L|228:64,2,110,0|0|0,0:0|0:0|0:0,0:0:0:0:
404,152,95309,5,14,0:0:0:0:
