osu file format v14

[General]
AudioFilename: 7shadesofcolour.mp3
AudioLeadIn: 0
PreviewTime: 52046
Countdown: 0
SampleSet: None
StackLeniency: 0.4
Mode: 0
LetterboxInBreaks: 0
WidescreenStoryboard: 0

[Editor]
Bookmarks: 14155,15323,15515,26462,38784,48592,51078,80309,95707
DistanceSpacing: 1.2
BeatDivisor: 4
GridSize: 4
TimelineZoom: 1.1

[Metadata]
Title:7 Colors
TitleUnicode:7 Colors
Artist:kors k feat. Sunao Yoshikawa
ArtistUnicode:kors k feat. 吉河順央
Creator:Yauxo
Version:Snaggle's Normal
Source:REFLEC BEAT colette -Summer-
Tags:pishifat Kinshara Snaggletooth Colours プリズムユーロ PRISM EURO pop'n music Sunny Park jubeat saucer fulfill
BeatmapID:676885
BeatmapSetID:272555

[Difficulty]
HPDrainRate:4
CircleSize:3.5
OverallDifficulty:4
ApproachRate:5
SliderMultiplier:1.3
SliderTickRate:1

[Events]
//Background and Video events
0,0,"morethan7colors.jpg",0,0
//Break Periods
//Storyboard Layer 0 (Background)
//Storyboard Layer 1 (Fail)
//Storyboard Layer 2 (Pass)
//Storyboard Layer 3 (Foreground)
//Storyboard Sound Samples

[TimingPoints]
316,384.615384615385,4,3,1,70,1,0
8008,-100,4,3,1,70,0,0
14162,-100,4,3,1,70,0,1
14258,-100,4,3,1,70,0,0
26469,-100,4,3,1,70,0,0
52623,-100,4,3,1,70,0,1
64546,-100,4,3,1,70,0,0
64931,-100,4,3,1,70,0,1
77239,-100,4,3,1,70,0,0
80316,-100,4,3,1,70,0,1
80412,-100,4,3,1,70,0,0

[Colours]
Combo1 : 190,142,234
Combo2 : 244,132,171
Combo3 : 243,203,118
Combo4 : 247,233,138
Combo5 : 166,230,138
Combo6 : 129,222,239
Combo7 : 149,143,218

[HitObjects]
140,280,1854,6,0,B|204:296|256:240|256:240|308:296|376:280,1,260,6|0,0:1|0:0,0:0:0:0:
440,244,2816,1,0,0:0:0:0:
440,88,3200,1,0,0:0:0:0:
368,56,3392,6,0,L|280:60,1,65,2|0,0:2|0:0,0:0:0:0:
248,112,3777,2,0,L|160:116,1,65,2|0,0:2|0:0,0:0:0:0:
112,80,4162,2,0,P|104:120|120:160,1,65,2|0,0:2|0:0,0:0:0:0:
68,208,4546,2,0,P|108:220|136:216,1,65,2|0,0:2|0:0,0:0:0:0:
188,272,4931,6,0,B|320:216|316:328|452:248,1,260,4|0,0:1|0:0,0:0:0:0:
496,204,5892,1,0,0:0:0:0:
404,76,6277,6,0,P|368:108|372:200,1,130,0|0,0:0|0:0,0:0:0:0:
400,256,6854,2,0,P|412:300|348:376,2,130,2|2|2,0:2|0:2|0:2,0:0:0:0:
248,220,8008,6,0,P|200:232|104:196,1,130,6|2,0:1|0:0,0:0:0:0:
140,56,8777,2,0,P|188:44|284:80,1,130,2|2,0:0|0:0,0:0:0:0:
340,88,9354,1,0,0:0:0:0:
372,160,9546,6,0,L|364:300,1,130,6|2,0:1|0:0,0:0:0:0:
224,360,10316,2,0,L|152:352,1,65,2|0,0:0|0:0,0:0:0:0:
108,296,10700,2,0,L|36:288,1,65,6|4,0:1|0:1,0:0:0:0:
16,216,11085,6,0,P|8:160|32:80,1,130,6|10,0:1|0:2,0:0:0:0:
180,76,11854,2,0,P|188:132|164:212,1,130,10|10,0:2|0:2,0:0:0:0:
100,344,12623,6,0,L|208:332,1,97.5
312,312,13200,2,0,L|456:296,1,130,2|0,1:3|0:0,0:0:0:0:
492,240,13777,2,0,P|496:196|492:172,1,65,2|0,0:2|0:0,0:0:0:0:
452,108,14162,6,0,L|468:8,2,97.5,14|2|2,0:2|0:2|0:2,0:0:0:0:
376,128,14931,2,0,P|344:136|313:130,1,65,2|0,0:0|0:0,0:0:0:0:
240,104,15316,2,0,P|196:100|164:116,1,65,10|2,0:2|0:2,0:0:0:0:
108,68,15700,6,0,P|96:116|168:184,1,130,10|10,0:2|0:2,0:0:0:0:
216,196,16277,1,0,0:0:0:0:
288,168,16469,2,0,L|400:160,2,97.5,14|2|2,0:1|0:2|0:2,0:0:0:0:
312,244,17239,6,0,P|336:288|324:344,2,97.5,14|2|2,0:1|0:2|0:2,0:0:0:0:
256,300,18008,2,0,L|184:296,1,65,2|0,0:0|0:0,0:0:0:0:
136,240,18392,2,0,L|64:236,1,65,14|2,0:1|0:2,0:0:0:0:
12,184,18777,6,0,P|-4:132|36:56,1,130,10|10,0:2|0:2,0:0:0:0:
100,40,19354,1,0,0:0:0:0:
168,76,19546,2,0,L|308:72,1,130,10|10,0:2|0:2,0:0:0:0:
228,212,20316,6,0,P|180:200|120:216,2,97.5,14|2|2,0:2|0:2|0:2,0:0:0:0:
300,244,21085,2,0,P|344:256|440:236,1,130,2|10,0:0|0:2,0:0:0:0:
464,92,21854,6,0,L|392:84,1,65,10|2,0:2|0:2,0:0:0:0:
356,156,22239,2,0,L|428:164,1,65,10|0,0:2|0:0,0:0:0:0:
492,196,22623,2,0,P|508:232|492:292,2,97.5,10|2|2,0:2|0:2|0:2,0:0:0:0:
428,244,23392,6,0,L|316:232,1,97.5,14|2,0:1|0:2,0:0:0:0:
228,288,23969,2,0,P|164:296|100:272,1,130,2|0,0:2|0:0,0:0:0:0:
48,216,24546,2,0,L|48:148,1,65,14|2,0:1|0:2,0:0:0:0:
112,100,24931,6,0,B|176:88|176:88|248:96,1,130,10|2,0:2|0:2,0:0:0:0:
292,156,25508,2,0,B|356:163|356:163|420:151,1,130,10|2,0:2|0:2,0:0:0:0:
464,84,26085,1,2,0:2:0:0:
460,240,26469,6,0,P|464:296|404:356,1,130,12|2,0:2|0:0,0:0:0:0:
340,340,27046,1,0,0:0:0:0:
264,352,27239,2,0,L|128:356,1,130,2|2,0:0|0:0,0:0:0:0:
48,224,28008,6,0,P|28:184|56:92,1,130,2|2,0:0|0:0,0:0:0:0:
108,60,28585,1,0,0:0:0:0:
176,100,28777,2,0,P|195:160|173:220,1,130,10|0,0:2|0:0,0:0:0:0:
72,340,29546,6,0,L|216:336,1,130,10|2,0:2|0:0,0:0:0:0:
276,356,30123,1,0,0:0:0:0:
340,312,30316,2,0,P|356:264|328:180,1,130,2|2,0:0|0:0,0:0:0:0:
268,152,30892,6,0,P|304:120|392:136,1,130
436,184,31469,1,10,0:2:0:0:
376,40,31854,2,0,L|308:36,1,65,10|2,0:2|0:2,0:0:0:0:
240,72,32239,2,0,L|172:68,1,65,10|2,0:2|0:2,0:0:0:0:
116,16,32623,6,0,P|96:56|128:136,1,130,12|10,0:2|0:2,0:0:0:0:
184,184,33200,1,0,0:0:0:0:
140,252,33392,2,0,L|-8:260,1,130,2|2,0:0|0:0,0:0:0:0:
144,336,34162,6,0,P|204:308|224:232,1,130,2|10,0:0|0:2,0:0:0:0:
184,184,34739,1,0,0:0:0:0:
236,124,34931,2,0,B|296:104|296:104|376:96,1,130,2|2,0:0|0:0,0:0:0:0:
480,200,35700,6,0,P|468:244|440:264,1,65,2|0,0:0|0:0,0:0:0:0:
476,332,36085,2,0,P|432:332|404:316,1,65,12|0,0:2|0:0,0:0:0:0:
344,360,36469,2,0,P|336:324|348:280,1,65,2|0,0:0|0:0,0:0:0:0:
364,224,36854,1,2,0:0:0:0:
376,148,37046,6,0,P|352:92|268:76,1,130,0|0,0:0|0:0,0:0:0:0:
216,40,37623,1,2,0:0:0:0:
148,80,37816,2,0,P|152:152|136:216,1,130,2|2,0:0|0:0,0:0:0:0:
196,260,38392,2,0,P|164:280|128:284,1,65,2|0,0:0|0:0,0:0:0:0:
112,360,38777,6,0,P|68:324|72:240,1,130
32,184,39354,2,0,L|64:44,1,130
212,96,40123,2,0,P|240:148|212:228,1,130
252,288,40700,2,0,P|296:296|336:284,1,65,2|0,0:0|0:0,0:0:0:0:
356,360,41085,2,0,P|380:336|392:300,1,65,2|0,0:0|0:0,0:0:0:0:
456,268,41469,2,0,L|472:184,1,65,2|0,0:0|0:0,0:0:0:0:
480,128,41854,6,0,P|484:80|400:28,1,130,14|2,0:1|0:0,0:0:0:0:
356,56,42431,2,0,P|352:104|436:156,1,130,0|0,0:0|0:0,0:0:0:0:
300,268,43200,2,0,P|252:280|148:248,1,130,2|0,0:2|0:0,0:0:0:0:
120,208,43777,1,2,0:0:0:0:
164,144,43969,2,0,P|212:132|316:164,1,130,0|0,0:0|0:0,0:0:0:0:
348,96,44546,2,0,P|368:144|364:168,1,65,2|0,0:0|0:0,0:0:0:0:
428,208,44931,6,0,L|412:344,1,130,14|2,0:1|0:0,0:0:0:0:
340,368,45508,1,0,0:0:0:0:
272,332,45700,2,0,P|228:320|140:340,1,130,2|2,0:0|0:0,0:0:0:0:
60,204,46469,6,0,P|36:152|76:76,1,130,14|2,0:1|0:0,0:0:0:0:
116,32,47046,1,4,0:0:0:0:
180,76,47239,2,0,L|252:72,1,65,2|4,0:0|0:0,0:0:0:0:
316,100,47623,2,0,L|388:96,1,65,2|0,0:0|0:0,0:0:0:0:
432,36,48008,6,0,P|456:68|428:160,1,130,14|2,0:1|0:0,0:0:0:0:
440,228,48585,2,0,P|417:287|446:342,2,130,0|0|0,0:0|0:0|0:0,0:0:0:0:
256,192,49546,12,4,51085,1:3:0:0:
120,256,52239,6,0,L|184:252,1,65
256,280,52623,1,0,0:0:0:0:
300,140,53008,2,0,L|288:36,2,97.5,2|0|0,0:0|0:0|0:0,0:0:0:0:
344,204,53777,2,0,L|356:296,1,65,2|0,0:0|0:0,0:0:0:0:
424,304,54162,6,0,P|388:340|304:332,1,130,2|2,0:0|0:0,0:0:0:0:
276,184,54931,2,0,P|213:176|148:208,1,130,2|2,0:0|0:0,0:0:0:0:
108,268,55508,1,2,0:0:0:0:
40,232,55700,6,0,L|36:96,1,130,10|2,0:2|0:0,0:0:0:0:
180,44,56469,2,0,L|184:180,1,130,2|6,0:0|0:1,0:0:0:0:
216,244,57046,1,0,0:0:0:0:
284,284,57239,6,0,L|376:292,1,65,10|0,0:2|0:0,0:0:0:0:
372,216,57623,2,0,L|280:208,1,65,2|0,0:0|0:0,0:0:0:0:
284,136,58008,2,0,P|352:132|424:152,1,130,2|2,0:0|0:0,0:0:0:0:
460,296,58777,5,14,0:2:0:0:
312,348,59162,2,0,L|204:344,2,97.5,2|0|0,0:0|0:0|0:0,0:0:0:0:
356,284,59931,2,0,P|364:248|356:212,1,65,2|0,0:0|0:0,0:0:0:0:
336,148,60316,2,0,P|328:112|336:76,1,65,2|0,0:0|0:0,0:0:0:0:
400,44,60700,2,0,P|344:8|272:32,1,130,2|2,0:0|0:0,0:0:0:0:
140,76,61469,6,0,P|77:88|24:54,2,130,6|6|2,0:1|0:1|0:0,0:0:0:0:
288,132,62623,2,0,L|292:272,1,130,2|6,0:0|0:1,0:0:0:0:
256,332,63200,1,0,0:0:0:0:
184,304,63392,2,0,P|140:284|72:312,2,97.5,14|0|0,0:2|0:0|0:0,0:0:0:0:
312,108,64546,5,2,0:0:0:0:
236,88,64739,1,2,0:0:0:0:
160,68,64931,1,14,0:2:0:0:
44,172,65316,6,0,P|32:224|60:272,2,97.5,2|0|0,0:0|0:0|0:0,0:0:0:0:
16,100,66085,2,0,P|55:96|96:116,1,65,2|0,0:0|0:0,0:0:0:0:
128,164,66469,2,0,P|159:172|191:168,1,65,2|0,0:0|0:0,0:0:0:0:
252,216,66854,2,0,P|268:160|208:92,1,130,2|2,0:0|0:0,0:0:0:0:
168,244,67623,1,2,0:0:0:0:
228,292,67816,1,2,0:0:0:0:
304,280,68008,6,0,L|440:272,1,130,10|2,0:2|0:0,0:0:0:0:
484,124,68777,2,0,L|348:132,1,130,2|6,0:0|0:1,0:0:0:0:
284,164,69354,1,0,0:0:0:0:
220,116,69546,6,0,P|180:112|144:116,1,65,10|0,0:2|0:0,0:0:0:0:
144,192,69931,2,0,P|176:193|208:189,1,65,2|0,0:0|0:0,0:0:0:0:
268,244,70316,2,0,P|284:292|268:372,1,130,2|2,0:0|0:0,0:0:0:0:
196,344,70892,1,2,0:0:0:0:
124,312,71085,5,14,0:2:0:0:
80,152,71469,2,0,P|104:128|176:124,2,97.5,2|0|0,0:0|0:0|0:0,0:0:0:0:
4,140,72239,2,0,P|4:168|40:216,1,65,2|0,0:0|0:0,0:0:0:0:
4,276,72623,2,0,P|60:266|83:245,1,65,2|0,0:0|0:0,0:0:0:0:
132,224,73008,2,0,P|188:208|268:228,1,130,2|2,0:0|0:0,0:0:0:0:
388,308,73777,1,6,0:1:0:0:
452,164,74162,6,0,P|460:104|436:40,1,130,6|2,0:1|0:0,0:0:0:0:
284,72,74931,2,0,P|276:132|300:196,1,130,2|2,0:0|0:0,0:0:0:0:
268,268,75508,1,2,0:0:0:0:
200,232,75700,2,0,L|84:228,2,97.5,14|0|10,0:2|0:0|0:2,0:0:0:0:
416,212,76854,1,14,0:1:0:0:
416,212,77239,6,0,P|424:148|400:112,2,97.5,14|2|0,0:2|0:2|0:0,0:0:0:0:
348,172,78008,2,0,L|240:168,2,97.5,10|2|0,0:2|0:2|0:0,0:0:0:0:
336,96,78777,6,0,L|244:92,1,65,10|10,0:2|0:2,0:0:0:0:
224,28,79162,2,0,L|132:24,1,65,10|10,0:2|0:2,0:0:0:0:
88,60,79546,2,0,B|72:124|72:124|88:208,1,130,10|6,0:2|0:0,0:0:0:0:
180,312,80316,6,0,B|292:304,2,97.5,14|2|2,0:2|0:2|0:2,0:0:0:0:
128,372,81085,2,0,P|100:320|140:240,1,130,2|10,0:0|0:2,0:0:0:0:
224,140,81854,6,0,L|316:144,1,65,10|2,0:2|0:2,0:0:0:0:
344,200,82239,2,0,L|436:204,1,65,10|0,0:2|0:0,0:0:0:0:
456,264,82623,2,0,P|468:320|448:360,2,97.5,14|2|2,0:1|0:2|0:2,0:0:0:0:
392,308,83392,6,0,P|348:324|248:300,1,130,10|2,0:2|0:0,0:0:0:0:
188,308,83969,2,0,L|76:328,2,97.5
52,212,84931,6,0,B|60:148|60:148|48:72,1,130,10|10,0:2|0:2,0:0:0:0:
96,20,85508,1,0,0:0:0:0:
160,64,85700,2,0,P|200:76|288:56,1,130,10|10,0:2|0:2,0:0:0:0:
376,184,86469,6,0,L|364:296,2,97.5,14|2|2,0:2|0:2|0:2,0:0:0:0:
444,144,87239,2,0,P|416:116|380:104,1,65,2|0,0:0|0:0,0:0:0:0:
388,28,87623,2,0,P|352:40|324:68,1,65,10|2,0:2|0:2,0:0:0:0:
256,36,88008,6,0,P|256:84|320:136,1,130,10|10,0:2|0:2,0:0:0:0:
412,256,88777,2,0,P|388:288|316:296,2,97.5,10|2|2,0:2|0:2|0:2,0:0:0:0:
340,224,89546,6,0,L|240:200,2,97.5,14|2|2,0:2|0:2|0:2,0:0:0:0:
404,180,90316,2,0,P|424:128|392:48,1,130,2|14,0:0|0:2,0:0:0:0:
332,28,90892,1,2,0:2:0:0:
256,44,91085,6,0,B|192:36|192:36|100:52,1,130,10|2,0:2|0:2,0:0:0:0:
124,124,91662,2,0,B|188:132|188:132|252:120,1,130,10|2,0:2|0:2,0:0:0:0:
316,164,92239,1,10,1:2:0:0:
396,300,92623,6,0,P|360:324|260:308,1,130,2|2,0:0|0:0,0:0:0:0:
156,220,93392,2,0,P|93:209|36:238,1,130,2|2,0:0|0:0,0:0:0:0:
180,296,94162,6,0,P|214:273|232:240,1,65,2|2,0:0|0:0,0:0:0:0:
256,180,94546,2,0,P|260:140|252:112,1,65,2|2,0:0|0:0,0:0:0:0:
212,52,94931,2,0,P|184:28|144:16,1,65,2|2,0:0|0:0,0:0:0:0:
80,16,95316,1,0,0:0:0:0:
