osu file format v14

[General]
AudioFilename: 7shadesofcolour.mp3
AudioLeadIn: 0
PreviewTime: 52046
Countdown: 0
SampleSet: Soft
StackLeniency: 0.4
Mode: 0
LetterboxInBreaks: 0
WidescreenStoryboard: 1

[Editor]
DistanceSpacing: 1.1
BeatDivisor: 4
GridSize: 4
TimelineZoom: 1.8

[Metadata]
Title:7 Colors
TitleUnicode:7 Colors
Artist:kors k feat. Sunao Yoshikawa
ArtistUnicode:kors k feat. 吉河順央
Creator:Yauxo
Version:Kinshara's Hard
Source:REFLEC BEAT colette -Summer-
Tags:pishifat Kinshara Snaggletooth Colours プリズムユーロ PRISM EURO pop'n music Sunny Park jubeat saucer fulfill
BeatmapID:710682
BeatmapSetID:272555

[Difficulty]
HPDrainRate:6
CircleSize:4
OverallDifficulty:6
ApproachRate:8.2
SliderMultiplier:1.5
SliderTickRate:1

[Events]
//Background and Video events
0,0,"morethan7colors.jpg",0,0
//Break Periods
//Storyboard Layer 0 (Background)
//Storyboard Layer 1 (Fail)
//Storyboard Layer 2 (Pass)
//Storyboard Layer 3 (Foreground)
//Storyboard Sound Samples

[TimingPoints]
316,384.615384615385,4,2,1,70,1,0
8008,-83.3333333333333,4,2,1,70,0,0
10700,-100,4,2,1,70,0,0
11085,-83.3333333333333,4,2,1,70,0,0
11341,-100,4,2,1,70,0,0
12623,-125,4,2,1,70,0,0
13777,-74.0740740740741,4,2,1,70,0,0
14066,-74.0740740740741,4,2,1,20,0,0
14162,-100,4,2,1,70,0,1
14258,-100,4,2,1,70,0,0
28969,-100,4,2,1,20,0,0
29066,-100,4,2,1,70,0,0
29258,-100,4,2,1,20,0,0
29354,-100,4,2,1,70,0,0
31950,-100,4,2,1,20,0,0
32046,-100,4,2,1,70,0,0
32142,-100,4,2,1,20,0,0
32239,-100,4,2,1,70,0,0
37527,-100,4,2,1,20,0,0
37623,-100,4,2,1,70,0,0
52239,-125,4,2,1,70,0,0
52527,-125,4,2,1,20,0,0
52623,-100,4,2,1,70,0,1
64546,-100,4,2,1,70,0,0
64931,-100,4,2,1,70,0,1
76854,-100,4,2,1,70,0,1
77239,-125,4,2,1,70,0,0
79546,-100,4,2,1,70,0,0
79931,-74.0740740740741,4,2,1,70,0,0
80316,-100,4,2,1,70,0,1
80412,-100,4,2,1,70,0,0

[Colours]
Combo1 : 190,142,234
Combo2 : 244,132,171
Combo3 : 243,203,118
Combo4 : 247,233,138
Combo5 : 166,230,138
Combo6 : 129,222,239
Combo7 : 149,143,218

[HitObjects]
44,64,316,6,0,P|93:90|148:92,1,112.5,2|0,0:0|0:0,0:0:0:0:
176,60,700,2,0,L|172:152,1,75,8|2,0:0|0:0,0:0:0:0:
248,100,1085,2,0,P|297:74|352:72,1,112.5,8|0,1:3|0:0,0:0:0:0:
376,104,1469,2,0,L|424:108,2,37.5,2|0|8,0:0|0:0|0:0,0:0:0:0:
336,176,1854,6,0,L|340:276,1,75,6|0,0:1|0:0,0:0:0:0:
268,296,2239,2,0,L|271:371,2,75,0|0|0,0:0|0:0|0:0,0:0:0:0:
188,320,2816,1,0,0:0:0:0:
188,320,3008,2,0,P|150:321|114:312,1,75,0|0,0:0|0:0,0:0:0:0:
44,272,3392,5,2,0:2:0:0:
88,204,3585,1,0,0:0:0:0:
44,132,3777,1,2,0:2:0:0:
128,128,3969,1,0,0:0:0:0:
48,108,4162,1,2,0:2:0:0:
132,104,4354,1,0,0:0:0:0:
84,36,4546,1,2,0:2:0:0:
168,32,4739,1,0,0:0:0:0:
220,96,4931,6,0,P|256:107|294:108,1,75,4|0,0:1|0:0,0:0:0:0:
340,40,5316,2,0,P|375:29|413:27,1,75,0|0,0:0|0:0,0:0:0:0:
475,79,5700,2,0,P|478:117|470:153,1,75,0|0,0:0|0:0,0:0:0:0:
400,108,6085,1,0,0:0:0:0:
396,192,6277,1,0,0:0:0:0:
396,192,6469,6,0,L|400:232,5,25,2|0|0|0|0|0,0:2|0:0|0:0|0:0|0:0|0:0,0:0:0:0:
436,244,6854,2,0,L|432:312,3,37.5,2|0|0|0,0:2|0:0|0:0|0:0,0:0:0:0:
404,308,7239,2,0,L|344:300,3,37.5,2|0|0|0,0:2|0:0|0:0|0:0,0:0:0:0:
328,316,7623,2,0,L|264:320,3,37.5,2|0|0|0,0:2|0:0|0:0|0:0,0:0:0:0:
252,284,8008,6,0,L|256:380,2,89.9999972534181,6|0|2,0:1|0:0|0:0,0:0:0:0:
216,252,9546,2,0,L|212:162,2,89.9999972534181,6|0|2,0:1|0:0|0:0,0:0:0:0:
208,300,10700,2,0,L|164:296,3,37.5,6|0|4|0,0:1|0:1|0:1|0:1,0:0:0:0:
120,288,11085,2,0,P|93:251|85:207,1,89.9999972534181,6|0,0:1|0:0,0:0:0:0:
136,144,11469,6,0,L|136:100,5,25,10|0|0|0|0|0,0:2|0:0|0:0|0:0|0:0|0:0,0:0:0:0:
112,104,11854,2,0,L|116:56,3,37.5,10|0|0|0,0:2|0:0|0:0|0:0,0:0:0:0:
96,28,12239,2,0,L|184:24,1,75,10|0,0:2|0:0,0:0:0:0:
208,40,12527,1,0,0:0:0:0:
208,40,12623,6,0,L|304:44,2,90,2|2|2,1:3|1:3|1:3,0:0:0:0:
219,163,13777,6,0,P|293:179|361:148,1,151.875000579357,2|0,0:2|0:0,0:0:0:0:
388,115,14162,6,0,P|376:151|377:188,1,75,14|0,0:2|0:0,0:0:0:0:
400,224,14450,1,2,0:2:0:0:
400,224,14546,1,0,0:0:0:0:
328,264,14739,2,0,L|332:348,1,75,2|2,0:2|0:0,0:0:0:0:
331,338,15027,1,2,0:2:0:0:
331,338,15123,1,0,0:0:0:0:
251,311,15316,2,0,P|217:298|180:293,1,75,10|2,0:2|0:2,0:0:0:0:
100,312,15700,6,0,L|104:260,3,37.5,10|2|2|2,0:2|0:2|0:2|0:2,0:0:0:0:
92,232,16085,2,0,P|80:196|78:159,1,75,10|0,0:2|0:0,0:0:0:0:
136,100,16469,1,14,0:1:0:0:
204,144,16662,1,0,0:0:0:0:
208,148,16758,1,2,0:2:0:0:
212,152,16854,2,0,L|304:148,1,75,0|2,0:0|0:2,0:0:0:0:
368,244,17239,6,0,L|284:240,1,75,14|0,0:1|0:0,0:0:0:0:
252,236,17527,1,2,0:2:0:0:
252,236,17623,1,0,0:0:0:0:
176,272,17816,2,0,L|180:360,1,75,2|2,0:2|0:0,0:0:0:0:
179,346,18104,1,2,0:2:0:0:
179,346,18200,1,0,0:0:0:0:
100,360,18392,1,14,0:1:0:0:
44,300,18585,1,2,0:2:0:0:
80,228,18777,6,0,L|84:176,3,37.5,10|2|2|2,0:2|0:2|0:2|0:2,0:0:0:0:
100,152,19162,2,0,P|134:165|171:170,1,75,10|0,0:2|0:0,0:0:0:0:
236,120,19546,2,0,P|270:106|307:101,1,75,10|0,0:2|0:0,0:0:0:0:
388,120,19931,2,0,L|386:168,3,37.5,10|2|2|2,0:2|0:2|0:2|0:2,0:0:0:0:
400,196,20316,6,0,L|396:288,1,75,14|0,0:2|0:0,0:0:0:0:
396,312,20604,1,2,0:2:0:0:
396,312,20700,1,0,0:0:0:0:
300,368,20892,2,0,P|288:328|288:296,1,75,2|2,0:2|0:0,0:0:0:0:
296,256,21181,1,2,0:2:0:0:
296,256,21277,1,0,0:0:0:0:
248,188,21469,1,10,0:2:0:0:
168,216,21662,1,2,0:2:0:0:
176,296,21854,6,0,L|180:348,3,37.5,10|2|2|2,0:2|0:2|0:2|0:2,0:0:0:0:
148,364,22239,2,0,L|52:356,1,75,10|0,0:2|0:0,0:0:0:0:
24,292,22623,1,10,0:2:0:0:
72,224,22816,1,0,0:0:0:0:
72,224,22912,1,2,0:2:0:0:
72,224,23008,2,0,P|84:189|86:152,1,75,0|2,0:0|0:2,0:0:0:0:
168,56,23392,6,0,P|169:93|182:128,1,75,14|0,0:1|0:0,0:0:0:0:
212,160,23681,1,2,0:2:0:0:
212,160,23777,1,0,0:0:0:0:
268,99,23969,2,0,P|303:87|340:84,1,75,2|2,0:2|0:0,0:0:0:0:
380,100,24258,1,2,0:2:0:0:
380,100,24354,1,0,0:0:0:0:
420,172,24546,1,14,0:1:0:0:
388,248,24739,1,2,0:2:0:0:
304,240,24931,6,0,L|308:192,4,37.5,10|2|2|2|2,0:2|0:2|0:2|0:2|0:2,0:0:0:0:
232,280,25508,2,0,L|228:317,4,37.5,10|2|10|2|2,0:2|0:2|0:2|0:2|0:2,0:0:0:0:
167,227,26085,2,0,P|133:213|96:209,1,75,2|0,0:2|0:0,0:0:0:0:
8,336,26469,6,0,P|22:301|25:264,1,75,12|0,0:2|0:0,0:0:0:0:
16,180,26854,2,0,L|20:100,1,75,2|0,0:0|0:0,0:0:0:0:
40,24,27239,1,2,0:0:0:0:
120,0,27431,1,0,0:0:0:0:
180,56,27623,2,0,L|232:60,2,37.5,2|0|0,0:0|0:0|0:0,0:0:0:0:
132,124,28008,6,0,P|120:160|119:197,1,75,2|0,0:0|0:0,0:0:0:0:
196,228,28392,2,0,L|200:280,2,37.5,2|0|0,0:0|0:0|0:0,0:0:0:0:
260,175,28777,2,0,P|295:165|333:164,1,75,10|0,0:2|0:0,0:0:0:0:
368,184,29066,1,2,0:2:0:0:
368,184,29162,2,0,P|403:194|441:195,1,75,0|2,0:0|0:2,0:0:0:0:
316,256,29546,6,0,L|312:336,1,75,10|0,0:2|0:0,0:0:0:0:
228,336,29931,2,0,L|232:376,2,37.5,2|0|0,0:0|0:0|0:0,0:0:0:0:
160,292,30316,2,0,P|126:308|88:311,1,75,2|0,0:0|0:0,0:0:0:0:
36,248,30700,1,2,0:0:0:0:
36,248,30892,1,0,0:0:0:0:
96,192,31085,6,0,L|92:112,1,75,2|0,0:0|0:0,0:0:0:0:
92,36,31469,1,10,0:2:0:0:
172,16,31662,1,0,0:0:0:0:
172,16,31854,1,10,0:2:0:0:
240,64,32046,1,2,0:2:0:0:
240,64,32239,2,0,L|320:60,1,75,10|2,0:2|0:2,0:0:0:0:
456,136,32623,6,0,P|421:122|383:118,1,75,12|0,0:2|0:0,0:0:0:0:
312,160,33008,2,0,L|237:163,1,75,10|0,0:2|0:0,0:0:0:0:
192,236,33392,1,2,0:0:0:0:
192,236,33585,1,0,0:0:0:0:
272,252,33777,2,0,L|276:296,3,37.5,2|0|0|0,0:0|0:0|0:0|0:0,0:0:0:0:
240,312,34162,6,0,L|244:356,3,37.5,2|0|0|0,0:0|0:0|0:0|0:0,0:0:0:0:
212,376,34546,2,0,L|137:372,1,75,10|0,0:2|0:0,0:0:0:0:
76,316,34931,2,0,P|65:280|63:242,1,75,2|0,0:0|0:0,0:0:0:0:
124,188,35316,2,0,L|170:191,3,37.5,0|0|0|0,0:0|0:0|0:0|0:0,0:0:0:0:
200,180,35700,6,0,P|210:144|212:106,1,75,0|0,0:0|0:0,0:0:0:0:
88,16,36085,2,0,L|172:12,1,75,12|2,0:2|0:0,0:0:0:0:
204,24,36373,1,0,0:0:0:0:
204,24,36469,2,0,P|239:35|276:36,1,75,2|0,0:0|0:0,0:0:0:0:
356,12,36854,1,2,0:0:0:0:
424,100,37046,1,0,0:0:0:0:
424,100,37142,1,0,0:0:0:0:
424,100,37239,6,0,P|386:100|351:112,1,75,10|0,0:2|0:0,0:0:0:0:
327,191,37623,2,0,P|324:240|312:280,1,75,2|2,0:0|0:0,0:0:0:0:
257,145,38008,2,0,L|260:90,2,37.5,0|0|2,0:0|0:0|0:0,0:0:0:0:
212,212,38392,2,0,L|168:208,3,37.5,2|0|0|0,0:0|0:0|0:0|0:0,0:0:0:0:
140,184,38777,6,0,P|127:148|126:111,1,75,14|0,0:1|0:0,0:0:0:0:
180,48,39162,1,2,0:0:0:0:
180,48,39354,1,0,0:0:0:0:
260,28,39546,2,0,L|297:30,2,37.5,2|0|2,0:0|0:0|0:2,0:0:0:0:
176,20,39931,2,0,L|72:24,1,75,2|2,0:0|0:2,0:0:0:0:
240,112,40316,6,0,P|273:128|310:132,1,75,6|0,0:1|0:0,0:0:0:0:
360,68,40700,2,0,L|406:65,3,37.5,2|0|0|0,0:0|0:0|0:0|0:0,0:0:0:0:
431,87,41085,2,0,P|439:124|438:162,1,75,2|0,0:0|0:0,0:0:0:0:
420,200,41373,1,0,0:0:0:0:
420,200,41469,2,0,P|412:237|413:275,1,75,2|0,0:0|0:0,0:0:0:0:
472,364,41854,6,0,P|436:351|399:347,1,75,14|0,0:1|0:0,0:0:0:0:
320,368,42239,2,0,L|232:364,1,75,2|0,0:0|0:0,0:0:0:0:
184,308,42623,1,0,0:0:0:0:
184,308,42816,1,0,0:0:0:0:
132,244,43008,2,0,L|57:247,1,75,2|2,0:0|0:2,0:0:0:0:
57,247,43585,5,0,0:0:0:0:
52,164,43777,1,2,0:0:0:0:
112,108,43969,1,0,0:0:0:0:
188,144,44162,2,0,L|184:200,3,37.5,0|0|0|0,0:0|0:0|0:0|0:0,0:0:0:0:
220,200,44546,2,0,L|216:256,3,37.5,2|0|0|0,0:0|0:0|0:0|0:0,0:0:0:0:
196,272,44931,6,0,P|231:260|269:259,1,75,14|0,0:1|0:0,0:0:0:0:
336,308,45316,1,2,0:0:0:0:
336,308,45412,1,0,0:0:0:0:
336,308,45508,1,0,0:0:0:0:
392,248,45700,2,0,L|388:156,1,75,2|4,0:0|0:0,0:0:0:0:
388,132,45989,1,0,0:0:0:0:
388,132,46085,2,0,P|399:96|402:59,1,75,2|0,0:0|0:0,0:0:0:0:
228,80,46469,6,0,L|308:76,1,75,14|0,0:1|0:0,0:0:0:0:
260,0,46854,1,2,0:0:0:0:
260,0,46950,1,0,0:0:0:0:
260,0,47046,1,4,0:0:0:0:
128,64,47239,2,0,P|131:101|143:136,1,75,2|4,0:0|0:0,0:0:0:0:
216,176,47623,1,2,0:0:0:0:
292,148,47816,1,0,0:0:0:0:
308,68,48008,5,14,0:1:0:0:
308,68,48200,1,0,0:0:0:0:
260,0,48392,2,0,L|185:3,1,75,2|0,0:0|0:0,0:0:0:0:
112,44,48777,1,0,0:0:0:0:
112,44,48969,1,0,0:0:0:0:
116,128,49162,1,2,0:0:0:0:
120,212,49354,1,0,0:0:0:0:
124,296,49546,5,14,1:0:0:0:
256,192,49642,12,4,51085,1:3:0:0:
56,60,52239,6,0,L|60:156,1,90,0|0,2:0|0:0,0:0:0:0:
59,149,52623,6,0,L|139:145,1,75,14|0,0:2|0:0,0:0:0:0:
212,172,53008,2,0,L|214:218,3,37.5,2|0|0|0,0:0|0:0|0:0|0:0,0:0:0:0:
244,236,53392,2,0,L|240:332,1,75,8|0,0:2|0:0,0:0:0:0:
304,368,53777,1,2,0:0:0:0:
380,332,53969,1,0,0:0:0:0:
388,248,54162,5,2,0:0:0:0:
388,248,54354,1,0,0:0:0:0:
324,196,54546,2,0,P|314:159|314:122,1,75,2|0,0:0|0:0,0:0:0:0:
328,84,54835,1,0,0:0:0:0:
328,84,54931,2,0,L|372:88,2,37.5,2|0|0,0:0|0:0|0:0,0:0:0:0:
244,76,55316,1,2,0:0:0:0:
244,76,55508,1,2,0:0:0:0:
179,24,55700,6,0,P|142:28|108:42,1,75,10|0,0:2|0:0,0:0:0:0:
56,108,56085,2,0,L|60:148,3,37.5,2|0|0|0,0:0|0:0|0:0|0:0,0:0:0:0:
87,171,56469,2,0,P|87:208|79:245,1,75,2|0,0:0|0:0,0:0:0:0:
20,300,56854,1,6,0:1:0:0:
20,300,57046,1,0,0:0:0:0:
99,324,57239,6,0,P|134:312|172:310,1,75,10|0,0:2|0:0,0:0:0:0:
248,344,57623,2,0,P|283:355|321:357,1,75,2|0,0:0|0:0,0:0:0:0:
360,344,57912,1,0,0:0:0:0:
392,316,58008,2,0,L|436:320,2,37.5,2|0|0,0:0|0:0|0:0,0:0:0:0:
324,268,58392,2,0,L|322:207,3,37.5,2|2|2|2,0:0|0:0|0:0|0:0,0:0:0:0:
324,188,58777,6,0,L|328:100,1,75,14|0,0:2|0:0,0:0:0:0:
264,60,59162,2,0,L|220:64,3,37.5,2|0|0|0,0:0|0:0|0:0|0:0,0:0:0:0:
192,84,59546,2,0,P|154:81|118:70,1,75,2|0,0:0|0:0,0:0:0:0:
52,24,59931,1,2,0:0:0:0:
52,24,60123,1,0,0:0:0:0:
96,152,60316,6,0,P|91:189|77:223,1,75,2|0,0:0|0:0,0:0:0:0:
36,296,60700,2,0,L|40:344,3,37.5,2|0|0|0,0:0|0:0|0:0|0:0,0:0:0:0:
68,360,61085,2,0,L|112:356,3,37.5,2|0|0|0,0:0|0:0|0:0|0:0,0:0:0:0:
140,332,61469,2,0,P|177:334|213:345,1,75,6|0,0:1|0:0,0:0:0:0:
320,248,61854,6,0,P|284:259|246:261,1,75,6|0,0:1|0:0,0:0:0:0:
396,272,62239,2,0,P|407:308|409:346,1,75,2|0,0:0|0:0,0:0:0:0:
420,196,62623,2,0,P|456:185|494:183,1,75,2|0,0:0|0:0,0:0:0:0:
344,168,63008,2,0,P|333:132|331:94,1,75,6|0,0:1|0:0,0:0:0:0:
352,16,63392,5,14,0:2:0:0:
352,16,63585,1,0,0:0:0:0:
272,40,63777,2,0,L|196:44,1,75,0|0,0:0|0:0,0:0:0:0:
184,124,64162,1,2,0:0:0:0:
184,124,64354,2,0,L|258:120,1,75,0|2,0:0|0:0,0:0:0:0:
120,72,64739,1,2,0:0:0:0:
120,72,64835,1,2,0:0:0:0:
120,72,64931,6,0,P|84:61|46:59,1,75,14|0,0:2|0:0,0:0:0:0:
4,156,65316,2,0,L|0:200,3,37.5,2|0|0|0,0:0|0:0|0:0|0:0,0:0:0:0:
32,220,65700,2,0,P|43:256|45:294,1,75,2|0,0:0|0:0,0:0:0:0:
20,372,66085,1,2,0:0:0:0:
20,372,66277,1,0,0:0:0:0:
124,312,66469,6,0,L|212:316,1,75,2|0,0:0|0:0,0:0:0:0:
304,220,66854,2,0,L|216:224,1,75,2|0,0:0|0:0,0:0:0:0:
196,200,67142,1,0,0:0:0:0:
196,200,67239,2,0,L|200:152,2,37.5,2|0|0,0:0|0:0|0:0,0:0:0:0:
116,224,67623,1,2,0:0:0:0:
40,192,67816,1,2,0:0:0:0:
24,112,68008,6,0,P|34:76|37:38,1,75,10|0,0:2|0:0,0:0:0:0:
112,72,68392,2,0,P|130:75|149:76,3,37.5,2|0|0|0,0:0|0:0|0:0|0:0,0:0:0:0:
184,55,68777,2,0,P|219:45|257:43,1,75,2|0,0:0|0:0,0:0:0:0:
332,80,69162,1,6,0:1:0:0:
332,80,69354,1,0,0:0:0:0:
280,200,69546,6,0,P|269:164|266:126,1,75,10|0,0:2|0:0,0:0:0:0:
399,126,69931,2,0,P|395:163|384:199,1,75,2|0,0:0|0:0,0:0:0:0:
379,238,70219,1,0,0:0:0:0:
379,238,70316,2,0,L|423:234,2,37.5,2|0|0,0:0|0:0|0:0,0:0:0:0:
312,288,70700,2,0,L|316:332,3,37.5,2|2|2|2,0:0|0:0|0:0|0:0,0:0:0:0:
340,360,71085,6,0,P|305:350|267:348,1,75,14|0,0:2|0:0,0:0:0:0:
184,352,71469,2,0,L|140:348,3,37.5,2|0|0|0,0:0|0:0|0:0|0:0,0:0:0:0:
104,356,71854,2,0,P|69:366|31:368,1,75,2|0,0:0|0:0,0:0:0:0:
4,292,72239,1,2,0:0:0:0:
24,212,72431,1,0,0:0:0:0:
108,196,72623,6,0,P|143:206|181:208,1,75,2|0,0:0|0:0,0:0:0:0:
228,140,73008,2,0,L|272:136,3,37.5,2|0|0|0,0:0|0:0|0:0|0:0,0:0:0:0:
304,148,73392,2,0,L|308:208,3,37.5,2|0|0|0,0:0|0:0|0:0|0:0,0:0:0:0:
340,212,73777,2,0,P|336:249|323:284,1,75,6|0,0:1|0:0,0:0:0:0:
200,260,74162,6,0,P|203:297|216:332,1,75,6|0,0:1|0:0,0:0:0:0:
160,192,74546,2,0,P|126:176|89:170,1,75,2|0,0:0|0:0,0:0:0:0:
235,192,74931,2,0,P|251:182|266:169,3,37.5,2|0|0|0,0:0|0:0|0:0|0:0,0:0:0:0:
288,136,75316,2,0,P|292:117|293:97,3,37.5,2|2|2|2,0:0|0:0|0:0|0:0,0:0:0:0:
292,56,75700,5,14,0:2:0:0:
220,8,75892,1,2,0:0:0:0:
220,8,76277,1,10,0:2:0:0:
220,8,76662,1,2,0:0:0:0:
180,80,76854,2,0,L|161:82|142:84,3,37.5,14|0|2|0,0:1|0:0|0:0|0:0,0:0:0:0:
112,72,77239,6,0,P|72:60|12:64,1,90,14|2,0:2|0:2,0:0:0:0:
24,61,77623,1,2,0:0:0:0:
56,172,77912,1,0,0:0:0:0:
56,172,78008,2,0,P|64:216|65:260,1,90,10|2,0:2|0:2,0:0:0:0:
64,261,78392,1,2,0:0:0:0:
176,228,78681,1,0,0:0:0:0:
176,228,78777,6,0,P|204:218|234:214,3,60,10|10|10|10,0:2|0:2|0:2|0:2,0:0:0:0:
312,272,79546,2,0,L|316:232,3,37.5,10|2|10|0,0:2|0:0|0:2|0:0,0:0:0:0:
320,196,79931,6,0,P|304:122|335:54,1,151.875000579357,6|2,0:0|0:0,0:0:0:0:
356,20,80316,6,0,P|320:32|283:31,1,75,14|0,0:2|0:0,0:0:0:0:
248,8,80604,1,2,0:2:0:0:
248,8,80700,1,0,0:0:0:0:
203,80,80893,2,0,L|119:76,1,75,2|2,0:2|0:0,0:0:0:0:
129,77,81181,1,2,0:2:0:0:
129,77,81277,1,0,0:0:0:0:
156,157,81470,2,0,P|169:191|174:228,1,75,10|2,0:2|0:2,0:0:0:0:
155,308,81854,2,0,L|207:304,3,37.5,10|2|2|2,0:2|0:2|0:2|0:2,0:0:0:0:
235,316,82239,6,0,P|271:328|308:330,1,75,10|0,0:2|0:0,0:0:0:0:
367,272,82623,1,14,0:1:0:0:
323,204,82816,1,0,0:0:0:0:
323,204,82912,1,2,0:2:0:0:
323,204,83008,2,0,L|327:112,1,75,0|2,0:0|0:2,0:0:0:0:
223,40,83393,6,0,L|227:124,1,75,10|0,0:2|0:0,0:0:0:0:
231,156,83681,1,2,0:2:0:0:
231,156,83777,1,0,0:0:0:0:
195,232,83970,2,0,L|107:228,1,75,2|2,0:2|0:0,0:0:0:0:
121,229,84258,1,2,0:2:0:0:
121,229,84354,1,0,0:0:0:0:
107,308,84546,1,14,0:1:0:0:
167,364,84739,1,2,0:2:0:0:
239,328,84931,6,0,L|291:324,3,37.5,10|0|2|0,0:2|0:0|0:2|0:0,0:0:0:0:
315,308,85316,2,0,P|302:274|297:237,1,75,10|0,0:2|0:0,0:0:0:0:
347,172,85700,2,0,P|361:138|366:101,1,75,10|0,0:2|0:0,0:0:0:0:
368,16,86085,2,0,L|330:17,3,37.5,10|0|2|0,0:2|0:0|0:2|0:0,0:0:0:0:
291,12,86470,6,0,L|199:16,1,75,14|0,0:2|0:0,0:0:0:0:
175,16,86758,1,2,0:2:0:0:
175,16,86854,1,0,0:0:0:0:
119,112,87046,2,0,P|159:124|191:124,1,75,2|2,0:2|0:0,0:0:0:0:
231,108,87335,1,2,0:2:0:0:
231,108,87431,1,0,0:0:0:0:
287,168,87623,1,10,0:2:0:0:
251,244,87816,1,2,0:2:0:0:
171,232,88008,6,0,L|119:228,3,37.5,10|2|2|2,0:2|0:2|0:2|0:2,0:0:0:0:
103,260,88393,2,0,L|111:356,1,75,10|0,0:2|0:0,0:0:0:0:
175,384,88777,1,10,0:2:0:0:
243,336,88970,1,0,0:0:0:0:
243,336,89066,1,2,0:2:0:0:
243,336,89162,2,0,P|278:324|315:322,1,75,0|2,0:0|0:2,0:0:0:0:
411,240,89546,6,0,P|374:239|339:226,1,75,14|0,0:2|0:0,0:0:0:0:
307,196,89835,1,2,0:2:0:0:
307,196,89931,1,0,0:0:0:0:
368,140,90123,2,0,P|380:105|383:68,1,75,2|2,0:2|0:0,0:0:0:0:
367,28,90412,1,2,0:2:0:0:
367,28,90508,1,0,0:0:0:0:
295,0,90700,1,14,0:2:0:0:
219,20,90893,1,2,0:2:0:0:
227,104,91085,6,0,L|275:100,4,37.5,10|2|2|2|2,0:2|0:2|0:2|0:2|0:2,0:0:0:0:
187,176,91662,2,0,L|150:180,4,37.5,10|2|10|2|2,0:2|0:2|0:2|0:2|0:2,0:0:0:0:
260,216,92239,2,0,P|274:250|278:287,1,75,10|0,1:2|0:0,0:0:0:0:
224,352,92623,6,0,L|136:348,1,75,2|0,0:0|0:0,0:0:0:0:
32,268,93008,2,0,L|106:271,1,75,2|0,0:0|0:0,0:0:0:0:
224,192,93392,2,0,L|149:188,1,75,2|0,0:0|0:0,0:0:0:0:
41,96,93777,2,0,L|115:99,1,75,2|2,0:0|0:0,0:0:0:0:
156,112,94066,1,2,0:0:0:0:
156,112,94162,6,0,P|193:112|229:103,1,75,2|2,0:0|0:0,0:0:0:0:
296,56,94546,1,2,0:0:0:0:
364,100,94739,2,0,L|360:148,2,37.5,2|0|2,0:0|0:0|0:0,0:0:0:0:
436,64,95123,2,0,L|432:16,2,37.5,2|2|2,0:0|0:0|0:0,0:0:0:0:
