osu file format v14

[General]
AudioFilename: 7shadesofcolour.mp3
AudioLeadIn: 0
PreviewTime: 52046
Countdown: 0
SampleSet: None
StackLeniency: 0.4
Mode: 0
LetterboxInBreaks: 0
WidescreenStoryboard: 0

[Editor]
Bookmarks: 14155,26462,51078,80309
DistanceSpacing: 1
BeatDivisor: 4
GridSize: 4
TimelineZoom: 1.8

[Metadata]
Title:7 Colors
TitleUnicode:7 Colors
Artist:kors k feat. Sunao Yoshikawa
ArtistUnicode:kors k feat. 吉河順央
Creator:Yauxo
Version:Easy
Source:REFLEC BEAT colette -Summer-
Tags:pishifat Kinshara Snaggletooth Colours プリズムユーロ PRISM EURO pop'n music Sunny Park jubeat saucer fulfill
BeatmapID:651178
BeatmapSetID:272555

[Difficulty]
HPDrainRate:2
CircleSize:2.5
OverallDifficulty:2
ApproachRate:3
SliderMultiplier:1
SliderTickRate:1

[Events]
//Background and Video events
0,0,"morethan7colors.jpg",0,0
//Break Periods
//Storyboard Layer 0 (Background)
//Storyboard Layer 1 (Fail)
//Storyboard Layer 2 (Pass)
//Storyboard Layer 3 (Foreground)
//Storyboard Sound Samples

[TimingPoints]
316,384.615384615385,4,3,1,70,1,0
14162,-100,4,3,1,70,0,1
14258,-100,4,3,1,70,0,0
26469,-100,4,3,1,70,0,0
52623,-100,4,3,1,70,0,1
64546,-100,4,3,1,70,0,0
64931,-100,4,3,1,70,0,1
77239,-100,4,3,1,70,0,0
80316,-100,4,3,1,70,0,1
80412,-100,4,3,1,70,0,0

[Colours]
Combo1 : 190,142,234
Combo2 : 244,132,171
Combo3 : 243,203,118
Combo4 : 247,233,138
Combo5 : 166,230,138
Combo6 : 129,222,239
Combo7 : 149,143,218

[HitObjects]
76,132,1854,6,0,B|144:92|212:132|212:132|244:152|264:149,1,200,6|0,0:1|0:0,0:0:0:0:
356,104,3008,1,0,0:0:0:0:
448,136,3392,2,0,P|448:192|408:244,1,100,2|2,0:2|0:2,0:0:0:0:
352,296,4162,2,0,P|328:252|330:203,1,100,2|2,0:2|0:2,0:0:0:0:
356,104,4931,6,0,B|296:100|296:100|244:72,2,100,4|0|0,0:1|0:0|0:0,0:0:0:0:
456,104,6085,1,0,0:0:0:0:
448,204,6469,2,0,P|435:360|334:240,1,400,2|6,0:2|0:1,0:0:0:0:
364,144,8392,5,2,0:0:0:0:
312,60,8777,2,0,P|268:83|219:81,1,100,2|2,0:0|0:0,0:0:0:0:
120,64,9546,2,0,P|70:62|27:85,2,100,6|2|2,0:1|0:0|0:0,0:0:0:0:
92,160,10700,1,6,0:1:0:0:
28,236,11085,6,0,B|60:264|116:268|148:240|148:240|176:276|224:268,2,200,6|10|2,0:1|0:2|1:3,0:0:0:0:
188,36,14162,6,0,L|172:148,1,100,14|0,0:2|0:0,0:0:0:0:
228,220,14931,2,0,L|244:332,1,100,2|10,0:0|0:2,0:0:0:0:
328,372,15700,1,10,0:2:0:0:
416,324,16085,1,10,0:2:0:0:
344,252,16469,2,0,P|321:208|323:159,1,100,14|0,0:1|0:0,0:0:0:0:
412,108,17239,6,0,P|442:147|449:196,2,100,14|2|2,0:1|0:0|0:0,0:0:0:0:
328,56,18392,1,14,0:1:0:0:
323,158,18777,2,0,B|224:176|224:176|176:156|176:156|128:184|72:176|36:124,1,300,10|10,0:2|0:2,0:0:0:0:
120,72,20316,6,0,L|196:8,1,100,14|0,0:2|0:0,0:0:0:0:
276,68,21085,2,0,P|319:45|369:47,1,100,2|10,0:0|0:2,0:0:0:0:
424,132,21854,2,0,L|432:248,2,100,10|10|10,0:2|0:2|0:2,0:0:0:0:
468,44,23008,1,6,0:1:0:0:
369,47,23392,6,0,P|319:45|276:68,1,100,14|0,0:1|0:0,0:0:0:0:
192,124,24162,2,0,P|194:173|171:217,1,100,2|14,0:0|0:1,0:0:0:0:
136,312,24931,2,0,P|72:239|100:144,2,200,10|10|12,0:2|0:2|0:2,0:0:0:0:
224,268,26854,5,2,0:0:0:0:
312,312,27239,2,0,L|416:296,1,100,2|2,0:0|0:0,0:0:0:0:
488,236,28008,2,0,P|464:192|466:142,2,100,2|2|10,0:0|0:0|0:2,0:0:0:0:
410,296,29162,1,0,0:0:0:0:
332,236,29546,6,0,P|282:234|238:257,1,100,10|2,0:2|0:0,0:0:0:0:
176,336,30316,2,0,B|144:304|144:304|132:244,1,100,2|2,0:0|0:0,0:0:0:0:
96,156,31085,2,0,L|114:57,2,100,2|10|10,0:0|0:2|0:2,0:0:0:0:
36,236,32239,1,10,0:2:0:0:
112,300,32623,6,0,B|180:348|248:300|248:300|292:276|339:294|339:294|388:236,1,300,12|2,0:2|0:0,0:0:0:0:
444,176,34162,2,0,B|376:128|308:176|308:176|264:200|216:181|216:181|168:240,1,300,2|2,0:0|0:0,0:0:0:0:
84,200,35700,6,0,P|82:249|105:293,2,100,2|12|2,0:0|0:2|0:0,0:0:0:0:
136,116,36854,1,2,0:0:0:0:
112,20,37239,2,0,P|161:18|232:92,2,150,10|2|2,0:2|0:0|0:0,0:0:0:0:
136,116,38777,6,0,B|128:175|128:175|108:216|108:216|112:276,2,150,14|0|2,0:1|0:0|0:0,0:0:0:0:
224,168,40316,2,0,B|231:227|231:227|252:268|252:268|248:328,2,150,6|0|2,0:1|0:0|0:0,0:0:0:0:
308,116,41854,6,0,P|368:116|452:52,2,150,14|0|2,0:1|0:0|0:0,0:0:0:0:
224,60,43392,2,0,P|164:60|80:124,2,150,6|0|2,0:1|0:0|0:0,0:0:0:0:
324,56,44931,6,0,B|313:109|313:109|281:141,1,100,14|2,0:1|0:0,0:0:0:0:
208,212,45700,1,2,0:0:0:0:
136,144,46085,1,2,0:0:0:0:
64,212,46469,6,0,B|75:265|75:265|107:297,1,100,14|2,0:1|0:0,0:0:0:0:
180,368,47238,1,2,0:0:0:0:
252,300,47623,1,2,0:0:0:0:
324,368,48008,6,12,P|373:370|417:347,1,100,14|2,0:1|0:0,0:0:0:0:
448,252,48777,2,0,P|399:250|355:273,2,100,2|2|14,0:0|0:0|1:0,0:0:0:0:
256,192,49642,12,4,51085,1:3:0:0:
212,256,52623,6,0,P|162:258|119:235,1,100,14|2,0:2|0:0,0:0:0:0:
52,160,53392,2,0,P|95:136|145:138,1,100,8|2,0:2|0:0,0:0:0:0:
240,104,54162,1,2,0:0:0:0:
332,140,54546,1,2,0:0:0:0:
424,104,54931,2,0,P|431:153|412:198,1,100,2|2,0:0|0:0,0:0:0:0:
344,272,55700,6,0,P|387:295|437:293,2,100,10|2|2,0:2|0:0|0:0,0:0:0:0:
256,224,56854,1,6,0:1:0:0:
168,272,57239,2,0,P|124:295|74:293,2,100,10|2|2,0:2|0:0|0:0,0:0:0:0:
100,196,58392,1,2,0:0:0:0:
167,119,58777,6,0,P|123:95|74:98,1,100,14|2,0:2|0:0,0:0:0:0:
100,196,59546,2,0,L|88:296,1,100,2|2,0:0|0:0,0:0:0:0:
164,360,60316,2,0,P|207:336|257:338,1,100,2|2,0:0|0:0,0:0:0:0:
352,368,61085,2,0,P|354:318|330:274,1,100,2|6,0:0|0:1,0:0:0:0:
236,240,61854,6,0,P|309:176|404:204,2,200,6|2|14,0:1|0:0|0:2,0:0:0:0:
152,296,63777,1,2,0:0:0:0:
72,240,64162,2,0,L|88:128,1,100,2|2,0:0|0:0,0:0:0:0:
20,68,64931,6,0,P|63:44|113:46,1,100,14|2,0:2|0:0,0:0:0:0:
184,116,65700,2,0,P|227:140|277:138,1,100,2|2,0:0|0:0,0:0:0:0:
372,108,66469,1,2,0:0:0:0:
404,204,66854,1,2,0:0:0:0:
308,234,67239,2,0,P|336:274|339:324,1,100,2|2,0:0|0:0,0:0:0:0:
240,312,68008,6,0,L|132:296,1,100,10|2,0:2|0:0,0:0:0:0:
40,308,68777,2,0,L|56:200,1,100,2|6,0:0|0:1,0:0:0:0:
132,144,69546,2,0,L|116:36,2,100,10|2|2,0:2|0:0|0:0,0:0:0:0:
224,104,70700,1,2,0:0:0:0:
316,64,71085,6,0,L|330:162,1,100,14|2,0:2|0:0,0:0:0:0:
268,240,71854,2,0,P|311:264|361:262,1,100,2|2,0:0|0:0,0:0:0:0:
456,228,72623,1,2,0:0:0:0:
428,132,73008,1,2,0:0:0:0:
329,118,73392,2,0,P|280:116|237:141,1,100,2|6,0:0|0:1,0:0:0:0:
204,236,74162,6,0,P|140:163|168:68,2,200,6|2|14,0:1|0:0|0:2,0:0:0:0:
252,228,75892,1,2,0:0:0:0:
348,254,76277,2,0,P|342:181|287:133,1,150,10|14,0:2|0:1,0:0:0:0:
212,68,77239,6,0,B|164:136|212:204|212:204|236:248|218:295|218:295|276:344,1,300,14|2,0:2|0:0,0:0:0:0:
324,256,78777,2,0,L|336:152,1,100,10|10,0:2|0:2,0:0:0:0:
348,56,79546,1,10,0:2:0:0:
428,116,79931,1,6,0:0:0:0:
336,156,80316,6,0,P|286:157|243:133,1,100,14|0,0:2|0:0,0:0:0:0:
168,68,81085,2,0,P|143:111|145:160,1,100,2|10,0:0|0:2,0:0:0:0:
196,248,81854,2,0,L|180:348,2,100,10|10|14,0:2|0:2|0:1,0:0:0:0:
256,168,83008,1,0,0:0:0:0:
316,248,83392,6,0,B|348:280|348:280|408:292,1,100,10|2,0:2|0:0,0:0:0:0:
500,316,84162,2,0,P|501:266|477:223,1,100,2|14,0:0|0:1,0:0:0:0:
404,156,84931,2,0,B|305:138|305:138|257:158|257:158|209:130|153:138|117:190,1,300,10|10,0:2|0:2,0:0:0:0:
60,256,86469,6,0,P|103:280|152:278,1,100,14|0,0:2|0:0,0:0:0:0:
248,248,87239,2,0,P|297:246|340:270,1,100,2|10,0:0|0:2,0:0:0:0:
416,336,88008,1,10,0:2:0:0:
464,248,88392,1,10,0:2:0:0:
412,164,88777,2,0,L|356:64,1,100,10|6,0:2|0:1,0:0:0:0:
276,124,89546,6,0,L|160:112,2,100,14|0|2,0:2|0:0|0:0,0:0:0:0:
364,76,90700,1,14,0:2:0:0:
412,164,91085,2,0,P|362:247|263:250,2,200,10|10|2,0:2|0:2|0:0,0:0:0:0:
312,160,93008,5,2,0:0:0:0:
244,84,93392,2,0,P|287:59|336:61,2,100,2|2|2,0:0|0:0|0:0,0:0:0:0:
212,180,94546,1,2,0:0:0:0:
276,256,94931,2,0,P|232:280|183:278,1,100,2|2,0:0|0:0,0:0:0:0:
