osu file format v9

[General]
AudioFilename: Rising in the Sun(original mix).mp3
AudioLeadIn: 2000
PreviewTime: 72868
Countdown: 0
SampleSet: Normal
StackLeniency: 0.7
Mode: 0
LetterboxInBreaks: 1

[Editor]
DistanceSpacing: 1
BeatDivisor: 4
GridSize: 4

[Metadata]
Title:Rising in the Sun(original mix)
Artist:kors k feat. Rie
Creator:soulfear
Version:Normal
Source:Beatmania IIDX 15 DJ TROOPERS
Tags:Disoy Deen

[Difficulty]
HPDrainRate:4
CircleSize:3
OverallDifficulty:5
ApproachRate:5
SliderMultiplier:1.2
SliderTickRate:1

[Events]
//Background and Video events
0,0,"Rising in the Sun(original mix).jpg"
Video,-1120,"Rising in the Sun(original mix).avi"
//Break Periods
2,29812,39575
//Storyboard Layer 0 (Background)
//Storyboard Layer 1 (Fail)
//Storyboard Layer 2 (Pass)
//Storyboard Layer 3 (Foreground)
//Storyboard Sound Samples
//Background Colour Transformations
3,100,163,162,255

[TimingPoints]
310,348.837209302326,4,1,0,50,1,0
1879,-100,4,1,0,50,0,0
4670,-100,4,1,0,60,0,0
5891,-100,4,1,0,60,0,0
6937,-100,4,2,0,70,0,0
7286,-100,4,1,0,60,0,0
26821,-100,4,1,0,80,0,0
40775,-100,4,2,0,80,0,0
50542,-100,4,1,0,80,0,0
50891,-100,4,2,0,70,0,0
51763,-100,4,1,0,70,0,0
52112,-100,4,2,0,70,0,0
61705,-100,4,1,0,80,0,0
63449,-100,4,2,0,80,0,0
68594,-100,4,1,0,50,0,0
70077,-100,4,1,0,60,0,0
71472,-100,4,1,0,70,0,0
72868,-100,4,1,0,70,0,0
74786,-100,4,1,0,70,0,0
96763,-100,4,2,0,80,0,0
106356,-100,4,1,0,80,0,0
107228,-100,4,1,0,60,0,0

[Colours]
Combo1 : 0,128,255
Combo2 : 128,255,255
Combo3 : 255,255,255
Combo4 : 0,255,255

[HitObjects]
76,184,310,2,0,B|200:184,1,120
252,104,1007,2,0,B|380:160,1,120
312,284,1879,6,0,B|240:312,2,60
216,212,2577,2,0,B|156:248|84:260,1,120
88,136,3275,2,0,B|124:84,2,60
204,100,3972,2,0,B|268:104|324:48,1,120
276,172,4670,6,0,B|344:208,1,60
336,248,5019,2,0,B|392:276,1,60
412,320,5368,2,0,B|476:320,3,60,0|0|0|0
152,192,6937,5,8
240,232,7286,5,0
228,136,7635,2,0,B|204:92|144:72|104:112,2,120
240,232,8682,5,0
312,296,9030,1,0
328,200,9379,2,0,B|372:140|452:176,1,120
396,80,10077,6,0,B|332:76|280:44,1,120
188,68,10775,1,0
92,232,11472,1,0
164,168,11821,2,0,B|264:232,2,120
188,68,12868,6,0,B|244:92|320:72,1,120
396,104,13565,1,0
440,192,13914,1,0
396,276,14263,6,0,B|348:272|236:276|148:304,1,240
88,236,15310,1,0
116,144,15658,5,0
296,76,16356,2,0,B|284:136|224:184,1,120
320,216,17054,5,0
320,216,17751,2,0,B|272:256|268:340,1,120
204,252,18449,6,0,B|196:324|140:348|140:348|80:324|72:240,1,240
112,68,19844,1,0
180,136,20193,1,0
276,124,20542,2,0,B|264:52|184:40,1,120
180,136,21240,6,0,B|200:216|284:240|284:240|360:172,1,240
348,182,22635,1,0
176,264,23333,2,0,B|104:276,2,60
112,192,24030,5,0
256,64,24728,1,0
340,236,25426,2,0,B|388:244|444:200|440:168,1,120
352,144,26123,1,0
256,192,26821,12,0,27868
256,108,28391,6,0,B|256:212,4,90,0|0|0|0|4
256,108,29612,1,4
72,192,40775,5,2
192,268,41298,2,2,B|296:276|324:168,2,180,2|2|2
200,124,42868,1,0
380,56,43565,5,2
424,192,44089,2,2,B|320:200|292:92,2,180,2|2|2
308,276,45658,2,0,B|256:312|188:292,1,120,0|2
148,208,46356,5,2
284,156,46879,2,2,B|304:156|304:156|312:144|312:144|312:168|312:168|320:156|320:156|444:156,2,180,2|2|2
160,80,48449,1,2
92,148,48798,1,2
184,172,49147,2,2,B|316:188|252:36,2,180,2|2|2
128,252,50542,5,0
224,256,50891,2,8,B|280:272|328:320,2,120
224,256,51937,1,0
256,192,52286,12,2,53682
256,192,54030,5,2
256,192,54379,1,2
256,192,54728,12,2,56123
144,192,56821,6,2,B|184:256|260:272,1,120
256,172,57519,1,0
328,236,57868,1,0
236,264,58216,2,2,B|188:284|112:288,1,120
72,204,58914,6,0,B|64:48|232:88,1,240,0|2
384,196,60309,1,2
384,196,61007,2,2,B|320:220|288:280,1,120
204,308,61705,2,0,B|228:212|160:120,1,180
171,136,62577,1,0
248,76,62926,2,0,B|312:92,1,60
256,192,63449,12,2,65891
200,192,66589,1,2
256,112,66937,1,2
300,200,67286,2,2,B|284:280|212:296,1,120
136,272,67984,2,0,B|64:212|88:100|168:56,1,240,2|0
336,120,69379,5,0
256,296,70077,2,0,B|256:168,1,120
176,120,70775,1,0
160,312,71472,6,0,B|136:256|88:212,2,120
236,252,72519,2,0,B|248:160|344:228,1,120
108,80,74263,6,0,B|140:140|216:152,1,120,4|0
160,236,74961,2,0,B|224:256|264:312,1,120
257,303,75658,1,0
412,188,76356,1,0
256,76,77054,6,0,B|256:100|256:100|272:108|240:108|256:116|256:116|256:200,1,120
168,228,77751,1,0
168,228,78449,2,0,B|200:304|272:320,1,120
344,312,79147,1,0
408,240,79496,1,0
316,216,79844,6,0,B|328:144|420:144,2,120,0|8|0
252,144,80891,1,8
220,236,81240,6,0,B|172:272|92:296|36:288,1,180
51,289,82112,1,0
68,196,82461,5,0
68,196,82635,2,0,B|116:136|180:124,1,120,0|8
176,224,83333,2,0,B|256:236|300:192,1,120,0|8
316,108,84030,1,0
316,108,84379,1,8
316,108,84728,2,0,B|340:164|400:196,1,120,0|8
256,192,85426,12,0,87170
256,96,87519,5,0
256,192,87868,1,8
172,148,88216,6,0,B|144:216|204:280,1,120,0|8
256,192,88914,2,0,B|332:192|352:108,1,120,0|8
346,126,89612,6,0,B|364:288|200:304,1,240,0|8
108,148,91007,1,0
108,148,91705,2,0,B|168:168|228:116,1,120,0|8
272,204,92403,6,0,B|332:184|392:236,1,120,0|8
383,229,93100,1,0
256,88,93798,5,4
256,192,94147,12,0,96589
108,192,97286,5,2
256,68,97984,1,0
404,192,98682,2,2,B|396:264|328:284,1,120
312,188,99379,5,0
120,192,100077,1,2
256,328,100775,1,0
256,136,101472,2,2,B|256:160|256:160|268:168|268:168|244:168|244:168|256:176|256:176|256:236,1,120
176,276,102170,5,4
60,192,102693,2,2,B|152:164|196:76,1,180,2|2
336,44,103740,1,2
336,44,104263,2,0,B|364:116|440:116,1,120,4|2
256,192,104961,12,0,106356
256,104,106705,6,0,B|256:180,1,60
292,196,107054,2,0,B|308:264,1,60
348,276,107403,2,0,B|408:336,2,60,0|0|4
