osu file format v9

[General]
AudioFilename: Rising in the Sun(original mix).mp3
AudioLeadIn: 2000
PreviewTime: 72868
Countdown: 0
SampleSet: Normal
StackLeniency: 0.7
Mode: 0
LetterboxInBreaks: 1

[Editor]
DistanceSpacing: 1
BeatDivisor: 4
GridSize: 4

[Metadata]
Title:Rising in the Sun(original mix)
Artist:kors k feat. Rie
Creator:soulfear
Version:Another
Source:Beatmania IIDX 15 DJ TROOPERS
Tags:Disoy Deen

[Difficulty]
HPDrainRate:7
CircleSize:5
OverallDifficulty:8
ApproachRate:8
SliderMultiplier:1.8
SliderTickRate:1

[Events]
//Background and Video events
0,0,"Rising in the Sun(original mix).jpg"
Video,-1120,"Rising in the Sun(original mix).avi"
//Break Periods
2,29812,40013
//Storyboard Layer 0 (Background)
//Storyboard Layer 1 (Fail)
//Storyboard Layer 2 (Pass)
//Storyboard Layer 3 (Foreground)
//Storyboard Sound Samples
//Background Colour Transformations
3,100,163,162,255

[TimingPoints]
310,348.837209302326,4,1,0,50,1,0
1356,-200,4,1,0,50,0,0
1705,-100,4,1,0,50,0,0
4408,-100,4,1,0,60,0,0
5542,-50,4,1,0,60,0,0
5891,-100,4,1,0,60,0,0
5978,-100,4,2,0,60,0,0
6501,-100,4,2,0,70,0,0
7286,-100,4,1,0,60,0,0
26734,-100,4,1,0,80,0,0
27344,-100,4,1,0,50,0,0
27432,-100,4,2,0,70,0,0
28216,-100,4,1,0,70,0,0
40426,-100,4,2,0,80,0,0
49060,-100,4,2,0,90,0,0
50542,-100,4,1,0,80,0,0
50891,-100,4,2,0,70,0,0
51850,-100,4,2,0,80,0,0
61618,-100,4,1,0,80,0,0
63187,-100,4,2,0,90,0,0
68594,-100,4,1,0,50,0,0
70033,-100,4,1,0,60,0,0
71472,-100,4,1,0,70,0,0
72170,-50,4,1,0,70,0,0
72868,-100,4,1,0,70,0,0
74786,-100,4,1,0,60,0,0
75484,-100,4,2,0,90,0,0
95804,-100,4,1,0,80,0,0
96763,-100,4,2,0,80,0,0
102083,-100,4,1,0,50,0,0
106269,-100,4,1,0,80,0,0
106530,-100,4,2,0,0,0,0
106661,-50,4,1,0,60,0,0
107054,-100,4,1,0,60,0,0
107359,-200,4,1,0,70,0,0
107403,-200,4,1,0,70,0,0
107577,-200,4,2,0,0,0,0
107664,-200,4,1,0,70,0,0

[Colours]
Combo1 : 0,128,255
Combo2 : 128,255,255
Combo3 : 255,255,255
Combo4 : 0,255,255

[HitObjects]
112,204,310,1,0
180,144,484,1,0
268,168,658,2,0,B|288:148,4,22.5
208,236,1007,1,0
280,288,1182,1,0
356,248,1356,2,0,B|380:212,1,45
360,124,1705,5,0
272,136,1879,1,0
184,128,2054,1,0
96,148,2228,1,0
88,236,2403,1,0
176,224,2577,1,0
264,240,2751,1,0
352,220,2926,1,0
452,212,3100,5,0
404,124,3275,1,0
308,104,3449,1,0
212,80,3623,1,0
120,112,3798,1,0
84,204,3972,1,0
132,292,4147,1,0
232,300,4321,1,0
324,260,4496,5,0
328,248,4583,1,0
332,236,4670,1,0
332,224,4757,1,0
328,212,4844,1,0
320,200,4932,1,0
316,188,5019,1,0
312,176,5106,1,0
312,164,5193,1,0
316,152,5280,1,0
324,140,5368,1,0
332,128,5455,1,0
340,120,5542,2,0,B|340:76,4,45
256,84,5891,5,0
168,104,6065,1,0
156,108,6153,1,0
144,112,6240,1,0
140,156,6414,1,0
176,188,6589,5,8
224,192,6763,1,8
268,280,6937,5,8
316,284,7112,1,8
306,184,7286,5,0
156,280,7635,1,0
272,144,7984,1,0
120,244,8333,1,0
192,192,8507,1,0
348,280,8856,2,0,B|360:236,1,45,0|0
368,192,9030,1,0
316,120,9205,2,0,B|292:156,1,45,0|0
252,176,9379,1,0
172,220,9554,1,0
128,140,9728,1,0
236,284,10077,5,0
260,104,10426,1,0
92,172,10775,1,0
268,196,11123,1,0
356,172,11298,1,0
328,348,11647,2,0,B|296:316,1,45,0|0
268,284,11821,1,0
192,232,11996,1,0
228,148,12170,2,0,B|228:60,2,90,0|0|0
92,264,12868,5,0
68,88,13216,1,0
128,156,13391,1,0
188,88,13565,1,0
248,256,13914,1,0
188,324,14089,2,0,B|224:348,1,45,0|0
324,256,14437,5,0
324,164,14612,1,0
236,156,14786,1,0
164,208,14961,1,0
164,208,15135,1,0
72,208,15310,1,0
72,208,15484,1,0
56,120,15658,6,0,B|96:120|96:120|140:96|140:96|184:96,1,135,4|0
232,96,16007,1,0
304,148,16182,1,0
368,212,16356,2,0,B|328:212|328:212|284:236|284:236|240:236,1,135,4|0
192,236,16705,1,0
172,148,16879,1,0
116,76,17054,5,0
60,148,17228,1,0
96,232,17403,2,0,B|136:232|136:232|180:208|180:208|224:208,1,135,0|0
224,208,17751,1,4
220,28,17926,2,0,B|220:68|220:68|244:112|244:112|244:112,1,90,0|4
244,204,18275,1,0
305,325,18449,5,0
128,192,18798,1,0
128,192,18972,2,0,B|152:156|152:156|200:156,1,90,0|0
256,328,19496,2,0,B|232:288|232:288|256:260|256:260|256:164,2,180,0|0|0
372,256,20368,1,0
376,344,20542,1,0
288,328,20716,5,0
232,256,20891,1,0
256,168,21065,1,0
136,104,21240,2,0,B|176:104|176:104|220:80|220:80|264:80,1,135,4|0
264,80,21589,1,0
156,164,21763,1,0
32,220,21937,2,0,B|72:220|72:220|116:196|116:196|116:196,1,90,4|0
115,197,22286,1,0
180,256,22461,1,0
256,308,22635,5,0
328,256,22809,1,0
292,172,22984,1,0
204,172,23158,1,0
152,244,23333,1,0
152,244,23507,1,0
152,244,23682,2,0,B|120:276,1,45,0|0
152,244,23856,2,0,B|108:244,1,45,0|0
152,244,24030,1,4
96,72,24379,5,0
60,152,24554,1,0
132,204,24728,1,0
288,116,25077,1,0
200,132,25251,1,0
368,200,25600,6,0,B|328:200|328:200|284:224|284:224|240:224,1,135,0|0
240,224,25949,1,0
112,248,26123,2,0,B|152:248|152:248|196:272|196:272|240:272,2,135,0|0|0
112,248,26821,2,0,B|100:304|100:304|100:340|100:340|140:304|140:304|140:340|140:340|180:304|180:304|180:336,1,270,0|0
248,276,27519,2,0,B|240:320,1,45,8|0
296,284,27693,2,0,B|288:328,1,45,8|0
356,324,27868,2,0,B|364:368,1,45,8|0
404,312,28042,2,0,B|412:356,1,45,8|0
484,168,28391,5,0
304,72,28653,1,0
108,124,28914,1,0
152,320,29176,1,0
352,300,29437,1,0
336,164,29612,1,4
108,192,40775,5,0
256,92,41123,1,0
384,220,41472,1,0
204,240,41821,1,0
140,72,42170,1,0
60,232,42519,1,0
192,356,42868,1,0
308,220,43216,1,0
256,48,43565,5,0
88,116,43914,1,0
144,288,44263,1,0
280,168,44612,1,0
100,168,44961,1,0
336,168,45309,1,0
156,168,45658,1,0
392,168,46007,1,0
212,168,46356,5,0
100,168,46530,1,0
100,76,46705,1,2
212,216,47054,5,0
100,216,47228,1,0
100,124,47403,1,0
212,260,47751,5,0
100,260,47926,1,0
100,168,48100,1,2
212,308,48449,5,0
288,260,48623,1,0
256,176,48798,1,2
320,116,48972,1,0
256,52,49147,5,0
244,48,49234,1,0
232,48,49321,1,0
220,52,49408,1,0
208,56,49496,1,0
196,60,49583,1,0
184,68,49670,1,0
172,76,49757,1,0
160,80,49844,2,0,B|132:80,7,22.5
128,80,50193,2,0,B|100:80,7,22.5
96,80,50542,6,0,B|96:140|96:140|76:196|76:196|76:256,1,180,0|2
160,220,51065,1,0
116,296,51240,1,8
116,296,51414,1,8
200,264,51589,1,8
216,176,51763,1,2
124,192,51937,5,2
124,192,52025,1,0
56,108,52199,1,0
56,108,52286,1,2
152,60,52461,1,2
152,60,52548,1,0
256,84,52722,1,0
256,84,52809,2,0,B|284:84|284:84|312:104|312:104|340:104,1,90,2|2
420,176,53158,1,2
324,224,53333,5,2
324,224,53420,1,0
392,308,53594,1,0
392,308,53682,1,2
296,356,53856,1,2
296,356,53943,1,0
192,332,54118,1,0
192,332,54205,2,0,B|164:332|164:332|136:312|136:312|108:312,2,90,2|2|2
192,332,54641,5,0
192,332,54728,1,2
128,212,54903,1,2
128,212,54990,1,0
248,148,55164,1,0
248,148,55251,1,2
128,84,55426,1,2
128,84,55513,1,0
200,276,55775,1,2
72,232,55949,1,2
208,112,56123,5,2
208,112,56211,1,0
76,88,56385,1,0
76,88,56472,1,2
208,52,56647,1,2
208,52,56734,1,0
124,268,56996,5,2
112,180,57170,1,2
192,220,57344,2,2,B|216:220|216:220|256:204|256:204|280:204,1,90,2|2
368,188,57693,5,2
316,12,57868,2,0,B|316:52|316:52|340:96|340:96|340:140,1,135,2|0
300,164,58216,2,0,B|272:164|272:164|248:188|248:188|220:188,1,90,2|2
264,316,58565,1,2
136,188,58740,1,2
312,156,58914,6,2,B|288:156|288:156|248:172|248:172|224:172,1,90,2|2
136,188,59263,1,2
188,364,59437,2,0,B|188:324|188:324|164:280|164:280|164:236,1,135,2|0
204,212,59786,2,2,B|232:212|232:212|256:188|256:188|284:188,1,90,2|2
248,320,60135,1,2
192,220,60309,6,0,B|216:220|216:220|256:204|256:204|280:204,1,90,2|2
368,188,60658,1,2
248,320,60833,1,2
300,148,61007,2,0,B|300:188|300:188|324:232|324:232|324:276,1,135,2|0
284,300,61356,2,0,B|256:300|256:300|232:324|232:324|204:324,1,90,2|2
352,220,61705,5,0
36,48,62054,1,0
28,228,62228,1,0
380,144,62577,5,0
24,100,62926,1,0
180,192,63100,6,0,B|268:192,1,90
96,136,63449,2,0,B|184:136,1,90,2|0
108,300,63798,2,0,B|196:300,1,90,2|0
28,244,64147,2,0,B|116:244,1,90,2|0
332,192,64496,6,0,B|244:192,1,90,2|0
416,136,64844,2,0,B|328:136,1,90,2|0
404,300,65193,2,0,B|316:300,1,90,2|0
484,244,65542,2,0,B|396:244,1,90,2|0
232,168,65891,5,2
144,192,66065,1,0
68,144,66240,1,2
56,232,66414,1,0
144,248,66589,5,2
184,340,66763,1,0
228,240,66937,1,2
288,340,67112,1,0
380,240,67286,5,0
380,240,67373,1,2
396,104,67548,1,0
396,104,67635,1,2
296,196,67809,1,0
272,176,67897,2,0,B|228:176|228:176|188:160|188:160|140:160,1,135,2|2
256,228,68333,5,2
140,160,68507,1,2
48,260,68682,5,0
44,248,68769,1,0
44,236,68856,1,0
48,224,68943,1,0
52,212,69030,1,0
52,200,69118,1,0
52,188,69205,1,0
56,176,69292,1,0
60,164,69379,1,0
68,152,69466,1,0
76,140,69554,1,0
84,128,69641,1,0
92,120,69728,1,0
104,112,69815,1,0
116,108,69903,1,0
128,104,69990,1,0
140,104,70077,5,0
152,104,70164,1,0
164,108,70251,1,0
176,108,70339,1,0
188,108,70426,1,0
200,112,70513,1,0
212,116,70600,1,0
224,116,70687,1,0
236,120,70775,1,0
248,124,70862,1,0
260,132,70949,1,0
272,140,71036,1,0
284,148,71123,1,0
296,152,71211,1,0
308,160,71298,1,0
320,168,71385,1,0
332,176,71472,5,0
344,184,71559,1,0
352,196,71647,1,0
360,208,71734,1,0
364,220,71821,1,0
364,232,71908,1,0
364,244,71996,1,0
364,256,72083,1,0
364,268,72170,2,0,B|364:312,12,45
276,292,72868,5,0
188,272,73042,1,0
176,268,73129,1,0
164,264,73216,1,0
172,176,73391,1,0
260,192,73565,5,8
304,192,73740,1,0
348,192,73914,1,0
348,192,74001,1,0
348,192,74089,2,0,B|376:192,4,22.5
196,96,74612,5,0
60,212,74961,1,0
144,184,75135,1,0
176,268,75310,1,0
344,208,75658,5,0
328,192,75746,2,0,B|284:192|284:192|244:176|244:176|196:176,1,135,2|2
284,336,76182,1,2
268,156,76356,1,2
284,244,76530,1,2
284,336,76705,5,2
284,158,76879,1,2
284,158,76966,1,0
284,158,77054,2,0,B|240:158|240:158|200:174|200:174|152:174,1,135,2|0
152,174,77403,1,2
164,354,77577,2,0,B|164:330|164:330|148:290|148:290|148:266,1,90,2|0
148,267,77926,1,2
304,176,78100,2,0,B|304:200|304:200|288:240|288:240|288:264,1,90,2|2
316,24,78449,5,2
316,24,78536,1,0
316,24,78623,1,2
316,24,78711,1,0
316,24,78798,1,2
344,156,79060,1,0
304,176,79147,2,0,B|276:176|276:176|252:200|252:200|224:200,1,90,2|2
256,68,79496,1,2
136,200,79670,1,2
312,168,79844,6,0,B|288:168|288:168|248:184|248:184|224:184,1,90,2|2
136,200,80193,1,2
188,376,80368,2,0,B|188:336|188:336|164:292|164:292|164:248,1,135,2|0
204,224,80716,2,0,B|232:224|232:224|256:200|256:200|284:200,1,90,2|2
248,332,81065,1,2
216,156,81240,6,0,B|216:180|216:180|232:220|232:220|232:244,1,90,2|2
248,332,81589,1,0
424,280,81763,2,0,B|384:280|384:280|340:304|340:304|296:304,1,135,2|0
272,264,82112,2,0,B|272:236|272:236|248:212|248:212|248:184,1,90,2|2
380,220,82461,1,2
272,140,82635,5,2
316,268,82810,1,2
316,268,82897,1,2
316,268,82984,1,2
184,232,83158,1,2
72,152,83333,2,0,B|112:152|112:152|156:128|156:128|200:128,1,135,2|0
224,168,83682,2,0,B|224:196|224:196|248:220|248:220|248:248,1,90,2|2
116,212,84030,5,4
200,316,84205,1,2
280,156,84379,2,0,B|280:180|280:180|264:220|264:220|264:292,1,135,2|0
248,332,84728,1,4
72,280,84903,1,0
84,100,85077,1,4
256,156,85251,1,2
128,284,85426,5,2
32,188,85600,1,0
104,76,85775,1,2
168,192,85949,1,2
292,216,86123,1,0
292,216,86211,1,0
292,216,86298,1,2
384,116,86472,1,2
252,96,86647,1,2
140,128,86821,5,0
132,148,86908,1,0
128,172,86996,1,2
128,196,87083,1,0
132,216,87170,1,2
228,192,87344,1,0
256,200,87432,1,0
280,192,87519,1,2
404,248,87693,1,2
480,136,87868,1,2
340,56,88042,1,2
224,192,88216,5,2
44,192,88391,1,2
44,192,88478,1,0
44,192,88565,2,0,B|72:192|72:192|96:216|96:216|124:216,1,90,2|2
304,192,88914,1,2
304,192,89089,1,2
304,192,89176,1,0
304,192,89263,2,0,B|276:192|276:192|252:216|252:216|224:216,1,90,2|2
92,92,89612,6,0,B|136:92|136:92|176:76|176:76|180:76,1,90,2|0
44,192,89961,2,0,B|88:192|88:192|128:176|128:176|132:176,1,90,2|0
220,192,90310,1,2
140,244,90484,1,2
220,296,90658,1,2
140,352,90833,1,2
184,264,91007,5,2
288,228,91182,1,2
388,272,91356,1,2
472,204,91530,1,2
348,228,91705,1,0
348,228,91792,1,0
348,228,91879,1,2
212,228,92054,1,2
244,96,92228,1,2
420,128,92403,5,0
408,160,92490,1,0
400,196,92577,1,2
400,232,92664,1,0
408,268,92751,1,2
292,200,92926,1,0
248,196,93013,1,0
204,200,93100,1,2
244,280,93275,1,2
336,128,93449,1,2
172,56,93623,1,2
288,192,93798,5,4
468,192,93972,1,2
468,192,94060,1,0
468,192,94147,2,0,B|440:192|440:192|416:216|416:216|388:216,1,90,2|2
208,192,94496,2,0,B|168:192|168:192|124:168|124:168|80:168,1,135,2|2
60,128,94844,1,2
224,56,95019,1,2
344,192,95193,2,0,B|300:192,2,45,2|2|2
344,192,95542,2,0,B|388:192,2,45,2|2|2
344,192,95891,6,0,B|300:192,1,45,0|0
424,244,96065,2,0,B|468:244,1,45,0|0
344,296,96240,2,0,B|300:296,1,45,0|0
424,352,96414,2,0,B|468:352,1,45,0|0
424,352,96589,5,0
296,228,96937,1,2
120,192,97286,1,0
256,76,97635,1,2
256,76,97810,2,0,B|256:164,1,90,2|0
172,192,98158,1,2
232,260,98333,2,0,B|232:220|232:220|256:176|256:176|256:132,1,135
256,132,98682,1,2
348,132,98856,1,0
348,132,99030,2,0,B|308:132|308:132|264:108|264:108|264:108,1,90,2|0
180,80,99379,5,0
308,204,99728,1,2
484,240,100077,1,0
348,356,100426,1,2
348,356,100600,2,0,B|348:268,1,90,2|0
432,240,100949,1,2
372,172,101123,2,0,B|372:212|372:212|348:256|348:256|348:300,1,135
348,300,101472,1,2
212,300,101647,1,0
212,300,101821,2,0,B|252:300|252:300|296:324|296:324|296:324,1,90,2|0
136,264,102170,5,0
126,255,102257,1,0
120,245,102344,1,0
117,232,102432,1,0
115,220,102519,1,0
109,210,102606,1,0
103,199,102693,1,0
100,187,102780,1,0
98,174,102868,5,0
99,160,102955,1,0
100,146,103042,1,0
101,131,103129,1,0
104,120,103216,1,0
110,107,103304,1,0
118,98,103391,1,0
127,88,103478,1,0
137,82,103565,5,0
148,76,103653,1,0
160,74,103740,1,0
170,68,103827,1,0
181,62,103914,1,0
193,59,104001,1,0
206,57,104089,1,0
216,51,104176,1,0
228,48,104263,5,0
241,46,104350,1,0
255,47,104437,1,0
269,48,104525,1,0
284,49,104612,1,0
296,52,104699,1,0
308,56,104786,1,0
404,80,104961,5,0
416,84,105048,1,0
428,88,105135,1,0
392,172,105310,1,0
404,176,105397,1,0
416,180,105484,1,0
380,264,105658,5,0
392,268,105746,1,0
404,272,105833,1,0
368,356,106007,1,0
380,360,106094,1,0
392,364,106182,1,0
280,220,106356,6,0,B|240:220|240:220|196:244|196:244|196:244,1,90,0|0
136,244,106705,2,0,B|92:244,4,45
256,304,107054,2,0,B|256:260,1,45
256,259,107228,2,0,B|256:216,1,45
256,214,107403,2,0,B|256:166,1,45
256,124,107751,1,4
