osu file format v12

[General]
AudioFilename: Drive Me Crazy.mp3
AudioLeadIn: 0
PreviewTime: 51680
Countdown: 0
SampleSet: Normal
StackLeniency: 0.7
Mode: 0
LetterboxInBreaks: 1
WidescreenStoryboard: 0

[Editor]
Bookmarks: 1681,12347,23014,33681,39014,44347,52347,63014,76347,87014,92347,100347,105681,111680
DistanceSpacing: 0.6
BeatDivisor: 4
GridSize: 8

[Metadata]
Title:Drive Me Crazy
TitleUnicode:Drive Me Crazy
Artist:kors k feat. Furukawa Mirin
ArtistUnicode:kors k feat. 古川未鈴
Creator:Amamiya Yuko
Version:Normal
Source:beatmania IIDX 19 Lincle
Tags:Skystar kiddly Melt fanzhen0019
BeatmapID:232530
BeatmapSetID:76372

[Difficulty]
HPDrainRate:3
CircleSize:3
OverallDifficulty:3
ApproachRate:4
SliderMultiplier:1
SliderTickRate:1

[Events]
//Background and Video events
0,0,"BG.jpg",0,0
//Break Periods
2,76547,83027
//Storyboard Layer 0 (Background)
//Storyboard Layer 1 (Fail)
//Storyboard Layer 2 (Pass)
//Storyboard Layer 3 (Foreground)
//Storyboard Sound Samples
//Background Colour Transformations
3,100,163,162,255

[TimingPoints]
1681,333.333333333333,4,1,0,35,1,0
11014,-100,4,1,0,55,0,0
12347,-100,4,1,0,60,0,1
22847,-100,4,2,0,50,0,0
23014,-100,4,2,0,70,0,0
39014,-100,4,1,0,40,0,0
44347,-100,4,1,0,50,0,0
49680,-100,4,1,0,60,0,0
52347,-100,4,1,0,70,0,0
73680,-100,4,1,0,50,0,0
74847,-100,4,1,0,40,0,0
87014,-100,4,2,0,70,0,0
89180,-100,4,1,0,70,0,0
100347,-100,4,1,0,70,0,1
114347,-100,4,1,0,70,0,0

[Colours]
Combo1 : 255,150,0
Combo2 : 5,240,5
Combo3 : 5,5,240
Combo4 : 240,5,5

[HitObjects]
96,96,1680,2,0,P|184:80|248:160,1,200
216,256,2680,1,8,0:0:0:0:
296,320,3014,2,0,P|400:328|456:256,1,200
448,160,4014,1,8,0:0:0:0:
384,88,4347,6,0,P|304:64|208:128,1,200
176,216,5347,1,8,0:0:0:0:
120,304,5680,2,0,P|72:232|120:128,1,200
204,96,6680,1,8,0:0:0:0:
304,96,7014,6,0,B|360:88|360:88|424:112|440:200,1,200
384,280,8014,1,8,0:0:0:0:
320,360,8347,2,0,B|233:344|209:280|209:280|217:224,1,200
208,128,9347,1,8,0:0:0:0:
128,64,9680,6,0,L|110:175,1,100
160,248,10347,2,0,L|142:359,1,100
248,352,11014,1,0,0:0:0:0:
344,320,11347,1,0,0:0:0:0:
440,288,11680,1,0,0:0:0:0:
480,96,12347,6,0,P|432:64|392:64,1,100,6|10,0:0|0:0,0:0:0:0:
304,112,13014,2,2,P|240:144|152:128,2,150,2|2|10,0:0|0:0|0:0,0:0:0:0:
376,184,14347,2,0,L|448:256,1,100,2|10,0:0|0:0,0:0:0:0:
376,328,15014,6,2,P|320:320|272:336,1,100,2|10,0:0|0:0,0:0:0:0:
176,320,15680,2,2,P|135:332|79:324,1,100,2|10,0:0|0:0,0:0:0:0:
32,232,16347,2,0,L|48:128,1,100,2|2,0:0|0:0,0:0:0:0:
144,160,17014,2,0,L|160:56,1,100,2|8,0:0|0:0,0:0:0:0:
256,56,17680,5,2,0:0:0:0:
344,104,18014,1,10,0:0:0:0:
408,176,18347,2,2,B|447:137|437:83|437:83|488:48,2,150,2|2|10,0:0|0:0|0:0,0:0:0:0:
312,200,19680,2,0,P|264:224|240:264,1,100,2|10,0:0|0:0,0:0:0:0:
336,296,20347,5,0,0:0:0:0:
480,160,21014,1,2,0:0:0:0:
256,192,21514,12,0,23014,1:0:0:0:
320,88,23680,6,0,P|384:80|464:120,2,150,2|2|2,0:0|0:0|0:0,0:0:0:0:
256,168,25014,2,0,L|288:272,1,100,0|2,0:0|0:0,0:0:0:0:
104,344,26014,5,2,0:0:0:0:
64,152,26680,1,2,0:0:0:0:
248,64,27347,2,0,L|352:64,1,100,2|0,0:0|0:0,0:0:0:0:
432,112,28014,1,2,0:0:0:0:
440,208,28347,5,2,0:0:0:0:
264,312,29014,2,0,L|160:320,1,100,2|0,0:0|0:0,0:0:0:0:
117,302,29514,2,0,P|61:310|21:350,2,100,2|2|2,0:0|0:0|0:0,0:0:0:0:
120,152,30680,1,2,0:0:0:0:
200,96,31014,6,0,P|240:80|304:80,1,100,2|0,0:0|0:0,0:0:0:0:
272,176,31680,2,0,P|312:192|368:193,1,100,2|0,0:0|0:0,0:0:0:0:
448,252,32347,1,2,0:0:0:0:
372,316,32680,1,2,0:0:0:0:
272,328,33014,2,0,P|216:320|160:328,1,100,2|0,0:0|0:0,0:0:0:0:
76,344,33680,5,0,1:0:0:0:
72,144,34347,2,0,P|112:80|72:24,2,150,2|2|2,0:0|0:0|0:0,0:0:0:0:
152,200,35680,2,0,L|272:192,1,100,0|2,0:0|0:0,0:0:0:0:
416,80,36680,5,2,0:0:0:0:
432,280,37347,1,2,0:0:0:0:
240,328,38014,2,0,L|120:320,1,100,2|0,0:0|0:0,0:0:0:0:
56,264,38680,1,2,0:0:0:0:
40,168,39014,5,0,1:0:0:0:
208,64,39680,2,0,L|320:64,1,100,0|8,0:0|0:0,0:0:0:0:
408,72,40347,1,0,0:0:0:0:
360,264,41014,2,0,L|272:320,1,100,0|8,0:0|0:0,0:0:0:0:
176,328,41680,6,0,P|96:320|48:264,1,150
48,224,42347,1,0,0:0:0:0:
88,128,42680,2,0,P|176:72|264:104,1,200
372,268,44014,1,0,0:0:0:0:
448,336,44347,6,0,L|472:232,1,100
400,168,45014,2,0,L|424:64,1,100
328,32,45680,2,0,B|288:32|288:32|224:48|224:48|160:48,2,150
422,70,47014,6,0,L|400:168,1,100
328,232,47680,1,0,0:0:0:0:
232,264,48014,1,0,0:0:0:0:
136,256,48347,2,0,P|80:248|32:208,1,100
32,128,49014,1,0,0:0:0:0:
104,56,49347,1,0,0:0:0:0:
200,80,49680,6,0,L|208:184,1,100
296,232,50347,2,0,L|304:336,2,100
56,352,52347,5,4,0:0:0:0:
80,256,52680,1,8,0:0:0:0:
104,160,53014,1,0,0:0:0:0:
232,88,53514,2,0,L|344:88,2,100
104,160,54680,1,8,0:0:0:0:
176,232,55014,6,0,P|232:232|288:256,1,100,0|8,0:0|0:0,0:0:0:0:
272,344,55680,2,0,P|312:358|368:358,1,100,0|8,0:0|0:0,0:0:0:0:
416,352,56180,2,0,L|472:264,2,100
360,216,57347,1,8,0:0:0:0:
368,120,57680,6,0,P|336:80|288:56,1,100,0|8,0:0|0:0,0:0:0:0:
200,88,58347,2,0,P|160:112|88:120,1,100,0|8,0:0|0:0,0:0:0:0:
48,312,59347,1,8,0:0:0:0:
144,272,59680,2,0,P|192:264|248:280,1,100,0|8,0:0|0:0,0:0:0:0:
336,248,60347,5,0,0:0:0:0:
432,216,60680,1,0,0:0:0:0:
432,216,60847,2,0,L|448:112,1,100
376,48,61514,1,0,0:0:0:0:
376,48,61680,2,0,P|320:40|272:56,1,100
240,144,62347,2,0,P|199:156|143:148,1,100
80,224,63014,6,0,L|32:320,2,100,0|8|0,0:0|0:0|0:0,0:0:0:0:
232,232,64180,2,0,L|336:232,2,100
80,224,65347,1,8,0:0:0:0:
56,128,65680,6,0,P|72:72|112:40,1,100,0|8,0:0|0:0,0:0:0:0:
200,48,66347,1,0,0:0:0:0:
288,88,66680,1,8,0:0:0:0:
288,88,66847,2,0,P|336:104|392:96,2,100
208,216,68014,1,8,0:0:0:0:
248,304,68347,6,0,P|304:296|352:312,1,100,0|8,0:0|0:0,0:0:0:0:
440,336,69014,1,0,0:0:0:0:
480,144,69680,2,0,P|424:136|376:152,1,100,0|8,0:0|0:0,0:0:0:0:
288,176,70347,1,0,0:0:0:0:
128,296,71014,6,0,L|96:192,1,100
176,136,71680,2,0,L|205:231,1,100
272,304,72347,2,0,P|408:336|480:208,1,300
448,120,73680,6,2,L|472:8,2,100
296,136,74847,2,2,L|272:248,2,100,2|2|2,0:0|0:0|0:0,0:0:0:0:
56,72,76347,1,4,0:0:0:0:
392,288,84347,5,0,0:0:0:0:
64,64,85680,1,0,0:0:0:0:
88,160,86014,1,0,0:0:0:0:
112,256,86347,1,0,0:0:0:0:
288,352,87014,5,0,1:0:0:0:
312,256,87348,1,2,0:0:0:0:
336,160,87681,1,2,0:0:0:0:
240,40,88180,2,0,L|136:40,2,100,2|2|2,0:0|0:0|0:0,0:0:0:0:
336,72,89180,1,0,0:0:0:0:
336,72,89347,2,0,L|440:64,1,100
488,144,90014,5,0,0:0:0:0:
464,240,90347,2,0,P|424:272|368:272,1,100
328,256,90847,2,0,P|272:248|224:272,2,100
136,96,92347,5,0,0:0:0:0:
128,192,92680,2,0,L|80:296,2,100,8|0|8,0:0|0:0|0:0,0:0:0:0:
136,96,93680,1,0,0:0:0:0:
224,56,94014,1,8,0:0:0:0:
304,112,94347,2,0,P|360:128|400:120,1,100,0|8,0:0|0:0,0:0:0:0:
488,160,95014,5,0,0:0:0:0:
480,256,95347,1,0,0:0:0:0:
480,256,95514,2,0,P|424:256|376:288,1,100
304,336,96180,1,0,0:0:0:0:
304,336,96347,2,0,P|256:344|192:336,1,100
112,296,97014,2,0,P|88:248|88:200,1,100
112,104,97680,5,0,0:0:0:0:
208,80,98014,1,0,0:0:0:0:
304,56,98347,1,0,0:0:0:0:
264,200,98847,2,0,L|368:208,2,100
32,288,100347,6,0,P|80:320|120:320,1,100,2|10,0:0|0:0,0:0:0:0:
208,272,101014,2,2,P|272:240|360:256,2,150,2|2|10,0:0|0:0|0:0,0:0:0:0:
136,200,102347,2,0,L|64:128,1,100,2|10,0:0|0:0,0:0:0:0:
136,56,103014,6,2,P|192:64|240:48,1,100,2|10,0:0|0:0,0:0:0:0:
336,64,103680,2,2,P|377:52|433:60,1,100,2|10,0:0|0:0,0:0:0:0:
480,152,104347,2,0,L|464:256,1,100,2|2,0:0|0:0,0:0:0:0:
368,224,105014,2,0,L|352:328,1,100,2|8,0:0|0:0,0:0:0:0:
256,328,105680,5,2,0:0:0:0:
168,280,106014,1,10,0:0:0:0:
104,208,106347,2,2,B|65:247|75:301|75:301|24:336,2,150,2|2|10,0:0|0:0|0:0,0:0:0:0:
200,184,107680,2,0,P|248:160|272:120,1,100,2|10,0:0|0:0,0:0:0:0:
176,88,108347,5,0,0:0:0:0:
32,224,109014,1,2,0:0:0:0:
176,248,109514,2,0,P|248:224|328:248,1,150,2|2,0:0|0:0,0:0:0:0:
392,304,110347,6,0,B|456:256|456:256|464:184,2,150,2|2|2,0:0|0:0|0:0,0:0:0:0:
296,288,111680,6,0,B|216:297|216:297|173:355,2,150,2|2|2,0:0|0:0|0:0,0:0:0:0:
336,192,113014,6,2,L|320:24,2,150
344,296,114347,5,2,0:0:0:0:
