osu file format v9

[General]
AudioFilename: 18. Bad Maniacs.mp3
AudioLeadIn: 0
PreviewTime: 16110
Countdown: 0
SampleSet: Normal
StackLeniency: 0.7
Mode: 0
LetterboxInBreaks: 1

[Editor]
Bookmarks: 15110,26802
DistanceSpacing: 1.2
BeatDivisor: 4
GridSize: 8

[Metadata]
Title:Bad Maniacs
Artist:kors k as teranoid
Creator:Rigeru
Version:Another
Source:beatmania IIDX 17 SIRIUS
Tags:INDUSTRIAL gabba onemore extra kaiden reflecbeat

[Difficulty]
HPDrainRate:5
CircleSize:5
OverallDifficulty:8
ApproachRate:9
SliderMultiplier:1.8
SliderTickRate:0.5

[Events]
//Background and Video events
0,0,"swkotor202004-03-222022-11-45-54~.jpg"
//Break Periods
2,65771,69894
2,105156,115433
//Storyboard Layer 0 (Background)
//Storyboard Layer 1 (Fail)
//Storyboard Layer 2 (Pass)
//Storyboard Layer 3 (Foreground)
//Storyboard Sound Samples
//Background Colour Transformations
3,100,163,162,255

[TimingPoints]
341,307.692307692308,4,1,0,50,1,0
341,-100,4,1,0,50,0,0
30725,-100,4,1,0,30,0,0
30956,-100,4,1,0,50,0,0
44725,-200,4,1,0,5,0,0
45494,-100,4,1,0,5,0,0
45665,-100,4,1,0,50,0,0
54417,-100,4,1,0,25,0,0
55110,-100,4,1,0,50,0,0
59341,-100,4,1,0,50,0,0
59956,-100,4,1,0,50,0,0
63341,-100,4,1,0,30,0,0
63648,-100,4,1,0,50,0,0
63956,-100,4,1,0,30,0,0
64264,-100,4,1,0,50,0,0
65494,-100,4,1,0,50,0,0
71725,-100,4,1,0,25,0,0
72264,-100,4,1,0,50,0,0
74110,-100,4,1,0,5,0,0
74725,-200,4,1,0,25,0,0
75264,-100,4,1,0,50,0,0
83956,-100,4,1,0,30,0,0
85033,-100,4,1,0,50,0,0

[Colours]
Combo1 : 128,255,255
Combo2 : 255,255,70
Combo3 : 128,255,0

[HitObjects]
72,112,16110,2,0,B|32:72,2,45
144,112,16341,2,0,B|224:48,1,90,0|0
192,192,16648,2,0,B|256:272,1,90,0|0
272,128,16956,1,2
288,120,17033,2,0,B|352:80,1,45
304,232,17264,1,2
320,240,17341,2,0,B|384:280,1,45
488,216,17571,5,0
488,216,17648,1,0
488,216,17725,1,0
424,304,17879,1,0
424,304,17956,1,0
424,304,18033,1,0
296,248,18187,2,0,B|256:208,2,45,2|0|0
168,296,18494,2,0,B|208:336,2,45,2|0|0
96,176,18802,6,0,B|40:152|40:152|56:72,1,90
176,96,19110,2,0,B|208:128|208:128,2,45,2|0|0
304,144,19417,1,0
296,136,19494,1,0
288,128,19571,1,0
392,48,19725,1,2
400,56,19802,1,0
408,64,19879,1,0
440,192,20033,5,2
440,224,20110,1,0
368,336,20264,1,2
368,304,20341,1,0
264,216,20494,1,0
176,160,20648,2,0,B|152:112,1,45,2|0
128,184,20802,2,0,B|112:184|112:184|64:160,1,45,2|0
128,240,20956,2,0,B|112:240|112:240|64:264,1,45,2|0
176,264,21110,2,0,B|152:312,1,45,2|0
144,336,21264,5,2
144,336,21341,1,0
144,336,21417,1,0
272,288,21571,1,0
288,272,21648,1,0
304,256,21725,1,0
360,136,21879,1,2
376,152,21956,1,0
392,168,22033,1,0
440,40,22187,5,0
448,56,22264,2,0,B|488:120,1,45
488,232,22494,1,2
472,240,22571,2,0,B|408:280,1,45
336,168,22802,2,0,B|320:136|320:136|232:96,1,90
160,32,23110,2,0,B|168:40|168:40|160:40|160:40|160:48|160:48|168:48|168:48|168:56|168:56|160:56|160:56|160:64|160:64|168:64|168:64|168:72|168:72|160:72|160:72|160:80|160:80|168:80|168:80|168:88|168:88|160:88|160:88|160:96|160:96|168:104,1,135
168,136,23417,1,0
168,168,23494,1,0
168,200,23571,1,0
168,232,23648,1,0
168,264,23725,1,0
168,296,23802,1,0
168,328,23879,1,0
296,288,24033,6,0,B|336:296|328:264,2,45
328,152,24341,2,0,B|288:144|296:176,2,45,2|0|0
408,48,24648,2,0,B|440:104|440:104|432:136,1,90
328,208,24956,2,0,B|312:264|312:264|288:264|288:264|288:288|288:288|264:288|264:288|264:312|264:312|200:312,1,180,0|0
152,264,25417,1,0
64,224,25571,1,2
152,176,25725,1,2
64,136,25879,1,2
152,88,26033,1,2
248,88,26187,6,0,B|288:56|344:96,1,90,2|0
448,152,26494,2,0,B|480:192|440:248,1,90,2|0
336,312,26802,2,0,B|296:344|240:304,1,90,2|0
176,200,27110,1,2
160,176,27187,1,0
144,152,27264,1,0
248,120,27417,2,0,B|272:48,2,45
336,184,27725,5,2
360,168,27802,1,0
384,152,27879,1,0
408,256,28033,2,0,B|480:280,2,45
312,296,28341,2,0,B|256:320|256:320|192:296,1,90
112,280,28648,1,2
96,256,28725,2,0,B|64:208,1,45
208,224,28956,1,2
224,200,29033,2,0,B|256:152,1,45
112,160,29264,6,0,B|88:104|88:104|112:40,1,90
232,104,29571,1,2
240,88,29648,1,0
248,72,29725,1,0
368,136,29879,2,0,B|416:136,1,45
304,216,30110,2,0,B|352:216,1,45
312,320,30341,1,0
216,280,30494,1,0
200,176,30648,1,0
288,112,30802,2,0,B|264:88,4,22.5
376,176,31110,6,0,B|496:224,1,90,2|0
448,240,31341,1,0
440,264,31417,2,0,B|392:384,1,90,2|0
312,304,31725,1,0
272,208,31879,1,2
272,208,31956,1,0
272,208,32033,1,0
272,208,32187,1,0
368,160,32341,2,0,B|424:128,2,45
472,192,32648,1,0
448,296,32802,1,0
360,232,32956,5,2
272,128,33110,1,2
192,232,33264,1,2
272,336,33417,1,2
392,272,33571,5,0
136,144,33802,1,0
392,144,34033,1,0
136,272,34264,1,0
232,80,34494,1,0
296,336,34725,1,0
296,80,34956,1,0
232,336,35187,1,0
264,208,35417,1,0
264,208,35725,5,0
160,152,35879,1,0
240,64,36033,1,0
240,64,36110,1,0
240,64,36187,1,0
240,64,36264,1,0
240,64,36341,1,0
352,96,36494,5,0
400,200,36648,1,0
400,200,36725,1,0
400,200,36802,1,0
328,288,36956,1,0
328,288,37033,1,0
328,288,37110,1,0
328,288,37187,1,0
328,288,37264,1,0
216,304,37417,1,0
136,224,37571,1,0
360,160,37879,6,0,B|336:56|208:56,1,180
136,272,38494,2,0,B|96:216,1,45
160,200,38648,2,0,B|200:152,1,45
136,136,38802,1,0
232,72,38955,1,0
336,120,39109,5,0
336,120,39186,1,0
336,120,39263,1,0
360,232,39417,1,0
360,232,39494,1,0
360,232,39571,1,0
360,232,39648,1,0
360,232,39725,2,0,B|328:272|328:272|256:264,1,90
240,160,40032,1,0
48,296,40341,2,0,B|144:328|144:328|240:296,1,180
144,80,40956,5,8
168,72,41033,1,0
192,64,41110,1,0
312,72,41264,1,0
384,168,41417,1,0
392,192,41494,1,0
400,216,41571,1,8
304,288,41725,1,0
184,288,41879,5,0
176,264,41956,1,0
168,240,42033,1,0
160,216,42110,1,0
152,192,42187,1,8
264,168,42341,1,0
352,240,42494,1,0
144,128,42802,2,0,B|216:96,2,45,8|0|0
248,80,43110,1,0
448,192,43417,6,0,B|416:256,1,45,8|0
420,248,43571,1,0
412,264,43648,1,0
404,280,43725,1,0
288,312,43879,2,0,B|224:280,1,45
232,282,44033,1,8
216,274,44110,1,0
200,266,44187,1,0
144,160,44341,1,0
152,144,44417,1,0
160,128,44494,1,0
168,112,44571,1,0
176,96,44648,1,0
200,40,44802,6,0,B|304:144|184:240,1,225
392,144,45879,6,0,B|280:88,1,90
328,224,46187,2,0,B|216:280,1,90
176,176,46494,1,2
168,192,46571,1,0
160,208,46648,1,0
96,112,46802,1,2
88,96,46879,1,0
80,80,46956,1,0
200,88,47110,1,2
216,80,47187,2,0,B|280:40,1,45
264,176,47417,1,2
280,184,47494,2,0,B|344:224,1,45
344,72,47725,5,2
352,88,47802,1,0
360,104,47879,2,0,B|400:184,1,90,0|2
408,200,48110,1,0
416,216,48187,1,0
336,328,48341,2,0,B|248:320|248:320|248:320|248:320|152:272,1,180
112,184,48802,1,0
192,112,48956,1,2
256,200,49110,1,2
176,272,49264,1,2
112,184,49417,1,2
192,112,49571,2,0,B|224:56|224:56|216:24,1,90,2|0
304,104,49879,2,0,B|360:72|360:72|392:80,1,90
440,168,50187,6,0,B|384:304|384:304|312:320,1,180,2|0
296,216,50648,1,2
208,280,50802,2,0,B|144:240|144:240|128:136,1,180
208,64,51264,1,0
312,80,51417,2,0,B|376:56,2,45,2|0|0
280,184,51725,2,0,B|216:160,2,45,2|0|0
376,232,52033,2,0,B|312:264|312:264|304:312,1,90
400,336,52341,2,0,B|464:296|464:296|472:256,1,90,2|0
456,176,52648,2,0,B|384:88,1,90,2|0
288,104,52956,1,0
272,80,53033,1,0
256,56,53110,1,2
192,144,53264,6,0,B|256:240,1,90
256,240,53494,1,0
272,264,53571,1,2
176,312,53725,1,0
96,240,53879,1,2
176,168,54033,1,2
96,96,54187,1,2
176,16,54341,1,2
248,96,54494,5,0
280,144,54571,1,0
312,184,54648,1,0
344,224,54725,1,0
376,264,54802,2,0,B|384:272|384:272|376:272|376:272|376:280|376:280|384:280|384:280|384:288|384:288|376:288|376:288|376:296|376:296|384:296|384:296|384:304|384:304|376:304|376:304|376:312|376:312|384:312|384:312|384:320|384:320|376:320|376:320|376:328|376:328|384:328|384:328|384:336|384:336|376:336|376:336|376:344|376:344|384:344|384:344|384:360,1,180
56,80,55725,5,8
96,184,55879,1,0
176,112,56033,2,0,B|232:88|232:88|248:56,1,90,8|0
272,168,56341,1,8
312,272,56495,1,0
392,200,56649,2,0,B|448:224|448:224|464:256,1,90,8|0
464,144,56956,2,0,B|408:72,1,90,8|0
360,168,57264,2,0,B|304:240,1,90,8|0
264,136,57571,2,0,B|192:80,1,90,8|0
184,192,57879,2,0,B|88:192,1,90,8|0
120,296,58187,6,0,B|224:296,1,90
232,296,58417,1,2
232,280,58494,2,0,B|232:160,1,90
232,80,58802,2,0,B|128:80,1,90
120,80,59032,1,2
120,96,59109,2,0,B|120:216,1,90
280,160,59417,6,0,B|320:120,2,45
368,280,59725,2,0,B|416:328,2,45
480,240,60033,2,0,B|416:208|416:208|432:168,1,90
472,96,60341,1,0
368,104,60494,1,0
264,72,60648,6,0,B|192:88|192:88|152:128,1,90,2|0
272,160,60956,2,0,B|224:200|224:200|216:232,1,90,2|0
328,216,61264,1,2
280,312,61417,1,0
384,304,61571,2,0,B|416:240|416:240|456:224,1,90,2|0
480,136,61879,1,2
448,32,62033,1,0
344,64,62187,2,0,B|376:120|376:120|360:184,1,90,2|0
272,192,62494,1,2
224,96,62648,1,0
144,168,62802,2,0,B|104:104|104:104|128:72,1,90,2|0
208,32,63110,5,0
296,96,63264,1,0
224,176,63417,2,0,B|248:200,4,22.5
280,272,63725,1,0
360,200,63879,1,0
440,272,64033,2,0,B|416:248,4,22.5
344,328,64341,5,0
320,304,64417,1,0
296,280,64494,1,0
272,256,64571,1,0
248,232,64648,1,0
224,208,64725,1,0
200,184,64802,1,0
176,160,64879,1,0
152,136,64956,2,0,B|128:112,4,22.5
112,96,65264,2,0,B|88:72,4,22.5
74,58,65571,1,0
96,56,70494,5,0
104,80,70571,1,0
112,104,70648,2,0,B|144:200,1,90
256,72,71110,2,0,B|312:72,2,45
256,152,71417,5,2
256,176,71494,1,0
256,200,71571,1,0
256,224,71648,1,0
256,256,71725,2,0,B|288:224,3,45
256,288,72033,2,0,B|216:256,3,45
256,328,72341,2,0,B|296:304,1,45
336,320,72494,2,0,B|376:296,1,45
368,256,72648,2,0,B|408:232,1,45
440,256,72802,2,0,B|480:232,1,45
480,208,72956,1,0
480,184,73033,1,0
480,160,73110,1,0
424,104,73264,6,0,B|360:80|360:80|344:40,1,90
376,168,73571,2,0,B|312:192|312:192|296:232,1,90
224,144,73879,1,2
208,160,73956,1,0
192,176,74033,1,0
200,288,74187,2,0,B|192:296|192:296|192:288|192:288|184:288|184:288|184:296|184:296|176:296|176:296|176:288|176:288|168:288|168:288|168:296|168:296|160:296|160:296|160:288|160:288|152:288|152:288|152:296|152:296|144:296|144:296|144:288|144:288|136:288|136:288|136:296|136:296|128:296|128:296|128:288|128:288|104:296,1,135
96,256,74494,2,0,B|88:248|88:248|96:248|96:248|96:240|96:240|88:240|88:240|88:232|88:232|96:232|96:232|96:224|96:224|88:224|88:224|88:216|88:216|96:216|96:216|96:208|96:208|88:208|88:208|88:200|88:200|96:200|96:200|96:192|96:192|88:192|88:192|88:184|88:184|96:184|96:184|88:160,1,135
136,184,74802,2,0,B|208:32,1,157.5
224,40,75417,5,0
248,32,75494,1,0
272,40,75571,1,0
296,32,75648,1,0
320,40,75725,1,0
344,32,75802,1,0
368,40,75879,1,0
392,32,75956,1,0
416,40,76033,2,0,B|464:16,3,45,2|0|0|0
448,32,76341,2,0,B|496:56,3,45,2|0|0|0
504,72,76648,5,0
496,104,76725,1,0
472,120,76802,1,0
464,152,76879,1,0
440,168,76956,1,0
432,200,77033,1,0
408,216,77110,1,0
400,248,77187,1,0
376,264,77264,2,0,B|424:304,3,45,2|0|0|0
360,296,77571,2,0,B|312:256,3,45,2|0|0|0
312,296,77879,5,0
296,272,77956,1,0
264,264,78033,1,0
248,240,78110,1,0
216,232,78187,1,0
200,208,78264,1,0
168,200,78341,1,0
152,176,78418,1,0
120,168,78494,2,0,B|80:128,3,45,2|0|0|0
104,136,78802,2,0,B|144:96,3,45,2|0|0|0
160,104,79110,5,0
184,96,79187,1,0
208,104,79264,1,0
232,96,79341,1,0
256,104,79418,1,0
280,96,79495,1,0
304,104,79572,1,0
328,96,79649,1,0
352,104,79725,2,0,B|376:64,3,45,2|0|0|0
400,56,80033,2,0,B|456:56,3,45,2|0|0|0
456,80,80341,5,0
448,104,80417,1,0
440,128,80494,1,0
432,152,80571,1,0
424,176,80648,2,0,B|400:240,3,45,2|0|0|0
384,224,80956,5,0
368,248,81032,1,0
352,272,81109,1,0
336,296,81186,1,0
320,320,81263,2,0,B|288:368,3,45,2|0|0|0
280,328,81571,5,0
264,304,81648,1,0
248,280,81725,1,0
232,256,81802,1,0
216,232,81879,1,0
200,208,81956,1,0
184,184,82033,1,0
168,152,82110,1,0
152,120,82187,2,0,B|216:96,3,45,2|0|0|0
224,120,82494,2,0,B|288:144,3,45,2|0|0|0
304,152,82802,5,0
368,240,82956,1,0
448,168,83110,1,0
384,80,83264,1,0
304,152,83417,2,0,B|272:184,2,45
256,200,83725,2,0,B|224:232,2,45
216,240,84033,2,0,B|240:264,6,27.0000006437302
208,248,84341,2,0,B|184:224,6,27.0000006437302
192,264,84648,2,0,B|88:264|88:264|96:264|96:264|96:184,1,180
48,88,85264,5,0
64,112,85341,1,0
80,136,85417,2,0,B|120:192|120:192|160:176,1,90
168,80,85725,1,0
240,160,85879,2,0,B|264:200,2,45
328,88,86187,5,0
320,120,86264,1,0
328,152,86341,1,0
320,184,86417,1,0
328,216,86494,1,0
320,248,86571,1,0
328,280,86648,1,0
320,312,86725,1,0
328,344,86802,1,0
320,376,86879,1,0
288,368,86956,1,0
264,376,87033,1,0
232,368,87110,1,0
200,376,87187,1,0
168,368,87264,1,0
136,376,87341,1,0
104,368,87417,1,0
72,376,87494,1,0
40,368,87571,1,0
8,376,87648,1,0
16,344,87725,6,0,B|120:264,1,90
112,272,87956,1,0
136,256,88033,2,0,B|224:192,1,90
232,96,88341,1,0
256,112,88417,2,0,B|328:160,1,45
392,88,88648,1,0
376,112,88725,1,0
360,136,88802,1,0
344,160,88879,1,0
328,184,88956,1,0
312,208,89033,1,0
296,232,89110,1,0
280,256,89187,1,0
264,280,89264,2,0,B|232:328,3,45
200,296,89571,6,0,B|144:256,1,45
176,224,89725,2,0,B|232:184,1,45
200,152,89879,2,0,B|144:112,1,45
176,80,90033,2,0,B|232:40,1,45
264,40,90187,5,2
272,64,90264,1,0
280,88,90341,1,0
384,96,90494,2,0,B|320:168,1,90
432,192,90802,1,2
424,216,90879,1,0
416,240,90956,1,0
384,344,91110,5,0
352,328,91187,1,0
336,296,91264,1,0
304,280,91341,1,0
288,248,91417,1,0
256,232,91494,1,0
240,200,91571,1,0
208,184,91648,1,0
192,152,91725,2,0,B|144:96,3,45,2|0|0|0
144,96,92033,2,0,B|192:40,3,45,2|0|0|0
208,64,92341,1,0
240,56,92417,1,0
272,64,92494,1,0
304,56,92571,1,0
336,64,92648,2,0,B|416:152,1,90
456,224,92956,5,2
472,248,93033,1,0
488,272,93110,1,0
384,264,93264,1,2
368,288,93341,1,0
352,312,93418,1,0
328,208,93571,5,0
304,184,93648,1,0
280,160,93725,1,0
256,136,93802,1,0
232,112,93879,2,0,B|200:80|200:80|144:56,1,90
88,144,94187,1,0
112,168,94264,1,0
136,192,94341,1,0
160,216,94418,1,0
184,240,94495,2,0,B|216:272|216:272|272:296,1,90
360,248,94802,5,0
360,216,94879,1,0
360,184,94956,1,0
360,152,95033,1,0
360,120,95110,2,0,B|328:80|328:80|280:56,1,90,2|0
248,104,95417,2,0,B|208:72|208:72|144:72,1,90,2|0
152,128,95725,2,0,B|96:144|96:144|88:184,1,90,2|0
120,224,96033,2,0,B|120:288|120:288|144:304,1,90,2|0
200,280,96341,6,0,B|232:328|232:328|288:320,1,90,2|0
296,272,96648,2,0,B|344:296|344:296|384:272,1,90,2|0
368,216,96956,2,0,B|416:208|416:208|440:176,1,90,2|0
400,128,97264,2,0,B|440:104|440:104|448:56,1,90,2|0
384,56,97571,1,2
352,48,97648,2,0,B|288:32,1,45
264,80,97879,1,2
232,88,97956,2,0,B|160:104,1,45
160,152,98187,1,2
136,168,98264,2,0,B|80:208,1,45
128,248,98494,1,2
112,272,98571,2,0,B|80:328,1,45
144,336,98802,5,2
176,344,98879,2,0,B|240:360,1,45
264,312,99110,1,2
296,304,99187,2,0,B|368:288,1,45
368,240,99418,1,2
392,224,99495,2,0,B|448:184,1,45
400,144,99725,1,2
416,120,99802,2,0,B|448:64,1,45
376,64,100033,5,2
352,48,100110,1,0
328,32,100187,1,0
288,64,100341,1,2
256,56,100418,1,0
224,48,100495,1,0
192,96,100648,1,2
160,96,100725,1,0
128,96,100802,1,0
120,152,100956,1,2
96,168,101033,1,0
72,184,101110,1,0
96,232,101264,1,2
80,256,101341,1,0
64,280,101418,1,0
112,304,101571,1,2
104,328,101648,1,0
96,352,101725,1,0
152,352,101879,5,2
168,328,101956,1,0
184,304,102033,1,0
248,288,102187,1,2
256,256,102264,1,0
264,224,102341,1,0
336,216,102494,1,2
336,184,102571,1,0
336,152,102648,1,0
416,136,102802,1,2
400,112,102879,1,0
384,88,102956,1,0
304,56,103110,1,2
280,40,103187,1,0
256,24,103264,1,0
200,96,103417,1,2
176,88,103494,1,0
152,80,103571,1,0
96,176,103725,5,0
128,192,103802,1,0
160,208,103879,1,0
192,224,103956,1,0
224,240,104033,1,0
256,256,104110,1,0
288,272,104187,1,0
320,288,104264,1,0
352,304,104341,2,0,B|400:272,3,45
384,320,104648,2,0,B|416:368,3,45
440,344,104956,1,0
184,80,116033,5,0
160,112,116110,1,0
136,144,116187,1,0
112,176,116264,1,0
88,208,116341,1,0
112,240,116417,1,0
136,272,116494,1,0
160,304,116571,1,0
184,328,116648,2,0,B|224:376,1,45
288,304,116802,2,0,B|360:328,1,45
360,232,116956,2,0,B|432:224,1,45
384,136,117110,2,0,B|432:104,1,45
472,32,117264,1,0
