osu file format v14

[General]
AudioFilename: kors k as teranoid - Bad Maniacs.mp3
AudioLeadIn: 0
PreviewTime: 86339
Countdown: 0
SampleSet: Soft
StackLeniency: 0.7
Mode: 3
LetterboxInBreaks: 0
SpecialStyle: 0
WidescreenStoryboard: 0

[Editor]
DistanceSpacing: 1.3
BeatDivisor: 4
GridSize: 32
TimelineZoom: 2.499999

[Metadata]
Title:Bad Maniacs
TitleUnicode:Bad Maniacs
Artist:kors k as teranoid
ArtistUnicode:kors k as teranoid
Creator:[Shana Lesus]
Version:Another Lv.12
Source:beatmania IIDX
Tags:konami industrial bemani 17th sirius reflec beat rb plus ways for liberation kuo_kyoka
BeatmapID:735817
BeatmapSetID:332338

[Difficulty]
HPDrainRate:8
CircleSize:4
OverallDifficulty:8
ApproachRate:5
SliderMultiplier:1.4
SliderTickRate:1

[Events]
//Background and Video events
0,0,"maniacs.jpg",0,0
Video,-765,"maniacs.avi"
//Break Periods
//Storyboard Layer 0 (Background)
//Storyboard Layer 1 (Fail)
//Storyboard Layer 2 (Pass)
//Storyboard Layer 3 (Foreground)
//Storyboard Sound Samples

[TimingPoints]
1416,307.692307692308,4,2,1,60,1,0
86339,-100,4,2,1,60,0,1
106031,-100,4,2,1,60,0,0

[HitObjects]
448,192,1416,5,2,0:0:0:0:
64,192,1416,1,0,0:0:0:0:
320,192,1416,1,0,0:0:0:0:
192,192,1416,1,0,0:0:0:0:
192,192,2339,1,0,0:0:0:0:
192,192,3877,1,0,0:0:0:0:
192,192,5723,1,0,0:0:0:0:
192,192,7416,1,0,0:0:0:0:
192,192,8800,1,0,0:0:0:0:
192,192,10031,1,0,0:0:0:0:
192,192,11262,1,0,0:0:0:0:
192,192,12339,1,0,0:0:0:0:
192,192,13416,1,0,0:0:0:0:
192,192,14339,1,0,0:0:0:0:
192,192,14954,1,0,0:0:0:0:
192,192,15569,128,0,16492:0:0:0:0:
192,192,17185,1,0,0:0:0:0:
320,192,17262,1,0,0:0:0:0:
192,192,17339,1,0,0:0:0:0:
448,192,17416,1,0,0:0:0:0:
320,192,17416,1,2,0:0:0:0:
64,192,17416,1,0,0:0:0:0:
192,192,17569,1,0,0:0:0:0:
448,192,17723,1,0,0:0:0:0:
64,192,17723,1,0,0:0:0:0:
320,192,17723,1,2,0:0:0:0:
192,192,17877,1,0,0:0:0:0:
320,192,17954,1,0,0:0:0:0:
448,192,18031,1,0,0:0:0:0:
64,192,18031,1,0,0:0:0:0:
192,192,18031,1,2,0:0:0:0:
320,192,18108,1,0,0:0:0:0:
192,192,18185,1,0,0:0:0:0:
320,192,18339,1,2,0:0:0:0:
448,192,18339,1,0,0:0:0:0:
64,192,18339,1,0,0:0:0:0:
192,192,18492,1,0,0:0:0:0:
320,192,18646,1,0,0:0:0:0:
64,192,18646,1,2,0:0:0:0:
192,192,18646,1,0,0:0:0:0:
320,192,18800,1,0,0:0:0:0:
320,192,18954,1,0,0:0:0:0:
192,192,18954,1,2,0:0:0:0:
448,192,18954,1,0,0:0:0:0:
64,192,19108,1,0,0:0:0:0:
192,192,19185,1,0,0:0:0:0:
320,192,19262,1,2,0:0:0:0:
448,192,19262,1,0,0:0:0:0:
64,192,19262,1,0,0:0:0:0:
192,192,19416,1,0,0:0:0:0:
64,192,19569,1,0,0:0:0:0:
320,192,19569,1,2,0:0:0:0:
448,192,19569,1,0,0:0:0:0:
192,192,19646,1,0,0:0:0:0:
448,192,19723,1,0,0:0:0:0:
320,192,19800,1,0,0:0:0:0:
192,192,19877,1,0,0:0:0:0:
64,192,19877,1,2,0:0:0:0:
448,192,19877,1,0,0:0:0:0:
320,192,20031,1,0,0:0:0:0:
448,192,20185,1,0,0:0:0:0:
192,192,20185,1,2,0:0:0:0:
64,192,20185,1,0,0:0:0:0:
320,192,20339,1,0,0:0:0:0:
192,192,20416,1,0,0:0:0:0:
320,192,20492,1,2,0:0:0:0:
448,192,20492,1,0,0:0:0:0:
64,192,20492,1,0,0:0:0:0:
192,192,20569,1,0,0:0:0:0:
320,192,20646,1,0,0:0:0:0:
320,192,20800,1,0,0:0:0:0:
448,192,20800,1,2,0:0:0:0:
64,192,20800,1,0,0:0:0:0:
192,192,20954,1,0,0:0:0:0:
192,192,21108,1,0,0:0:0:0:
64,192,21108,1,2,0:0:0:0:
448,192,21108,1,0,0:0:0:0:
320,192,21262,1,0,0:0:0:0:
448,192,21416,1,0,0:0:0:0:
320,192,21416,1,0,0:0:0:0:
64,192,21416,1,2,0:0:0:0:
192,192,21569,1,0,0:0:0:0:
448,192,21723,1,2,0:0:0:0:
64,192,21723,1,0,0:0:0:0:
192,192,21723,1,0,0:0:0:0:
448,192,21877,1,0,0:0:0:0:
320,192,21877,1,0,0:0:0:0:
64,192,22031,1,0,0:0:0:0:
192,192,22031,1,2,0:0:0:0:
320,192,22031,1,0,0:0:0:0:
448,192,22185,1,2,0:0:0:0:
320,192,22236,1,2,0:0:0:0:
192,192,22287,1,2,0:0:0:0:
64,192,22339,1,0,0:0:0:0:
448,192,22339,1,0,0:0:0:0:
320,192,22339,1,2,0:0:0:0:
320,192,22492,1,0,0:0:0:0:
192,192,22646,1,2,0:0:0:0:
448,192,22646,1,0,0:0:0:0:
64,192,22646,1,0,0:0:0:0:
320,192,22800,1,0,0:0:0:0:
192,192,22877,1,0,0:0:0:0:
64,192,22954,1,0,0:0:0:0:
448,192,22954,1,2,0:0:0:0:
320,192,22954,1,0,0:0:0:0:
192,192,23031,1,0,0:0:0:0:
320,192,23108,1,0,0:0:0:0:
192,192,23262,1,0,0:0:0:0:
64,192,23262,1,2,0:0:0:0:
448,192,23262,1,0,0:0:0:0:
320,192,23416,1,0,0:0:0:0:
448,192,23569,1,2,0:0:0:0:
64,192,23569,1,0,0:0:0:0:
192,192,23569,1,0,0:0:0:0:
192,192,23723,1,0,0:0:0:0:
320,192,23877,1,2,0:0:0:0:
448,192,23877,1,0,0:0:0:0:
64,192,23877,1,0,0:0:0:0:
192,192,24031,1,0,0:0:0:0:
320,192,24108,1,0,0:0:0:0:
192,192,24185,1,0,0:0:0:0:
448,192,24185,1,0,0:0:0:0:
64,192,24185,1,2,0:0:0:0:
192,192,24339,1,0,0:0:0:0:
320,192,24492,1,2,0:0:0:0:
448,192,24492,1,0,0:0:0:0:
64,192,24492,1,2,0:0:0:0:
192,192,24569,1,2,0:0:0:0:
320,192,24646,1,2,0:0:0:0:
448,192,24723,1,2,0:0:0:0:
320,192,24800,1,2,0:0:0:0:
192,192,24800,1,0,0:0:0:0:
64,192,24800,1,0,0:0:0:0:
192,192,24954,1,0,0:0:0:0:
64,192,25108,1,0,0:0:0:0:
320,192,25108,1,2,0:0:0:0:
448,192,25108,1,0,0:0:0:0:
448,192,25262,1,0,0:0:0:0:
64,192,25339,1,0,0:0:0:0:
320,192,25416,1,0,0:0:0:0:
192,192,25416,1,2,0:0:0:0:
448,192,25416,1,0,0:0:0:0:
64,192,25492,1,0,0:0:0:0:
448,192,25569,1,0,0:0:0:0:
320,192,25723,1,2,0:0:0:0:
64,192,25723,1,0,0:0:0:0:
192,192,25723,1,0,0:0:0:0:
320,192,25877,1,0,0:0:0:0:
192,192,25954,1,0,0:0:0:0:
320,192,26031,1,2,0:0:0:0:
448,192,26031,1,0,0:0:0:0:
64,192,26031,1,0,0:0:0:0:
320,192,26185,1,2,0:0:0:0:
192,192,26185,1,0,0:0:0:0:
64,192,26339,1,0,0:0:0:0:
192,192,26339,1,2,0:0:0:0:
448,192,26339,1,0,0:0:0:0:
320,192,26492,1,0,0:0:0:0:
448,192,26646,1,0,0:0:0:0:
64,192,26646,1,0,0:0:0:0:
320,192,26646,1,2,0:0:0:0:
64,192,26800,1,0,0:0:0:0:
192,192,26800,1,2,0:0:0:0:
320,192,26954,1,2,0:0:0:0:
192,192,26954,1,0,0:0:0:0:
448,192,26954,1,0,0:0:0:0:
64,192,27108,1,2,0:0:0:0:
192,192,27159,1,2,0:0:0:0:
320,192,27210,1,2,0:0:0:0:
448,192,27262,1,0,0:0:0:0:
192,192,27262,1,0,0:0:0:0:
64,192,27262,1,2,0:0:0:0:
320,192,27339,1,0,0:0:0:0:
192,192,27416,1,0,0:0:0:0:
448,192,27416,1,2,0:0:0:0:
320,192,27569,1,2,0:0:0:0:
64,192,27569,1,0,0:0:0:0:
192,192,27646,1,0,0:0:0:0:
64,192,27723,1,0,0:0:0:0:
448,192,27723,1,0,0:0:0:0:
320,192,27800,1,0,0:0:0:0:
192,192,27877,1,2,0:0:0:0:
64,192,27877,1,0,0:0:0:0:
448,192,27877,1,0,0:0:0:0:
320,192,27954,1,0,0:0:0:0:
192,192,28031,1,0,0:0:0:0:
64,192,28031,1,0,0:0:0:0:
64,192,28185,1,0,0:0:0:0:
320,192,28185,1,2,0:0:0:0:
448,192,28185,1,0,0:0:0:0:
192,192,28262,1,0,0:0:0:0:
64,192,28339,1,0,0:0:0:0:
448,192,28339,1,0,0:0:0:0:
192,192,28492,1,0,0:0:0:0:
448,192,28492,1,0,0:0:0:0:
320,192,28492,1,2,0:0:0:0:
64,192,28569,1,0,0:0:0:0:
448,192,28646,1,0,0:0:0:0:
192,192,28646,1,0,0:0:0:0:
448,192,28800,1,0,0:0:0:0:
192,192,28800,1,2,0:0:0:0:
64,192,28800,1,0,0:0:0:0:
320,192,28877,1,0,0:0:0:0:
448,192,28954,1,0,0:0:0:0:
192,192,28954,1,0,0:0:0:0:
64,192,29031,1,0,0:0:0:0:
320,192,29108,1,0,0:0:0:0:
448,192,29108,1,2,0:0:0:0:
192,192,29108,1,0,0:0:0:0:
64,192,29185,1,0,0:0:0:0:
320,192,29262,1,0,0:0:0:0:
192,192,29262,1,0,0:0:0:0:
448,192,29416,1,0,0:0:0:0:
64,192,29416,1,0,0:0:0:0:
192,192,29492,1,0,0:0:0:0:
320,192,29569,1,0,0:0:0:0:
192,192,29646,1,0,0:0:0:0:
64,192,29723,1,0,0:0:0:0:
320,192,29723,1,2,0:0:0:0:
448,192,29723,1,0,0:0:0:0:
192,192,29800,1,0,0:0:0:0:
448,192,29877,1,0,0:0:0:0:
320,192,29877,1,2,0:0:0:0:
448,192,30031,1,0,0:0:0:0:
64,192,30031,1,2,0:0:0:0:
192,192,30108,1,0,0:0:0:0:
320,192,30185,1,2,0:0:0:0:
64,192,30185,1,0,0:0:0:0:
448,192,30262,1,0,0:0:0:0:
320,192,30339,1,2,0:0:0:0:
192,192,30339,1,0,0:0:0:0:
64,192,30339,1,0,0:0:0:0:
448,192,30416,1,0,0:0:0:0:
192,192,30492,1,0,0:0:0:0:
320,192,30492,1,0,0:0:0:0:
64,192,30646,1,0,0:0:0:0:
448,192,30646,1,0,0:0:0:0:
192,192,30646,1,2,0:0:0:0:
320,192,30723,1,0,0:0:0:0:
64,192,30800,1,0,0:0:0:0:
448,192,30800,1,0,0:0:0:0:
192,192,30954,1,2,0:0:0:0:
320,192,30954,1,0,0:0:0:0:
448,192,30954,1,0,0:0:0:0:
64,192,31031,1,0,0:0:0:0:
320,192,31108,1,0,0:0:0:0:
64,192,31262,1,2,0:0:0:0:
448,192,31262,1,0,0:0:0:0:
192,192,31262,1,0,0:0:0:0:
320,192,31339,1,0,0:0:0:0:
192,192,31416,1,0,0:0:0:0:
448,192,31416,1,0,0:0:0:0:
320,192,31569,1,2,0:0:0:0:
64,192,31569,1,0,0:0:0:0:
448,192,31569,1,0,0:0:0:0:
192,192,31646,1,0,0:0:0:0:
320,192,31723,1,0,0:0:0:0:
64,192,31723,1,2,0:0:0:0:
448,192,31877,1,2,0:0:0:0:
64,192,31877,1,0,0:0:0:0:
448,192,32031,1,2,0:0:0:0:
192,192,32185,1,0,0:0:0:0:
320,192,32185,1,2,0:0:0:0:
448,192,32185,1,0,0:0:0:0:
64,192,32262,1,0,0:0:0:0:
192,192,32339,1,0,0:0:0:0:
320,192,32339,1,2,0:0:0:0:
448,192,32492,1,0,0:0:0:0:
192,192,32492,1,2,0:0:0:0:
320,192,32569,1,0,0:0:0:0:
192,192,32646,1,0,0:0:0:0:
64,192,32646,1,0,0:0:0:0:
320,192,32723,1,0,0:0:0:0:
448,192,32800,1,0,0:0:0:0:
64,192,32800,1,2,0:0:0:0:
192,192,32800,1,0,0:0:0:0:
320,192,32877,1,0,0:0:0:0:
192,192,32954,1,0,0:0:0:0:
448,192,32954,1,0,0:0:0:0:
64,192,33031,1,0,0:0:0:0:
448,192,33108,1,0,0:0:0:0:
192,192,33108,1,0,0:0:0:0:
320,192,33108,1,2,0:0:0:0:
64,192,33185,1,0,0:0:0:0:
192,192,33262,1,0,0:0:0:0:
320,192,33262,1,0,0:0:0:0:
448,192,33416,1,0,0:0:0:0:
64,192,33416,1,0,0:0:0:0:
320,192,33416,1,2,0:0:0:0:
192,192,33492,1,0,0:0:0:0:
320,192,33569,1,0,0:0:0:0:
64,192,33569,1,0,0:0:0:0:
64,192,33723,1,2,0:0:0:0:
192,192,33723,1,0,0:0:0:0:
448,192,33723,1,0,0:0:0:0:
320,192,33800,1,0,0:0:0:0:
64,192,33877,1,0,0:0:0:0:
448,192,33877,1,0,0:0:0:0:
192,192,33954,1,0,0:0:0:0:
64,192,34031,1,0,0:0:0:0:
448,192,34031,1,0,0:0:0:0:
320,192,34031,1,2,0:0:0:0:
192,192,34108,1,0,0:0:0:0:
320,192,34185,1,0,0:0:0:0:
448,192,34339,1,2,0:0:0:0:
64,192,34339,1,0,0:0:0:0:
320,192,34416,1,2,0:0:0:0:
192,192,34492,1,2,0:0:0:0:
448,192,34569,1,2,0:0:0:0:
64,192,34646,1,0,0:0:0:0:
192,192,34646,1,0,0:0:0:0:
320,192,34646,1,2,0:0:0:0:
448,192,34877,1,0,0:0:0:0:
192,192,34877,1,0,0:0:0:0:
64,192,34877,1,2,0:0:0:0:
320,192,35108,1,0,0:0:0:0:
448,192,35108,1,0,0:0:0:0:
64,192,35108,1,2,0:0:0:0:
192,192,35339,1,2,0:0:0:0:
320,192,35339,1,0,0:0:0:0:
448,192,35339,1,0,0:0:0:0:
64,192,35569,1,2,0:0:0:0:
320,192,35569,1,0,0:0:0:0:
448,192,35569,1,0,0:0:0:0:
192,192,35800,1,0,0:0:0:0:
448,192,35800,1,0,0:0:0:0:
64,192,35800,1,2,0:0:0:0:
320,192,36031,1,0,0:0:0:0:
192,192,36031,1,0,0:0:0:0:
64,192,36031,1,2,0:0:0:0:
448,192,36262,1,0,0:0:0:0:
320,192,36262,1,0,0:0:0:0:
64,192,36262,1,2,0:0:0:0:
448,192,36492,1,0,0:0:0:0:
320,192,36492,1,0,0:0:0:0:
192,192,36492,1,0,0:0:0:0:
64,192,36492,1,2,0:0:0:0:
448,192,36800,1,0,0:0:0:0:
192,192,36954,1,0,0:0:0:0:
320,192,37108,1,2,0:0:0:0:
64,192,37108,1,0,0:0:0:0:
448,192,37185,1,0,0:0:0:0:
192,192,37262,1,0,0:0:0:0:
448,192,37339,1,0,0:0:0:0:
192,192,37416,1,0,0:0:0:0:
320,192,37569,1,0,0:0:0:0:
64,192,37723,1,0,0:0:0:0:
192,192,37800,1,0,0:0:0:0:
320,192,37877,1,0,0:0:0:0:
192,192,38031,1,0,0:0:0:0:
448,192,38108,1,0,0:0:0:0:
192,192,38185,1,0,0:0:0:0:
448,192,38262,1,0,0:0:0:0:
64,192,38339,1,0,0:0:0:0:
64,192,38492,1,0,0:0:0:0:
320,192,38646,128,0,38954:0:0:0:0:
192,192,38954,128,0,39262:0:0:0:0:
448,192,39262,128,0,39569:0:0:0:0:
320,192,39569,1,0,0:0:0:0:
64,192,39646,1,0,0:0:0:0:
320,192,39723,1,0,0:0:0:0:
64,192,39800,1,0,0:0:0:0:
192,192,39877,1,0,0:0:0:0:
448,192,40031,1,0,0:0:0:0:
320,192,40185,1,0,0:0:0:0:
192,192,40262,1,0,0:0:0:0:
64,192,40339,1,0,0:0:0:0:
448,192,40492,1,0,0:0:0:0:
192,192,40569,1,0,0:0:0:0:
448,192,40646,1,0,0:0:0:0:
192,192,40723,1,0,0:0:0:0:
320,192,40800,1,0,0:0:0:0:
320,192,40954,1,0,0:0:0:0:
64,192,41108,128,0,41416:0:0:0:0:
192,192,41416,128,0,41723:0:0:0:0:
448,192,41723,128,0,42031:0:0:0:0:
320,192,42031,1,4,0:0:0:0:
64,192,42031,1,0,0:0:0:0:
192,192,42108,1,0,0:0:0:0:
448,192,42185,1,0,0:0:0:0:
192,192,42262,1,0,0:0:0:0:
448,192,42339,1,0,0:0:0:0:
320,192,42492,1,0,0:0:0:0:
64,192,42646,1,0,0:0:0:0:
448,192,42646,1,4,0:0:0:0:
192,192,42723,1,0,0:0:0:0:
320,192,42800,1,0,0:0:0:0:
448,192,42954,1,0,0:0:0:0:
64,192,43031,1,0,0:0:0:0:
448,192,43108,1,0,0:0:0:0:
64,192,43185,1,0,0:0:0:0:
192,192,43262,1,4,0:0:0:0:
320,192,43262,1,0,0:0:0:0:
320,192,43416,1,0,0:0:0:0:
448,192,43569,128,0,43877:0:0:0:0:
320,192,43877,128,0,44185:0:0:0:0:
64,192,43877,1,4,0:0:0:0:
64,192,44185,128,0,44492:0:0:0:0:
448,192,44492,1,0,0:0:0:0:
320,192,44492,1,4,0:0:0:0:
192,192,44569,1,0,0:0:0:0:
448,192,44646,1,0,0:0:0:0:
192,192,44723,1,0,0:0:0:0:
320,192,44800,1,0,0:0:0:0:
64,192,44954,1,0,0:0:0:0:
448,192,45108,1,0,0:0:0:0:
192,192,45108,1,4,0:0:0:0:
320,192,45185,1,0,0:0:0:0:
192,192,45262,1,0,0:0:0:0:
64,192,45416,1,0,0:0:0:0:
320,192,45492,1,0,0:0:0:0:
64,192,45569,1,0,0:0:0:0:
320,192,45646,1,0,0:0:0:0:
64,192,46954,1,0,0:0:0:0:
320,192,46954,1,2,0:0:0:0:
448,192,46954,1,4,0:0:0:0:
192,192,47031,1,0,0:0:0:0:
320,192,47108,1,0,0:0:0:0:
64,192,47108,1,0,0:0:0:0:
448,192,47185,1,0,0:0:0:0:
320,192,47262,1,0,0:0:0:0:
192,192,47262,1,0,0:0:0:0:
64,192,47416,1,0,0:0:0:0:
448,192,47416,1,0,0:0:0:0:
320,192,47569,1,4,0:0:0:0:
64,192,47569,1,0,0:0:0:0:
192,192,47569,1,0,0:0:0:0:
448,192,47646,1,0,0:0:0:0:
320,192,47723,1,0,0:0:0:0:
192,192,47723,1,0,0:0:0:0:
64,192,47877,1,2,0:0:0:0:
448,192,47877,1,0,0:0:0:0:
192,192,47877,1,0,0:0:0:0:
320,192,47954,1,0,0:0:0:0:
192,192,48031,1,0,0:0:0:0:
448,192,48031,1,0,0:0:0:0:
64,192,48108,1,0,0:0:0:0:
192,192,48185,1,0,0:0:0:0:
320,192,48185,1,4,0:0:0:0:
448,192,48339,1,0,0:0:0:0:
192,192,48339,1,0,0:0:0:0:
320,192,48492,1,2,0:0:0:0:
64,192,48492,1,0,0:0:0:0:
192,192,48492,1,0,0:0:0:0:
64,192,48646,1,0,0:0:0:0:
320,192,48800,1,0,0:0:0:0:
448,192,48800,1,4,0:0:0:0:
64,192,48800,1,0,0:0:0:0:
192,192,48954,1,0,0:0:0:0:
320,192,49108,1,0,0:0:0:0:
64,192,49108,1,0,0:0:0:0:
192,192,49262,1,0,0:0:0:0:
64,192,49416,1,2,0:0:0:0:
448,192,49416,1,0,0:0:0:0:
192,192,49416,1,0,0:0:0:0:
320,192,49492,1,0,0:0:0:0:
192,192,49569,1,0,0:0:0:0:
448,192,49569,1,0,0:0:0:0:
64,192,49646,1,0,0:0:0:0:
192,192,49723,1,0,0:0:0:0:
320,192,49723,1,0,0:0:0:0:
448,192,49877,1,0,0:0:0:0:
192,192,49877,1,0,0:0:0:0:
320,192,50031,1,4,0:0:0:0:
64,192,50031,1,0,0:0:0:0:
448,192,50031,1,0,0:0:0:0:
192,192,50108,1,0,0:0:0:0:
448,192,50108,1,0,0:0:0:0:
320,192,50185,1,0,0:0:0:0:
64,192,50185,1,0,0:0:0:0:
192,192,50339,1,2,0:0:0:0:
320,192,50339,1,0,0:0:0:0:
64,192,50339,1,0,0:0:0:0:
448,192,50416,1,0,0:0:0:0:
320,192,50492,1,0,0:0:0:0:
64,192,50492,1,0,0:0:0:0:
192,192,50569,1,0,0:0:0:0:
320,192,50646,1,0,0:0:0:0:
448,192,50646,1,4,0:0:0:0:
64,192,50646,1,0,0:0:0:0:
192,192,50800,1,0,0:0:0:0:
320,192,50800,1,0,0:0:0:0:
64,192,50954,1,2,0:0:0:0:
448,192,50954,1,0,0:0:0:0:
192,192,50954,1,0,0:0:0:0:
320,192,51108,1,0,0:0:0:0:
192,192,51262,1,4,0:0:0:0:
64,192,51262,1,0,0:0:0:0:
448,192,51262,1,0,0:0:0:0:
320,192,51416,1,0,0:0:0:0:
64,192,51569,1,0,0:0:0:0:
448,192,51569,1,0,0:0:0:0:
320,192,51723,1,0,0:0:0:0:
192,192,51877,1,2,0:0:0:0:
64,192,51877,1,0,0:0:0:0:
448,192,51877,1,4,0:0:0:0:
320,192,51954,1,0,0:0:0:0:
448,192,52031,1,0,0:0:0:0:
64,192,52031,1,0,0:0:0:0:
192,192,52108,1,0,0:0:0:0:
448,192,52185,1,0,0:0:0:0:
320,192,52185,1,0,0:0:0:0:
192,192,52339,1,0,0:0:0:0:
320,192,52339,1,0,0:0:0:0:
64,192,52492,1,4,0:0:0:0:
448,192,52492,1,0,0:0:0:0:
192,192,52492,1,0,0:0:0:0:
320,192,52569,1,0,0:0:0:0:
192,192,52646,1,0,0:0:0:0:
448,192,52646,1,0,0:0:0:0:
64,192,52800,1,0,0:0:0:0:
320,192,52800,1,2,0:0:0:0:
448,192,52800,1,0,0:0:0:0:
192,192,52877,1,0,0:0:0:0:
320,192,52954,1,0,0:0:0:0:
448,192,52954,1,0,0:0:0:0:
192,192,53031,1,0,0:0:0:0:
448,192,53108,1,4,0:0:0:0:
64,192,53108,1,0,0:0:0:0:
320,192,53262,1,0,0:0:0:0:
192,192,53262,1,0,0:0:0:0:
64,192,53416,1,2,0:0:0:0:
320,192,53416,1,0,0:0:0:0:
448,192,53416,1,0,0:0:0:0:
192,192,53569,1,0,0:0:0:0:
320,192,53723,1,4,0:0:0:0:
448,192,53723,1,0,0:0:0:0:
64,192,53723,1,0,0:0:0:0:
64,192,53877,1,0,0:0:0:0:
448,192,54031,1,0,0:0:0:0:
64,192,54031,1,0,0:0:0:0:
320,192,54185,1,0,0:0:0:0:
192,192,54339,1,2,0:0:0:0:
448,192,54339,1,4,0:0:0:0:
64,192,54416,1,0,0:0:0:0:
192,192,54492,1,0,0:0:0:0:
320,192,54492,1,0,0:0:0:0:
448,192,54569,1,0,0:0:0:0:
320,192,54646,1,0,0:0:0:0:
64,192,54646,1,0,0:0:0:0:
192,192,54800,1,0,0:0:0:0:
448,192,54800,1,0,0:0:0:0:
64,192,54851,1,0,0:0:0:0:
320,192,54903,1,0,0:0:0:0:
192,192,54954,1,0,0:0:0:0:
448,192,54954,1,4,0:0:0:0:
64,192,54954,1,0,0:0:0:0:
320,192,55031,1,0,0:0:0:0:
448,192,55031,1,0,0:0:0:0:
192,192,55108,1,0,0:0:0:0:
64,192,55108,1,0,0:0:0:0:
320,192,55185,1,0,0:0:0:0:
448,192,55185,1,0,0:0:0:0:
192,192,55262,1,2,0:0:0:0:
64,192,55262,1,0,0:0:0:0:
320,192,55339,1,0,0:0:0:0:
448,192,55416,1,0,0:0:0:0:
192,192,55416,1,0,0:0:0:0:
320,192,55492,1,0,0:0:0:0:
64,192,55569,1,0,0:0:0:0:
448,192,55646,1,0,0:0:0:0:
192,192,55723,1,0,0:0:0:0:
320,192,55800,1,0,0:0:0:0:
448,192,55877,128,0,56185:0:0:0:0:
192,192,56185,1,2,0:0:0:0:
320,192,56185,1,0,0:0:0:0:
64,192,56185,128,0,56492:0:0:0:0:
320,192,56492,128,0,56800:0:0:0:0:
448,192,56800,1,0,0:0:0:0:
64,192,56800,1,2,0:0:0:0:
192,192,56877,1,0,0:0:0:0:
320,192,56954,1,0,0:0:0:0:
448,192,56954,1,0,0:0:0:0:
64,192,57108,1,2,0:0:0:0:
320,192,57108,1,0,0:0:0:0:
192,192,57185,1,0,0:0:0:0:
320,192,57262,1,0,0:0:0:0:
448,192,57262,1,0,0:0:0:0:
64,192,57416,1,2,0:0:0:0:
448,192,57416,1,0,0:0:0:0:
192,192,57492,1,0,0:0:0:0:
320,192,57569,1,0,0:0:0:0:
64,192,57569,1,0,0:0:0:0:
448,192,57723,1,0,0:0:0:0:
192,192,57723,1,2,0:0:0:0:
320,192,57800,1,0,0:0:0:0:
64,192,57877,1,0,0:0:0:0:
192,192,57877,1,0,0:0:0:0:
192,192,58031,1,2,0:0:0:0:
320,192,58031,1,0,0:0:0:0:
448,192,58108,1,0,0:0:0:0:
64,192,58185,1,0,0:0:0:0:
320,192,58185,1,0,0:0:0:0:
192,192,58339,1,2,0:0:0:0:
320,192,58339,1,0,0:0:0:0:
64,192,58416,1,0,0:0:0:0:
320,192,58492,1,0,0:0:0:0:
448,192,58492,1,0,0:0:0:0:
448,192,58646,1,2,0:0:0:0:
192,192,58646,1,0,0:0:0:0:
320,192,58723,1,0,0:0:0:0:
64,192,58800,1,0,0:0:0:0:
192,192,58800,1,0,0:0:0:0:
192,192,58954,1,2,0:0:0:0:
320,192,58954,1,0,0:0:0:0:
448,192,59031,1,0,0:0:0:0:
320,192,59108,1,0,0:0:0:0:
64,192,59108,1,0,0:0:0:0:
64,192,59262,1,2,0:0:0:0:
448,192,59262,1,0,0:0:0:0:
192,192,59339,1,0,0:0:0:0:
320,192,59416,1,0,0:0:0:0:
448,192,59416,1,0,0:0:0:0:
64,192,59569,1,2,0:0:0:0:
320,192,59569,1,0,0:0:0:0:
192,192,59646,1,0,0:0:0:0:
320,192,59723,1,0,0:0:0:0:
448,192,59723,1,0,0:0:0:0:
64,192,59877,1,0,0:0:0:0:
448,192,59877,1,2,0:0:0:0:
320,192,59954,1,0,0:0:0:0:
192,192,60031,1,0,0:0:0:0:
64,192,60031,1,0,0:0:0:0:
64,192,60185,1,0,0:0:0:0:
448,192,60185,1,2,0:0:0:0:
320,192,60262,1,0,0:0:0:0:
192,192,60339,1,0,0:0:0:0:
448,192,60339,1,0,0:0:0:0:
320,192,60492,1,0,0:0:0:0:
64,192,60492,1,2,0:0:0:0:
192,192,60569,1,0,0:0:0:0:
64,192,60646,1,2,0:0:0:0:
448,192,60646,1,0,0:0:0:0:
64,192,60800,1,2,0:0:0:0:
320,192,60800,1,0,0:0:0:0:
192,192,60877,1,0,0:0:0:0:
448,192,60954,1,0,0:0:0:0:
320,192,61108,1,2,0:0:0:0:
64,192,61108,1,0,0:0:0:0:
192,192,61185,1,0,0:0:0:0:
64,192,61262,1,0,0:0:0:0:
448,192,61262,1,2,0:0:0:0:
192,192,61339,1,0,0:0:0:0:
320,192,61416,1,0,0:0:0:0:
448,192,61416,1,0,0:0:0:0:
192,192,61492,1,0,0:0:0:0:
320,192,61569,1,0,0:0:0:0:
64,192,61569,1,0,0:0:0:0:
448,192,61723,1,0,0:0:0:0:
192,192,61723,1,2,0:0:0:0:
320,192,61800,1,0,0:0:0:0:
64,192,61877,1,0,0:0:0:0:
192,192,61877,1,0,0:0:0:0:
448,192,62031,1,2,0:0:0:0:
64,192,62031,1,0,0:0:0:0:
192,192,62108,1,0,0:0:0:0:
320,192,62185,1,0,0:0:0:0:
448,192,62185,1,0,0:0:0:0:
192,192,62339,1,2,0:0:0:0:
320,192,62339,1,0,0:0:0:0:
64,192,62416,1,0,0:0:0:0:
448,192,62492,1,0,0:0:0:0:
192,192,62492,1,0,0:0:0:0:
320,192,62646,1,2,0:0:0:0:
64,192,62646,1,0,0:0:0:0:
192,192,62723,1,0,0:0:0:0:
320,192,62800,1,0,0:0:0:0:
448,192,62800,1,0,0:0:0:0:
448,192,62954,1,0,0:0:0:0:
192,192,62954,1,2,0:0:0:0:
64,192,63031,1,0,0:0:0:0:
320,192,63108,1,0,0:0:0:0:
192,192,63108,1,0,0:0:0:0:
192,192,63262,1,2,0:0:0:0:
64,192,63262,1,0,0:0:0:0:
448,192,63339,1,0,0:0:0:0:
320,192,63416,1,0,0:0:0:0:
64,192,63416,1,0,0:0:0:0:
64,192,63569,1,2,0:0:0:0:
448,192,63569,1,0,0:0:0:0:
192,192,63646,1,0,0:0:0:0:
320,192,63723,1,0,0:0:0:0:
64,192,63723,1,0,0:0:0:0:
192,192,63877,1,2,0:0:0:0:
448,192,63877,1,0,0:0:0:0:
320,192,63954,1,0,0:0:0:0:
64,192,64031,1,0,0:0:0:0:
448,192,64031,1,0,0:0:0:0:
192,192,64185,1,2,0:0:0:0:
320,192,64185,1,0,0:0:0:0:
448,192,64262,1,0,0:0:0:0:
320,192,64339,1,0,0:0:0:0:
64,192,64339,1,2,0:0:0:0:
192,192,64492,1,2,0:0:0:0:
64,192,64492,1,0,0:0:0:0:
320,192,64569,1,0,0:0:0:0:
448,192,64646,1,0,0:0:0:0:
192,192,64646,1,2,0:0:0:0:
64,192,64698,1,0,0:0:0:0:
192,192,64749,1,0,0:0:0:0:
448,192,64800,1,2,0:0:0:0:
320,192,64800,1,0,0:0:0:0:
64,192,64877,1,0,0:0:0:0:
192,192,64877,1,0,0:0:0:0:
448,192,64954,1,0,0:0:0:0:
320,192,64954,1,2,0:0:0:0:
64,192,65031,1,0,0:0:0:0:
448,192,65108,1,0,0:0:0:0:
320,192,65108,1,2,0:0:0:0:
192,192,65185,1,0,0:0:0:0:
448,192,65262,1,0,0:0:0:0:
64,192,65262,1,2,0:0:0:0:
320,192,65339,1,0,0:0:0:0:
64,192,65416,1,0,0:0:0:0:
192,192,65416,1,2,0:0:0:0:
64,192,65569,1,0,0:0:0:0:
64,192,65723,1,0,0:0:0:0:
320,192,65723,1,0,0:0:0:0:
64,192,65877,1,0,0:0:0:0:
64,192,66031,1,0,0:0:0:0:
448,192,66031,1,0,0:0:0:0:
192,192,66185,1,0,0:0:0:0:
192,192,66339,1,0,0:0:0:0:
192,192,66492,1,0,0:0:0:0:
64,192,66646,1,4,0:0:0:0:
320,192,66646,1,2,0:0:0:0:
448,192,66646,128,0,68492:0:0:0:0:
64,192,68954,128,0,70339:0:0:0:0:
320,192,70339,1,0,0:0:0:0:
448,192,70416,5,0,0:0:0:0:
192,192,70492,1,0,0:0:0:0:
320,192,70569,1,0,0:0:0:0:
64,192,70646,1,0,0:0:0:0:
192,192,70723,1,0,0:0:0:0:
320,192,70800,1,0,0:0:0:0:
448,192,70851,1,0,0:0:0:0:
320,192,70903,1,0,0:0:0:0:
64,192,70954,1,0,0:0:0:0:
192,192,70992,1,0,0:0:0:0:
320,192,71031,1,0,0:0:0:0:
448,192,71069,1,0,0:0:0:0:
448,192,71262,128,0,71569:0:0:0:0:
320,192,71569,1,0,0:0:0:0:
64,192,71569,1,2,0:0:0:0:
192,192,71646,1,0,0:0:0:0:
320,192,71723,1,0,0:0:0:0:
192,192,71877,1,0,0:0:0:0:
64,192,72031,1,0,0:0:0:0:
320,192,72185,1,0,0:0:0:0:
192,192,72262,1,0,0:0:0:0:
448,192,72339,1,0,0:0:0:0:
320,192,72492,1,0,0:0:0:0:
64,192,72569,1,0,0:0:0:0:
192,192,72646,1,0,0:0:0:0:
448,192,72723,1,0,0:0:0:0:
64,192,74031,5,2,0:0:0:0:
448,192,74031,1,0,0:0:0:0:
192,192,74108,1,0,0:0:0:0:
320,192,74185,1,0,0:0:0:0:
64,192,74339,1,0,0:0:0:0:
448,192,74492,1,0,0:0:0:0:
192,192,74646,1,0,0:0:0:0:
320,192,74723,1,0,0:0:0:0:
448,192,74800,1,0,0:0:0:0:
64,192,74954,5,0,0:0:0:0:
192,192,75031,1,0,0:0:0:0:
320,192,75108,1,0,0:0:0:0:
448,192,75185,1,0,0:0:0:0:
448,192,76492,1,0,0:0:0:0:
192,192,76492,1,4,0:0:0:0:
64,192,76492,1,2,0:0:0:0:
320,192,76569,1,0,0:0:0:0:
64,192,76646,1,0,0:0:0:0:
192,192,76646,1,0,0:0:0:0:
448,192,76723,1,0,0:0:0:0:
320,192,76800,1,0,0:0:0:0:
192,192,76800,1,0,0:0:0:0:
64,192,76800,1,2,0:0:0:0:
64,192,76954,1,0,0:0:0:0:
448,192,76954,1,0,0:0:0:0:
192,192,77031,1,0,0:0:0:0:
320,192,77108,1,0,0:0:0:0:
448,192,77108,1,2,0:0:0:0:
64,192,77108,1,0,0:0:0:0:
192,192,77185,1,0,0:0:0:0:
448,192,77262,1,0,0:0:0:0:
320,192,77262,1,0,0:0:0:0:
320,192,77416,1,2,0:0:0:0:
64,192,77416,1,0,0:0:0:0:
448,192,77416,1,0,0:0:0:0:
192,192,77492,1,0,0:0:0:0:
64,192,77569,1,0,0:0:0:0:
448,192,77569,1,0,0:0:0:0:
320,192,77646,1,0,0:0:0:0:
64,192,77723,1,0,0:0:0:0:
448,192,77723,1,2,0:0:0:0:
192,192,77723,1,4,0:0:0:0:
320,192,77800,1,0,0:0:0:0:
448,192,77877,1,0,0:0:0:0:
64,192,77877,1,0,0:0:0:0:
192,192,77954,1,0,0:0:0:0:
448,192,78031,1,0,0:0:0:0:
320,192,78031,1,2,0:0:0:0:
64,192,78031,1,0,0:0:0:0:
64,192,78185,1,0,0:0:0:0:
448,192,78185,1,0,0:0:0:0:
320,192,78262,1,0,0:0:0:0:
192,192,78339,1,0,0:0:0:0:
448,192,78339,1,0,0:0:0:0:
64,192,78339,1,2,0:0:0:0:
320,192,78416,1,0,0:0:0:0:
192,192,78492,1,0,0:0:0:0:
64,192,78492,1,0,0:0:0:0:
320,192,78646,1,2,0:0:0:0:
448,192,78646,1,0,0:0:0:0:
64,192,78646,1,0,0:0:0:0:
192,192,78723,1,0,0:0:0:0:
64,192,78800,1,0,0:0:0:0:
448,192,78800,1,0,0:0:0:0:
192,192,78877,1,0,0:0:0:0:
320,192,78954,1,2,0:0:0:0:
64,192,78954,1,0,0:0:0:0:
448,192,78954,1,4,0:0:0:0:
192,192,79031,1,0,0:0:0:0:
448,192,79108,1,0,0:0:0:0:
320,192,79108,1,0,0:0:0:0:
64,192,79185,1,0,0:0:0:0:
192,192,79262,1,2,0:0:0:0:
448,192,79262,1,0,0:0:0:0:
320,192,79262,1,0,0:0:0:0:
320,192,79416,1,0,0:0:0:0:
64,192,79416,1,0,0:0:0:0:
192,192,79492,1,0,0:0:0:0:
320,192,79569,1,0,0:0:0:0:
448,192,79569,1,0,0:0:0:0:
64,192,79569,1,2,0:0:0:0:
192,192,79646,1,0,0:0:0:0:
64,192,79723,1,0,0:0:0:0:
320,192,79723,1,0,0:0:0:0:
448,192,79877,1,0,0:0:0:0:
192,192,79877,1,2,0:0:0:0:
64,192,79877,1,0,0:0:0:0:
320,192,79954,1,0,0:0:0:0:
192,192,80031,1,0,0:0:0:0:
448,192,80031,1,0,0:0:0:0:
64,192,80108,1,0,0:0:0:0:
448,192,80185,1,4,0:0:0:0:
192,192,80185,1,2,0:0:0:0:
320,192,80185,1,0,0:0:0:0:
64,192,80262,1,0,0:0:0:0:
192,192,80339,1,0,0:0:0:0:
320,192,80339,1,0,0:0:0:0:
448,192,80416,1,0,0:0:0:0:
64,192,80492,1,0,0:0:0:0:
320,192,80492,1,2,0:0:0:0:
192,192,80492,1,0,0:0:0:0:
448,192,80646,1,0,0:0:0:0:
192,192,80646,1,0,0:0:0:0:
320,192,80723,1,0,0:0:0:0:
192,192,80800,1,2,0:0:0:0:
64,192,80800,1,0,0:0:0:0:
448,192,80800,1,0,0:0:0:0:
320,192,80877,1,0,0:0:0:0:
448,192,80954,1,0,0:0:0:0:
64,192,80954,1,0,0:0:0:0:
192,192,81108,1,2,0:0:0:0:
320,192,81108,1,0,0:0:0:0:
448,192,81108,1,0,0:0:0:0:
64,192,81185,1,0,0:0:0:0:
192,192,81262,1,0,0:0:0:0:
320,192,81262,1,0,0:0:0:0:
448,192,81339,1,0,0:0:0:0:
320,192,81416,1,4,0:0:0:0:
64,192,81416,1,2,0:0:0:0:
192,192,81416,1,0,0:0:0:0:
448,192,81492,1,0,0:0:0:0:
192,192,81569,1,0,0:0:0:0:
320,192,81646,1,0,0:0:0:0:
192,192,81723,1,2,0:0:0:0:
64,192,81723,1,0,0:0:0:0:
448,192,81723,1,0,0:0:0:0:
320,192,81877,1,0,0:0:0:0:
448,192,81954,1,0,0:0:0:0:
320,192,82031,1,4,0:0:0:0:
64,192,82031,1,2,0:0:0:0:
192,192,82031,1,0,0:0:0:0:
192,192,82185,1,0,0:0:0:0:
320,192,82262,1,0,0:0:0:0:
448,192,82339,1,0,0:0:0:0:
64,192,82339,1,0,0:0:0:0:
192,192,82339,1,2,0:0:0:0:
320,192,82416,1,0,0:0:0:0:
448,192,82492,1,0,0:0:0:0:
320,192,82646,1,4,0:0:0:0:
192,192,82646,1,2,0:0:0:0:
448,192,82646,1,0,0:0:0:0:
64,192,82723,1,0,0:0:0:0:
320,192,82800,1,0,0:0:0:0:
192,192,82877,1,0,0:0:0:0:
320,192,82954,1,0,0:0:0:0:
448,192,82954,1,2,0:0:0:0:
64,192,82954,1,0,0:0:0:0:
192,192,83031,1,0,0:0:0:0:
320,192,83108,1,0,0:0:0:0:
64,192,83185,1,0,0:0:0:0:
192,192,83262,1,2,0:0:0:0:
448,192,83262,1,0,0:0:0:0:
320,192,83262,1,4,0:0:0:0:
320,192,83416,1,0,0:0:0:0:
192,192,83492,1,0,0:0:0:0:
64,192,83569,1,0,0:0:0:0:
448,192,83569,1,0,0:0:0:0:
320,192,83569,1,2,0:0:0:0:
192,192,83646,1,0,0:0:0:0:
64,192,83723,1,0,0:0:0:0:
320,192,83877,1,2,0:0:0:0:
448,192,83877,1,0,0:0:0:0:
192,192,83877,1,0,0:0:0:0:
320,192,84031,1,0,0:0:0:0:
64,192,84031,1,0,0:0:0:0:
192,192,84185,1,0,0:0:0:0:
64,192,84185,1,0,0:0:0:0:
448,192,84185,1,2,0:0:0:0:
192,192,84339,1,0,0:0:0:0:
448,192,84339,1,0,0:0:0:0:
320,192,84492,1,2,0:0:0:0:
192,192,84492,1,0,0:0:0:0:
320,192,84595,1,0,0:0:0:0:
448,192,84595,1,0,0:0:0:0:
64,192,84698,1,0,0:0:0:0:
192,192,84698,1,0,0:0:0:0:
320,192,84800,1,0,0:0:0:0:
192,192,84800,1,2,0:0:0:0:
320,192,84903,1,0,0:0:0:0:
448,192,84903,1,0,0:0:0:0:
64,192,85005,1,0,0:0:0:0:
192,192,85005,1,0,0:0:0:0:
320,192,85108,1,2,0:0:0:0:
448,192,85108,128,0,86031:0:0:0:0:
192,192,85185,1,0,0:0:0:0:
64,192,85262,1,0,0:0:0:0:
192,192,85339,1,0,0:0:0:0:
320,192,85416,1,0,0:0:0:0:
64,192,85416,1,2,0:0:0:0:
192,192,85492,1,0,0:0:0:0:
320,192,85569,1,0,0:0:0:0:
192,192,85646,1,0,0:0:0:0:
320,192,85723,1,0,0:0:0:0:
64,192,85723,1,2,0:0:0:0:
192,192,85800,1,0,0:0:0:0:
320,192,85877,1,0,0:0:0:0:
192,192,85954,1,0,0:0:0:0:
64,192,86031,128,0,86185:0:0:0:0:
320,192,86185,128,0,86339:0:0:0:0:
192,192,86339,1,2,0:0:0:0:
64,192,86339,1,4,0:0:0:0:
448,192,86339,1,0,0:0:0:0:
320,192,86416,1,0,0:0:0:0:
192,192,86492,1,0,0:0:0:0:
448,192,86492,1,0,0:0:0:0:
320,192,86646,1,2,0:0:0:0:
64,192,86646,1,0,0:0:0:0:
192,192,86800,1,0,0:0:0:0:
448,192,86800,1,0,0:0:0:0:
320,192,86954,1,2,0:0:0:0:
192,192,86954,1,0,0:0:0:0:
64,192,87031,1,0,0:0:0:0:
192,192,87108,1,0,0:0:0:0:
448,192,87108,1,0,0:0:0:0:
320,192,87262,1,2,0:0:0:0:
64,192,87262,1,0,0:0:0:0:
192,192,87339,1,0,0:0:0:0:
320,192,87416,1,0,0:0:0:0:
448,192,87416,1,0,0:0:0:0:
192,192,87492,1,0,0:0:0:0:
448,192,87569,1,2,0:0:0:0:
64,192,87569,1,0,0:0:0:0:
320,192,87646,1,0,0:0:0:0:
192,192,87646,1,0,0:0:0:0:
64,192,87723,1,0,0:0:0:0:
448,192,87723,1,0,0:0:0:0:
192,192,87800,1,0,0:0:0:0:
64,192,87877,1,0,0:0:0:0:
448,192,87877,1,2,0:0:0:0:
320,192,87954,1,0,0:0:0:0:
192,192,88031,1,0,0:0:0:0:
448,192,88031,1,0,0:0:0:0:
320,192,88108,1,0,0:0:0:0:
192,192,88185,1,2,0:0:0:0:
64,192,88185,1,0,0:0:0:0:
320,192,88262,1,0,0:0:0:0:
448,192,88262,1,0,0:0:0:0:
64,192,88339,1,0,0:0:0:0:
192,192,88339,1,0,0:0:0:0:
448,192,88492,1,2,0:0:0:0:
192,192,88492,1,0,0:0:0:0:
320,192,88569,1,0,0:0:0:0:
64,192,88646,1,0,0:0:0:0:
192,192,88646,1,0,0:0:0:0:
320,192,88723,1,0,0:0:0:0:
192,192,88800,1,0,0:0:0:0:
448,192,88800,1,2,0:0:0:0:
64,192,88877,1,0,0:0:0:0:
320,192,88954,1,0,0:0:0:0:
192,192,88954,1,0,0:0:0:0:
448,192,89108,1,2,0:0:0:0:
192,192,89108,1,0,0:0:0:0:
320,192,89185,1,0,0:0:0:0:
192,192,89262,1,0,0:0:0:0:
64,192,89262,1,0,0:0:0:0:
192,192,89416,1,0,0:0:0:0:
448,192,89416,1,2,0:0:0:0:
320,192,89492,1,0,0:0:0:0:
64,192,89492,1,0,0:0:0:0:
192,192,89569,1,0,0:0:0:0:
448,192,89569,1,0,0:0:0:0:
320,192,89723,1,2,0:0:0:0:
64,192,89723,1,0,0:0:0:0:
192,192,89800,1,0,0:0:0:0:
448,192,89800,1,0,0:0:0:0:
320,192,89877,1,0,0:0:0:0:
64,192,89877,1,0,0:0:0:0:
448,192,89954,1,0,0:0:0:0:
320,192,90031,1,2,0:0:0:0:
192,192,90108,1,0,0:0:0:0:
64,192,90185,1,0,0:0:0:0:
192,192,90262,1,0,0:0:0:0:
320,192,90339,1,2,0:0:0:0:
448,192,90339,1,0,0:0:0:0:
64,192,90492,1,0,0:0:0:0:
192,192,90492,1,2,0:0:0:0:
448,192,90531,1,2,0:0:0:0:
320,192,90569,1,2,0:0:0:0:
192,192,90608,1,2,0:0:0:0:
64,192,90646,1,2,0:0:0:0:
320,192,90723,1,2,0:0:0:0:
192,192,90800,1,2,0:0:0:0:
320,192,90877,1,2,0:0:0:0:
64,192,90954,1,0,0:0:0:0:
448,192,90954,1,2,0:0:0:0:
192,192,91031,1,0,0:0:0:0:
320,192,91108,1,2,0:0:0:0:
64,192,91108,1,2,0:0:0:0:
448,192,91185,1,2,0:0:0:0:
192,192,91185,1,2,0:0:0:0:
320,192,91262,1,2,0:0:0:0:
64,192,91262,1,4,0:0:0:0:
192,192,91262,1,0,0:0:0:0:
448,192,91339,1,0,0:0:0:0:
320,192,91416,1,0,0:0:0:0:
192,192,91416,1,0,0:0:0:0:
64,192,91569,1,0,0:0:0:0:
320,192,91569,1,2,0:0:0:0:
192,192,91723,1,0,0:0:0:0:
448,192,91723,1,0,0:0:0:0:
320,192,91877,1,2,0:0:0:0:
192,192,91877,1,0,0:0:0:0:
64,192,91954,1,0,0:0:0:0:
192,192,92031,1,0,0:0:0:0:
448,192,92031,1,0,0:0:0:0:
320,192,92185,1,2,0:0:0:0:
64,192,92185,1,0,0:0:0:0:
192,192,92262,1,0,0:0:0:0:
320,192,92339,1,0,0:0:0:0:
448,192,92339,1,0,0:0:0:0:
192,192,92416,1,0,0:0:0:0:
64,192,92492,1,0,0:0:0:0:
448,192,92492,1,2,0:0:0:0:
320,192,92569,1,0,0:0:0:0:
192,192,92569,1,0,0:0:0:0:
64,192,92646,1,0,0:0:0:0:
448,192,92646,1,0,0:0:0:0:
320,192,92723,1,0,0:0:0:0:
192,192,92800,1,2,0:0:0:0:
64,192,92800,1,0,0:0:0:0:
448,192,92800,1,0,0:0:0:0:
320,192,92877,1,0,0:0:0:0:
64,192,92954,1,0,0:0:0:0:
448,192,92954,1,0,0:0:0:0:
192,192,93031,1,0,0:0:0:0:
320,192,93108,1,2,0:0:0:0:
448,192,93108,1,0,0:0:0:0:
192,192,93185,1,0,0:0:0:0:
64,192,93185,1,0,0:0:0:0:
320,192,93262,1,0,0:0:0:0:
448,192,93262,1,0,0:0:0:0:
192,192,93416,1,0,0:0:0:0:
64,192,93416,1,0,0:0:0:0:
448,192,93416,1,2,0:0:0:0:
320,192,93492,1,0,0:0:0:0:
448,192,93569,1,0,0:0:0:0:
64,192,93569,1,0,0:0:0:0:
192,192,93646,1,0,0:0:0:0:
320,192,93723,1,2,0:0:0:0:
448,192,93723,1,0,0:0:0:0:
192,192,93800,1,0,0:0:0:0:
448,192,93877,1,0,0:0:0:0:
64,192,93877,1,0,0:0:0:0:
192,192,94031,1,2,0:0:0:0:
320,192,94031,1,0,0:0:0:0:
64,192,94108,1,0,0:0:0:0:
192,192,94185,1,0,0:0:0:0:
448,192,94185,1,0,0:0:0:0:
320,192,94339,1,0,0:0:0:0:
64,192,94339,1,2,0:0:0:0:
192,192,94416,1,0,0:0:0:0:
448,192,94416,1,0,0:0:0:0:
320,192,94492,1,0,0:0:0:0:
64,192,94492,1,0,0:0:0:0:
192,192,94646,1,2,0:0:0:0:
320,192,94646,1,0,0:0:0:0:
448,192,94723,1,0,0:0:0:0:
64,192,94723,1,0,0:0:0:0:
192,192,94800,1,0,0:0:0:0:
320,192,94800,1,0,0:0:0:0:
448,192,94877,1,0,0:0:0:0:
320,192,94954,1,2,0:0:0:0:
64,192,94954,1,0,0:0:0:0:
192,192,95031,1,0,0:0:0:0:
320,192,95108,1,2,0:0:0:0:
448,192,95108,1,0,0:0:0:0:
64,192,95108,1,0,0:0:0:0:
192,192,95185,1,0,0:0:0:0:
448,192,95262,1,2,0:0:0:0:
64,192,95262,1,0,0:0:0:0:
192,192,95416,1,0,0:0:0:0:
320,192,95416,1,2,0:0:0:0:
448,192,95416,1,0,0:0:0:0:
64,192,95569,1,0,0:0:0:0:
320,192,95569,1,2,0:0:0:0:
448,192,95569,1,0,0:0:0:0:
192,192,95646,1,0,0:0:0:0:
448,192,95723,1,0,0:0:0:0:
320,192,95723,1,2,0:0:0:0:
64,192,95723,1,0,0:0:0:0:
320,192,95877,1,2,0:0:0:0:
64,192,95877,1,0,0:0:0:0:
192,192,95954,1,0,0:0:0:0:
448,192,96031,1,2,0:0:0:0:
64,192,96031,1,0,0:0:0:0:
320,192,96108,1,0,0:0:0:0:
192,192,96185,1,2,0:0:0:0:
448,192,96185,1,4,0:0:0:0:
64,192,96185,1,0,0:0:0:0:
320,192,96262,1,0,0:0:0:0:
192,192,96339,1,0,0:0:0:0:
64,192,96339,1,0,0:0:0:0:
320,192,96492,1,2,0:0:0:0:
64,192,96492,1,0,0:0:0:0:
448,192,96492,1,4,0:0:0:0:
192,192,96646,1,0,0:0:0:0:
320,192,96646,1,0,0:0:0:0:
448,192,96800,1,4,0:0:0:0:
320,192,96800,1,2,0:0:0:0:
64,192,96800,1,0,0:0:0:0:
192,192,96877,1,0,0:0:0:0:
448,192,96954,1,0,0:0:0:0:
64,192,96954,1,0,0:0:0:0:
192,192,97108,1,2,0:0:0:0:
320,192,97108,1,4,0:0:0:0:
64,192,97108,1,0,0:0:0:0:
448,192,97185,1,0,0:0:0:0:
320,192,97262,1,0,0:0:0:0:
192,192,97262,1,0,0:0:0:0:
64,192,97339,1,0,0:0:0:0:
320,192,97416,1,4,0:0:0:0:
192,192,97416,1,2,0:0:0:0:
448,192,97416,1,0,0:0:0:0:
64,192,97492,1,0,0:0:0:0:
192,192,97569,1,0,0:0:0:0:
448,192,97569,1,0,0:0:0:0:
320,192,97646,1,0,0:0:0:0:
192,192,97723,1,2,0:0:0:0:
448,192,97723,1,0,0:0:0:0:
64,192,97723,1,4,0:0:0:0:
320,192,97877,1,0,0:0:0:0:
448,192,97877,1,0,0:0:0:0:
192,192,97954,1,0,0:0:0:0:
64,192,98031,1,0,0:0:0:0:
320,192,98031,1,2,0:0:0:0:
448,192,98031,1,4,0:0:0:0:
192,192,98108,1,0,0:0:0:0:
448,192,98185,1,0,0:0:0:0:
64,192,98185,1,0,0:0:0:0:
192,192,98339,1,4,0:0:0:0:
448,192,98339,1,2,0:0:0:0:
64,192,98339,1,0,0:0:0:0:
320,192,98416,1,0,0:0:0:0:
192,192,98492,1,0,0:0:0:0:
64,192,98492,1,0,0:0:0:0:
448,192,98569,1,0,0:0:0:0:
320,192,98646,1,2,0:0:0:0:
64,192,98646,1,0,0:0:0:0:
192,192,98646,1,4,0:0:0:0:
448,192,98800,1,0,0:0:0:0:
64,192,98800,1,0,0:0:0:0:
320,192,98954,1,4,0:0:0:0:
192,192,98954,1,2,0:0:0:0:
448,192,98954,1,0,0:0:0:0:
192,192,99108,1,0,0:0:0:0:
320,192,99108,1,0,0:0:0:0:
64,192,99262,1,4,0:0:0:0:
320,192,99262,1,2,0:0:0:0:
448,192,99262,1,0,0:0:0:0:
192,192,99339,1,0,0:0:0:0:
320,192,99416,1,0,0:0:0:0:
448,192,99416,1,0,0:0:0:0:
64,192,99569,1,0,0:0:0:0:
192,192,99569,1,2,0:0:0:0:
320,192,99569,1,4,0:0:0:0:
448,192,99646,1,0,0:0:0:0:
320,192,99723,1,0,0:0:0:0:
192,192,99723,1,0,0:0:0:0:
64,192,99800,1,0,0:0:0:0:
192,192,99877,1,0,0:0:0:0:
320,192,99877,1,2,0:0:0:0:
448,192,99877,1,4,0:0:0:0:
64,192,99954,1,0,0:0:0:0:
192,192,100031,1,0,0:0:0:0:
448,192,100031,1,0,0:0:0:0:
320,192,100108,1,0,0:0:0:0:
448,192,100185,1,0,0:0:0:0:
192,192,100185,1,2,0:0:0:0:
64,192,100185,1,4,0:0:0:0:
320,192,100339,1,0,0:0:0:0:
192,192,100339,1,0,0:0:0:0:
64,192,100492,1,0,0:0:0:0:
448,192,100492,1,2,0:0:0:0:
320,192,100492,1,4,0:0:0:0:
192,192,100569,1,0,0:0:0:0:
320,192,100646,1,0,0:0:0:0:
448,192,100646,1,0,0:0:0:0:
192,192,100800,1,4,0:0:0:0:
320,192,100800,1,2,0:0:0:0:
448,192,100800,1,0,0:0:0:0:
64,192,100877,1,0,0:0:0:0:
192,192,100954,1,0,0:0:0:0:
320,192,100954,1,0,0:0:0:0:
448,192,101031,1,0,0:0:0:0:
320,192,101108,1,2,0:0:0:0:
192,192,101108,1,0,0:0:0:0:
64,192,101108,1,4,0:0:0:0:
448,192,101185,1,0,0:0:0:0:
192,192,101262,1,0,0:0:0:0:
64,192,101262,1,0,0:0:0:0:
192,192,101416,1,0,0:0:0:0:
320,192,101416,1,2,0:0:0:0:
448,192,101416,1,4,0:0:0:0:
192,192,101569,1,0,0:0:0:0:
320,192,101569,1,0,0:0:0:0:
64,192,101723,1,2,0:0:0:0:
192,192,101723,1,0,0:0:0:0:
448,192,101723,1,4,0:0:0:0:
320,192,101800,1,0,0:0:0:0:
192,192,101877,1,0,0:0:0:0:
448,192,101877,1,0,0:0:0:0:
192,192,102031,1,4,0:0:0:0:
64,192,102031,1,0,0:0:0:0:
448,192,102031,1,2,0:0:0:0:
320,192,102108,1,0,0:0:0:0:
192,192,102185,1,0,0:0:0:0:
64,192,102185,1,0,0:0:0:0:
320,192,102262,1,0,0:0:0:0:
448,192,102339,1,4,0:0:0:0:
192,192,102339,1,2,0:0:0:0:
64,192,102339,1,0,0:0:0:0:
320,192,102416,1,0,0:0:0:0:
64,192,102492,1,0,0:0:0:0:
448,192,102492,1,0,0:0:0:0:
192,192,102569,1,0,0:0:0:0:
320,192,102646,1,4,0:0:0:0:
448,192,102646,1,0,0:0:0:0:
64,192,102646,1,2,0:0:0:0:
192,192,102800,1,0,0:0:0:0:
448,192,102800,1,0,0:0:0:0:
320,192,102877,1,0,0:0:0:0:
192,192,102954,1,4,0:0:0:0:
64,192,102954,1,2,0:0:0:0:
448,192,102954,1,0,0:0:0:0:
320,192,103031,1,0,0:0:0:0:
448,192,103108,1,0,0:0:0:0:
64,192,103108,1,0,0:0:0:0:
448,192,103262,1,4,0:0:0:0:
192,192,103262,1,0,0:0:0:0:
320,192,103262,1,2,0:0:0:0:
64,192,103339,1,0,0:0:0:0:
320,192,103416,1,0,0:0:0:0:
192,192,103416,1,0,0:0:0:0:
448,192,103492,1,0,0:0:0:0:
192,192,103569,1,2,0:0:0:0:
320,192,103569,1,4,0:0:0:0:
64,192,103569,1,0,0:0:0:0:
448,192,103723,1,0,0:0:0:0:
64,192,103723,1,0,0:0:0:0:
192,192,103877,1,4,0:0:0:0:
448,192,103877,1,0,0:0:0:0:
320,192,103877,1,2,0:0:0:0:
192,192,104031,1,0,0:0:0:0:
64,192,104031,1,0,0:0:0:0:
320,192,104185,1,2,0:0:0:0:
448,192,104185,1,4,0:0:0:0:
64,192,104185,1,0,0:0:0:0:
192,192,104262,1,0,0:0:0:0:
320,192,104339,1,0,0:0:0:0:
448,192,104339,1,0,0:0:0:0:
448,192,104492,1,4,0:0:0:0:
320,192,104492,1,2,0:0:0:0:
192,192,104492,1,0,0:0:0:0:
64,192,104569,1,0,0:0:0:0:
192,192,104646,1,0,0:0:0:0:
320,192,104646,1,0,0:0:0:0:
448,192,104723,1,0,0:0:0:0:
320,192,104800,1,2,0:0:0:0:
192,192,104800,1,4,0:0:0:0:
64,192,104800,1,0,0:0:0:0:
448,192,104877,1,0,0:0:0:0:
64,192,104954,1,0,0:0:0:0:
192,192,104954,1,2,0:0:0:0:
320,192,105031,1,0,0:0:0:0:
448,192,105108,1,0,0:0:0:0:
192,192,105108,1,2,0:0:0:0:
64,192,105108,1,0,0:0:0:0:
64,192,105262,1,0,0:0:0:0:
320,192,105262,1,2,0:0:0:0:
448,192,105262,1,0,0:0:0:0:
64,192,105416,1,0,0:0:0:0:
192,192,105416,1,2,0:0:0:0:
448,192,105416,1,0,0:0:0:0:
320,192,105492,1,0,0:0:0:0:
64,192,105569,1,0,0:0:0:0:
192,192,105569,1,2,0:0:0:0:
448,192,105569,1,0,0:0:0:0:
64,192,105723,1,0,0:0:0:0:
448,192,105723,1,0,0:0:0:0:
192,192,105800,1,0,0:0:0:0:
320,192,105877,1,0,0:0:0:0:
448,192,105954,1,0,0:0:0:0:
320,192,106031,1,2,0:0:0:0:
64,192,106031,1,4,0:0:0:0:
192,192,106031,128,0,116339:0:0:0:0:
448,192,116339,128,0,117108:0:0:0:0:
64,192,117108,5,2,0:0:0:0:
192,192,117108,1,0,0:0:0:0:
448,192,117185,1,0,0:0:0:0:
320,192,117185,1,2,0:0:0:0:
64,192,117262,1,2,0:0:0:0:
192,192,117262,1,0,0:0:0:0:
448,192,117339,1,0,0:0:0:0:
320,192,117339,1,2,0:0:0:0:
192,192,117416,1,0,0:0:0:0:
64,192,117416,1,2,0:0:0:0:
320,192,117492,1,2,0:0:0:0:
448,192,117492,1,0,0:0:0:0:
64,192,117569,1,2,0:0:0:0:
192,192,117569,1,0,0:0:0:0:
448,192,117646,1,0,0:0:0:0:
320,192,117646,1,2,0:0:0:0:
64,192,117723,1,2,0:0:0:0:
192,192,117723,1,0,0:0:0:0:
320,192,117800,1,0,0:0:0:0:
448,192,117800,1,2,0:0:0:0:
64,192,117877,1,2,0:0:0:0:
192,192,117877,1,0,0:0:0:0:
448,192,117954,1,2,0:0:0:0:
320,192,117954,1,0,0:0:0:0:
192,192,118031,1,0,0:0:0:0:
64,192,118031,1,2,0:0:0:0:
320,192,118108,1,0,0:0:0:0:
448,192,118108,1,2,0:0:0:0:
64,192,118185,1,2,0:0:0:0:
192,192,118185,1,0,0:0:0:0:
448,192,118262,1,2,0:0:0:0:
320,192,118262,1,0,0:0:0:0:
192,192,118339,1,0,0:0:0:0:
64,192,118339,1,2,0:0:0:0:
320,192,118416,1,0,0:0:0:0:
448,192,118492,128,0,118646:0:0:0:0:
64,192,118646,1,0,0:0:0:0:
