osu file format v5

[General]
AudioFilename: 25 SOLID STATE SQUAD.mp3
AudioLeadIn: 0
PreviewTime: -1
Countdown: 1
SampleSet: Normal
StackLeniency: 0.7
Mode: 0
LetterboxInBreaks: 1
EditorBookmarks: 14335,23625,29819,39109,53238,65432,77819,90206

[Metadata]
Title:SOLID STATE SQUAD
Artist:kors k Vs. L.E.D.
Creator:zyd
Version:Normal
Source:
Tags:

[Difficulty]
HPDrainRate:7
CircleSize:5
OverallDifficulty:6
SliderMultiplier:1.2
SliderTickRate:2

[Events]
//Background and Video events
//Break Periods
2,53245,64232
//Storyboard Layer 0 (Background)
//Storyboard Layer 1 (Failing)
//Storyboard Layer 2 (Passing)
//Storyboard Layer 3 (Foreground)
//Storyboard Sound Samples
//Background Colour Transformations
3,100,163,162,255

[TimingPoints]
404,387.096774193548,4,1,0,100,1

[HitObjects]
32,64,14339,1,0
32,160,14726,1,0
128,64,15113,1,0
128,160,15500,1,0
224,64,15887,1,0
224,160,16274,1,0
320,64,16662,1,0
320,160,17049,1,0
32,224,17436,5,0
32,352,17823,1,0
128,224,18210,1,0
128,352,18597,1,0
224,224,18984,1,0
224,352,19371,1,0
320,224,19758,1,0
320,352,20145,1,0
480,32,20533,5,0
480,160,20920,1,0
384,32,21307,1,0
384,160,21694,1,0
288,32,22081,1,0
288,160,22468,1,0
192,32,22855,1,0
192,160,23242,1,0
32,224,23629,6,0,B|160:224,1,120
32,320,24403,2,0,B|160:320,1,120
288,224,25178,2,0,B|416:224,1,120
288,320,25952,2,0,B|416:320,1,120
32,32,26726,6,0,B|32:160,1,120
128,32,27500,2,0,B|128:160,1,120
480,32,28274,2,0,B|480:160,1,120
384,32,29049,2,0,B|384:160,1,120
32,32,29823,6,0,B|128:128,3,120
32,352,31371,2,0,B|128:256,3,120
480,352,32920,2,0,B|384:256,3,120
480,32,34468,2,0,B|352:128,3,120
224,160,36016,6,0,B|224:96,1,60
192,96,36403,1,0
288,160,36791,2,0,B|288:96,1,60
320,96,37178,1,0
256,32,37565,2,0,B|256:416,1,360
128,160,39113,6,0,B|224:96|288:96|224:256,1,240
384,160,40662,2,0,B|288:96|224:96|288:256,1,240
64,192,42210,2,0,B|96:192|128:160|96:128|160:128,1,120
448,192,42984,2,0,B|416:192|384:160|416:128|352:128,1,120
224,32,43758,2,0,B|224:96|288:96|288:160,1,120
224,128,44533,2,0,B|224:64|288:64|288:32,1,120
128,160,45307,5,0
128,160,45500,1,0
128,160,45694,1,0
224,160,46081,1,0
224,160,46274,1,0
224,160,46468,1,0
288,160,46855,1,0
288,160,47049,1,0
288,160,47242,1,0
384,160,47629,1,0
384,160,47823,1,0
384,160,48016,1,0
224,224,48403,1,0
224,256,48597,1,0
224,288,48791,1,0
288,224,49178,1,0
288,256,49371,1,0
288,288,49565,1,0
256,192,49952,12,0,51500
256,192,53049,5,0
32,96,65436,6,0,B|32:192|32:384|480:384|480:192|480:32|96:32|384:384,1,840
480,32,68533,2,0,B|480:384|32:384|32:32|416:32|384:352,1,840
64,352,71629,2,0,B|480:320|64:288|480:256|256:224|64:192|480:160|448:128|384:64|160:32|32:160|0:320,1,840
0,192,74726,2,0,B|512:192,2,480
320,192,80726,1,0
192,192,81113,1,0
256,192,84403,1,0
320,224,86920,1,0
192,224,87307,1,0
256,192,88662,2,0,B|256:128|192:128|192:256|352:256|352:32|256:32|128:32,1,360
224,288,90210,5,0
288,288,90403,1,0
288,224,90597,1,0
224,224,90984,1,0
224,160,91178,1,0
288,160,91371,1,0
288,96,91758,1,0
224,96,91952,1,0
160,96,92145,1,0
352,96,92533,1,0
224,32,92726,1,0
288,32,92920,1,0
32,160,93307,5,0
32,224,93500,1,0
96,224,93694,1,0
96,160,94081,1,0
160,160,94274,1,0
160,224,94468,1,0
224,160,94855,1,0
224,224,95049,1,0
288,224,95242,1,0
288,160,95629,1,0
352,160,95823,1,0
352,224,96016,1,0
224,352,96403,6,0,B|224:288,1,60
288,288,96791,2,0,B|288:224,1,60
224,224,97178,2,0,B|224:160,1,60
288,160,97565,2,0,B|288:96,1,60
224,32,97952,2,0,B|224:96,1,60
288,96,98339,2,0,B|352:96,1,60
352,160,98726,2,0,B|352:224,1,60
288,224,99113,2,0,B|224:224,1,60
160,224,99500,2,0,B|160:288,1,60
96,288,99887,2,0,B|96:224,1,60
96,160,100274,2,0,B|160:160,1,60
160,96,100662,2,0,B|96:96,1,60
256,192,101049,12,0,102597
320,32,104145,6,0,B|256:96|192:32,1,120
192,32,104920,2,0,B|128:64|224:160,1,120
192,128,105694,2,0,B|256:192|352:160,1,120
288,160,106468,2,0,B|256:224|192:256,1,120
192,256,107242,2,0,B|256:288|320:288,1,120
320,288,108016,2,0,B|384:320|416:224,1,120
416,224,108791,2,0,B|480:192|480:128,1,120
480,128,109565,2,0,B|448:96|480:64|384:64,1,120
384,64,110339,6,0,B|256:64,1,120
256,64,111113,2,0,B|256:192,1,120
256,192,111887,2,0,B|384:192,1,120
384,192,112662,2,0,B|384:64,1,120
384,64,113436,2,0,B|256:192,1,120
288,160,114210,2,0,B|160:160,1,120
160,160,114984,2,0,B|256:256,1,120
256,256,115758,2,0,B|256:384,1,120
256,32,116533,6,0,B|224:64|128:96,1,120
128,128,117113,2,0,B|256:96|0:224|288:224|352:128|416:224|192:320,1,420
128,256,118855,2,0,B,1,0
192,288,119049,1,0
224,256,119242,1,0
288,256,119629,2,0,B|288:192,1,60
352,192,120016,1,0
416,192,120210,1,0
384,128,120403,1,0
320,128,120662,1,0
256,128,120984,2,0,B|128:0|0:128|128:288|256:320,1,420
256,320,122533,1,0
320,320,122726,5,0
320,320,122920,1,0
320,320,123113,1,0
256,256,123500,1,0
256,224,123694,1,0
256,192,123887,1,0
256,128,124274,1,0
256,96,124468,1,0
256,64,124662,1,0
192,128,125049,1,0
192,160,125242,1,0
192,192,125436,1,0
256,192,125823,6,0,B|320:256,3,60
352,192,126597,2,0,B|288:128,3,60
256,192,127371,12,0,128920
