osu file format v13

[General]
AudioFilename: 12 smooooch2014.mp3
AudioLeadIn: 0
PreviewTime: 45898
Countdown: 0
SampleSet: None
StackLeniency: 0.7
Mode: 0
LetterboxInBreaks: 0
WidescreenStoryboard: 1

[Editor]
DistanceSpacing: 0.9
BeatDivisor: 4
GridSize: 4
TimelineZoom: 1

[Metadata]
Title:smooooch 2014
TitleUnicode:smooooch・∀・2014
Artist:kors k
ArtistUnicode:kors k
Creator:Goonychan
Version:Insane
Source:
Tags:Let's Do It Now!!
BeatmapID:497097
BeatmapSetID:211357

[Difficulty]
HPDrainRate:7
CircleSize:4
OverallDifficulty:7
ApproachRate:8.8
SliderMultiplier:1.4
SliderTickRate:1

[Events]
//Background and Video events
0,0,"bgooooooooooooooch.jpg",0,0
//Break Periods
2,100784,110926
//Storyboard Layer 0 (Background)
//Storyboard Layer 1 (Fail)
//Storyboard Layer 2 (Pass)
//Storyboard Layer 3 (Foreground)
//Storyboard Sound Samples
//Background Colour Transformations
3,100,163,162,255

[TimingPoints]
470,342.857142857143,4,3,1,65,1,0
12727,-100,4,3,1,100,0,0
22412,-100,4,3,1,5,0,0
23441,-66.6666666666667,4,3,1,80,0,0
44355,-66.6666666666667,4,3,1,20,0,0
45555,-66.6666666666667,4,3,1,80,0,1
56698,-66.6666666666667,4,3,1,80,0,0
72641,-50,4,3,1,80,0,0
72812,-66.6666666666667,4,3,1,80,0,0
78298,-50,4,3,1,80,0,0
78470,-66.6666666666667,4,3,1,80,0,0
111555,-100,4,1,1,10,0,0
117041,-100,4,1,1,20,0,0
122527,-100,4,1,1,50,0,0
133498,-100,4,1,2,50,0,0
144298,-66.6666666666667,4,1,2,50,0,0
144470,-66.6666666666667,4,3,1,75,0,0
163327,-50,4,1,2,50,0,0
165041,-66.6666666666667,4,1,2,5,0,0
165041,-66.6666666666667,4,1,2,50,0,0
166412,-66.6666666666667,4,1,2,75,0,0
188355,-66.6666666666667,4,1,2,75,0,1
197955,-66.6666666666667,4,1,2,75,0,0
199327,-66.6666666666667,4,1,2,75,0,1
209098,-66.6666666666667,4,3,1,30,0,1
210298,-66.6666666666667,4,3,1,30,0,0

[HitObjects]
200,52,470,5,8,0:0:0:0:
376,124,812,1,8,0:0:0:0:
280,292,1155,1,8,0:0:0:0:
112,200,1498,5,8,0:0:0:0:
164,140,1670,1,2,0:0:0:0:
144,120,1755,1,0,0:0:0:0:
136,92,1841,2,0,P|156:48|228:-8,1,140,0|8,1:0|0:0,0:0:0:0:
248,12,2355,5,2,0:0:0:0:
264,136,2527,1,0,0:0:0:0:
292,224,2698,1,0,0:0:0:0:
272,240,2784,1,0,0:0:0:0:
264,264,2870,1,8,0:0:0:0:
172,212,3041,2,0,B|128:188|128:188|96:196,1,70,0|0,0:0|0:0,0:0:0:0:
184,128,3384,5,2,0:0:0:0:
176,296,3555,2,0,P|216:320|256:320,1,70,8|0,1:3|0:0,0:0:0:0:
320,188,3898,2,0,B|384:148|384:148|416:148,1,105,2|0,0:0|0:0,0:0:0:0:
436,160,4241,1,8,0:0:0:0:
436,160,4327,1,0,0:0:0:0:
436,160,4412,1,0,0:0:0:0:
384,240,4584,2,0,B|352:264|316:272|316:272|272:264,1,105,0|0,0:0|0:0,0:0:0:0:
260,244,4927,1,8,0:3:0:0:
196,132,5098,6,0,P|180:160|176:216,1,70
292,160,5441,1,0,0:0:0:0:
292,160,5527,1,0,0:0:0:0:
292,160,5612,2,0,P|312:112|300:72,1,70,8|0,3:3|0:0,0:0:0:0:
208,40,5955,2,0,B|140:68|140:68|120:100,1,105
132,112,6298,5,8,0:0:0:0:
192,216,6470,2,0,P|212:168|212:128,1,70
104,176,6812,1,0,0:0:0:0:
104,176,6898,1,0,0:0:0:0:
104,176,6984,2,0,P|84:224|96:268,1,70,8|0,0:0|0:0,0:0:0:0:
276,224,7327,6,0,B|288:180|288:180|376:116,2,140,0|8|0,0:0|3:0|0:0,0:0:0:0:
352,256,8184,1,0,0:0:0:0:
368,264,8270,1,0,0:0:0:0:
388,272,8355,1,8,0:0:0:0:
448,224,8527,1,2,0:0:0:0:
348,160,8698,2,0,P|320:136|236:128,1,105
254,123,9041,5,8,0:0:0:0:
324,88,9212,1,0,0:0:0:0:
276,212,9384,2,0,P|288:264|312:288,1,70,0|0,0:0|0:0,0:0:0:0:
316,284,9641,1,0,1:0:0:0:
176,212,9898,2,0,L|104:208,1,70
156,104,10241,1,0,0:0:0:0:
156,104,10412,1,8,0:0:0:0:
240,144,10584,1,0,0:0:0:0:
112,292,10755,2,0,B|144:304|144:304|232:284,1,105
236,268,11098,5,10,0:0:0:0:
132,196,11270,2,0,P|88:192|56:208,1,70
64,201,11612,1,2,0:0:0:0:
112,292,11784,1,10,0:0:0:0:
236,268,12041,1,0,0:0:0:0:
244,272,12127,2,0,L|328:260,1,70
313,262,12470,1,8,0:0:0:0:
236,80,12641,2,0,L|200:160,1,70,0|0,0:0|1:0,0:0:0:0:
116,200,13155,5,2,0:0:0:0:
200,280,13498,1,0,0:0:0:0:
152,128,13841,1,2,0:0:0:0:
104,304,14184,1,0,0:0:0:0:
48,120,14527,1,2,0:0:0:0:
244,216,14870,1,0,0:0:0:0:
32,328,15212,5,2,0:0:0:0:
100,80,15555,1,0,0:0:0:0:
228,332,15898,1,2,0:0:0:0:
348,72,16241,1,0,0:0:0:0:
136,344,16584,1,2,0:0:0:0:
168,68,16927,1,0,0:0:0:0:
252,328,17270,5,2,0:0:0:0:
76,204,17612,1,0,0:0:0:0:
316,212,17955,2,0,L|384:152,1,70
256,128,18298,2,0,P|208:172|208:264,2,140,0|2|0,0:0|0:0|0:0,0:0:0:0:
404,168,19327,1,2,0:0:0:0:
348,288,19670,1,0,0:0:0:0:
352,96,20012,1,2,0:0:0:0:
456,264,20355,1,0,0:0:0:0:
328,172,20698,5,2,0:0:0:0:
456,56,21041,1,0,0:0:0:0:
312,268,21384,1,2,0:0:0:0:
284,100,21727,1,0,0:0:0:0:
360,308,22070,1,2,0:0:0:0:
448,172,22241,1,2,0:0:0:0:
284,100,22412,2,8,L|256:96,16,23.3333333333333,0|0|0|0|0|0|0|0|0|0|0|0|0|0|0|0|0,0:0|0:0|0:0|0:0|0:0|0:0|0:0|0:0|0:0|0:0|0:0|0:0|0:0|0:0|0:0|0:0|0:0,0:0:0:0:
236,112,23441,6,0,B|224:148|224:148|136:184,1,105.000004005432,0|2,0:0|0:0,0:0:0:0:
280,240,23784,2,0,L|392:180,1,105.000004005432,0|2,0:0|0:0,0:0:0:0:
248,152,24127,2,0,L|144:208,1,105.000004005432,0|2,0:0|0:0,0:0:0:0:
348,284,24470,2,0,P|420:244|456:244,1,105.000004005432,0|2,0:0|0:0,0:0:0:0:
212,304,24812,2,0,P|160:268|144:208,1,105.000004005432,0|2,0:0|0:0,0:0:0:0:
252,216,25155,6,0,P|304:248|320:304,1,105.000004005432,0|2,0:0|0:0,0:0:0:0:
360,176,25498,2,0,B|392:112|392:112|444:88,1,105.000004005432,0|2,0:0|0:0,0:0:0:0:
288,128,25841,2,0,L|184:136,1,105.000004005432,0|2,0:0|0:0,0:0:0:0:
324,260,26184,2,0,B|352:280|352:280|440:296,1,105.000004005432,0|2,0:0|0:0,0:0:0:0:
404,192,26527,6,0,P|356:160|284:180,1,105.000004005432,0|2,0:0|0:0,0:0:0:0:
464,268,26870,2,0,P|492:216|488:136,1,105.000004005432,0|2,0:0|0:0,0:0:0:0:
380,88,27212,2,0,B|328:132|328:132|264:148,1,105.000004005432,0|2,0:0|0:0,0:0:0:0:
344,208,27555,2,0,P|380:280|416:292,1,105.000004005432,0|2,0:0|0:0,0:0:0:0:
432,204,27898,5,0,0:0:0:0:
264,232,28070,1,2,0:0:0:0:
264,136,28241,2,0,B|200:152|200:152|140:148,1,105.000004005432,0|2,0:0|0:0,0:0:0:0:
100,92,28584,1,0,0:0:0:0:
40,24,28755,1,2,0:0:0:0:
136,188,28927,1,0,0:0:0:0:
132,216,29012,1,0,0:0:0:0:
136,240,29098,2,0,P|176:288|224:296,2,105.000004005432,0|0|0,0:0|0:0|0:0,0:0:0:0:
216,212,29612,5,0,0:0:0:0:
308,204,29784,2,0,P|368:168|424:184,1,105.000004005432
444,236,30127,1,0,0:0:0:0:
328,280,30298,2,0,B|280:300|280:300|208:284,1,105.000004005432
136,132,30641,2,0,L|264:164,1,105.000004005432
156,232,30984,2,0,L|40:196,1,105.000004005432
212,144,31327,2,0,B|256:172|256:172|316:164,1,105.000004005432
216,244,31670,6,0,P|220:304|216:352,1,105.000004005432
96,256,32012,1,0,0:0:0:0:
140,148,32184,1,0,0:0:0:0:
300,252,32355,2,0,B|320:232|320:232|404:208,1,105.000004005432
272,336,32698,2,0,B|196:316|196:316|160:328,1,105.000004005432
170,324,33041,1,0,0:0:0:0:
300,252,33212,1,0,0:0:0:0:
208,240,33384,6,0,P|152:216|124:80,2,210.000008010865,2|0|2,0:0|0:0|0:0,0:0:0:0:
208,240,34241,1,2,0:0:0:0:
208,136,34412,2,0,B|256:160|256:160|312:160,1,105.000004005432
272,76,34755,2,0,P|224:52|168:64,1,105.000004005432,2|0,0:0|0:0,0:0:0:0:
288,176,35098,6,0,L|376:244,1,105.000004005432
144,152,35441,2,0,B|88:160|88:160|48:196,1,105.000004005432
208,256,35784,2,0,L|284:176,1,105.000004005432
212,104,36127,2,0,B|168:72|168:72|100:72,1,105.000004005432
316,272,36470,1,0,0:0:0:0:
376,188,36641,1,0,0:0:0:0:
328,32,36812,5,8,0:0:0:0:
308,52,36898,1,8,0:0:0:0:
288,72,36984,1,8,0:0:0:0:
268,92,37070,1,8,0:0:0:0:
248,112,37155,1,0,1:0:0:0:
228,132,37241,1,0,0:0:0:0:
208,152,37327,1,8,0:0:0:0:
168,224,37498,6,0,P|136:264|84:272,1,105.000004005432,8|2,0:0|0:0,0:0:0:0:
160,300,37841,2,8,B|240:324|240:324|272:312,1,105.000004005432,8|10,0:0|0:0,0:0:0:0:
260,316,38184,1,0,0:0:0:0:
280,236,38355,1,8,0:0:0:0:
256,228,38441,1,8,0:0:0:0:
236,220,38527,1,8,0:0:0:0:
316,168,38698,1,0,0:0:0:0:
208,240,38870,6,0,B|160:216|92:208|92:208|28:136,1,210.000008010865,8|0,0:0|0:0,0:0:0:0:
88,92,39384,1,0,0:0:0:0:
108,108,39470,1,0,0:0:0:0:
136,116,39555,1,0,0:0:0:0:
164,124,39641,1,0,0:0:0:0:
188,124,39727,1,0,0:0:0:0:
216,120,39812,1,0,0:0:0:0:
240,112,39898,1,0,0:0:0:0:
248,136,39984,1,0,0:0:0:0:
256,164,40070,1,0,0:0:0:0:
248,192,40155,1,0,0:0:0:0:
236,216,40241,2,0,P|276:272|376:296,1,157.500006008148
357,298,40584,6,0,B|420:316|420:316|432:364,1,105.000004005432,8|0,0:0|0:0,0:0:0:0:
408,232,40927,1,8,0:0:0:0:
324,184,41098,1,0,0:0:0:0:
336,164,41184,1,0,0:0:0:0:
352,140,41270,1,0,0:0:0:0:
300,84,41441,5,2,0:0:0:0:
280,240,41612,2,0,L|220:340,1,105.000004005432,8|0,0:0|0:0,0:0:0:0:
225,330,41955,1,0,0:0:0:0:
176,244,42127,2,0,P|184:180|144:144,1,105.000004005432,8|0,0:0|0:0,0:0:0:0:
88,136,42470,1,0,0:0:0:0:
236,176,42641,1,8,0:0:0:0:
220,104,42812,1,0,0:0:0:0:
104,208,42984,6,0,L|72:248,21,35.0000013351441,0|0|0|0|0|0|0|0|0|0|0|0|0|0|0|0|0|0|0|0|0|0,0:0|0:0|0:0|0:0|0:0|0:0|0:0|0:0|0:0|0:0|0:0|0:0|0:0|0:0|0:0|0:0|0:0|0:0|0:0|0:0|0:0|0:0,0:0:0:0:
168,176,44355,6,0,L|124:216,10,35.0000013351441,0|0|0|0|0|0|0|0|0|0|0,0:0|0:0|0:0|0:0|0:0|0:0|0:0|0:0|0:0|0:0|0:0,0:0:0:0:
172,80,45041,6,0,L|216:48,9,35.0000013351441,0|0|0|0|0|0|0|0|0|0,0:0|0:0|0:0|0:0|0:0|0:0|0:0|0:0|0:0|0:0,0:0:0:0:
216,76,45612,1,2,0:0:0:0:
228,96,45670,1,0,0:0:0:0:
228,120,45727,2,0,P|240:172|404:192,1,210.000008010865
428,132,46241,1,0,0:0:0:0:
448,244,46412,6,0,B|420:304|420:304|344:296|264:344,1,210.000008010865,0|0,0:0|0:0,0:0:0:0:
208,240,46927,2,0,P|136:208|56:228,1,157.500006008148
52,240,47270,2,0,L|72:132,2,105.000004005432,0|0|0,0:0|0:0|0:0,0:0:0:0:
120,296,47784,1,0,0:0:0:0:
216,288,47955,1,0,0:0:0:0:
216,264,48041,1,0,0:0:0:0:
228,244,48127,2,0,B|256:208|288:204|288:204|320:216,1,105.000004005432
292,304,48470,1,0,0:0:0:0:
400,256,48641,1,0,0:0:0:0:
400,136,48812,6,0,P|320:100|192:144,1,210.000008010865
152,204,49327,2,0,B|80:224|80:224|48:216,1,105.000004005432
204,268,49670,2,0,P|260:268|320:304,1,105.000004005432
240,188,50012,1,0,0:0:0:0:
256,152,50098,1,2,0:0:0:0:
268,120,50184,1,2,0:0:0:0:
364,112,50355,1,2,0:0:0:0:
360,204,50527,2,0,B|404:204|428:196|428:196|444:160,1,105.000004005432,2|0,0:0|0:0,0:0:0:0:
296,272,50870,1,0,0:0:0:0:
216,340,51041,5,2,0:0:0:0:
196,332,51127,1,0,0:0:0:0:
180,324,51212,2,0,L|76:292,1,105.000004005432
172,224,51555,2,0,P|216:208|276:224,1,105.000004005432,8|0,0:0|0:0,0:0:0:0:
296,324,51898,2,0,P|376:292|404:168,1,210.000008010865
400,160,52327,6,2,L|424:120,3,35.0000013351441,0|0|0|0,0:0|0:0|0:0|0:0,0:0:0:0:
352,144,52584,2,0,P|300:144|260:188,1,105.000004005432,8|0,0:0|0:0,0:0:0:0:
224,256,52927,1,8,0:0:0:0:
328,228,53098,1,0,0:0:0:0:
204,100,53270,2,0,B|128:80|128:80|104:56,1,105.000004005432,8|0,0:0|0:0,0:0:0:0:
109,61,53612,1,0,0:0:0:0:
72,132,53784,5,2,0:0:0:0:
72,156,53870,1,2,0:0:0:0:
80,176,53955,2,0,P|128:204|192:192,2,105.000004005432,0|0|0,0:0|0:0|0:0,0:0:0:0:
236,136,54470,1,0,0:0:0:0:
392,172,54641,2,0,P|344:200|280:188,2,105.000004005432,0|0|0,0:0|0:0|0:0,0:0:0:0:
404,88,55155,1,0,0:0:0:0:
332,120,55327,2,0,P|276:116|208:184,1,157.500006008148,8|0,0:0|0:0,0:0:0:0:
228,200,55670,5,8,0:0:0:0:
280,264,55841,1,2,0:0:0:0:
168,272,56012,2,0,B|104:244|104:244|64:244,1,105.000004005432,8|0,0:0|0:0,0:0:0:0:
128,160,56355,1,0,0:0:0:0:
144,136,56441,1,0,0:0:0:0:
172,124,56527,1,0,0:0:0:0:
204,128,56612,1,0,0:0:0:0:
236,180,56698,6,0,P|308:204|352:184,1,105.000004005432
424,236,57041,2,0,L|444:348,1,105.000004005432
296,228,57384,2,0,P|248:248|208:300,1,105.000004005432
356,304,57727,2,0,P|400:264|424:224,1,105.000004005432,0|2,0:0|0:0,0:0:0:0:
260,104,58070,2,0,P|292:144|352:152,1,105.000004005432,0|0,0:0|0:0,0:0:0:0:
216,200,58412,2,0,P|192:272|144:312,1,105.000004005432,0|2,0:0|0:0,0:0:0:0:
308,248,58755,2,0,B|364:204|364:204|424:200,1,105.000004005432
248,308,59098,6,0,L|140:232,1,105.000004005432,0|0,0:0|0:0,0:0:0:0:
308,248,59441,1,8,0:0:0:0:
156,324,59612,1,0,0:0:0:0:
200,204,59784,2,0,P|224:144|252:104,1,105.000004005432
404,220,60127,2,0,P|348:220|296:188,1,105.000004005432
305,197,60470,1,0,0:0:0:0:
308,280,60641,6,0,P|204:292|132:212,1,210.000008010865,0|0,0:0|0:0,0:0:0:0:
135,222,61155,1,2,0:0:0:0:
144,112,61327,1,0,0:0:0:0:
244,144,61498,2,0,P|244:204|188:356,1,210.000008010865,2|0,0:0|0:0,0:0:0:0:
195,344,62012,1,0,0:0:0:0:
272,280,62184,6,0,P|320:232|368:216,1,105.000004005432
353,218,62527,1,0,0:0:0:0:
220,208,62698,2,0,P|164:240|80:200,1,157.500006008148
108,272,63041,2,0,P|80:332|36:352,1,105.000004005432
24,256,63384,2,0,P|72:184|196:192,1,210.000008010865
186,185,63898,1,0,0:0:0:0:
232,280,64070,2,0,B|288:228|288:228|292:180,1,105.000004005432
168,200,64412,6,0,B|112:256|112:256|108:296,1,105.000004005432
140,288,64755,1,0,0:0:0:0:
376,212,64927,2,0,P|348:124|432:44,2,210.000008010865,0|0|0,0:0|0:0|0:0,0:0:0:0:
336,288,65784,1,0,0:0:0:0:
312,316,65870,1,0,0:0:0:0:
288,344,65955,1,0,0:0:0:0:
264,232,66127,1,0,0:0:0:0:
332,168,66298,2,0,P|356:120|408:100,1,105.000004005432
236,148,66641,5,0,0:0:0:0:
200,144,66727,1,0,0:0:0:0:
168,136,66812,1,0,0:0:0:0:
140,124,66898,1,0,0:0:0:0:
116,104,66984,1,0,0:0:0:0:
100,192,67155,2,0,B|116:268|116:268|108:300,1,105.000004005432
336,232,67670,6,0,B|364:188|364:188|424:176,1,105.000004005432
416,264,68012,2,0,P|380:308|328:312,1,105.000004005432
334,313,68355,1,0,0:0:0:0:
376,140,68527,2,0,P|416:72|448:44,2,105.000004005432,0|0|0,0:0|0:0|0:0,0:0:0:0:
292,200,69041,5,0,0:0:0:0:
112,312,69298,1,0,0:0:0:0:
132,120,69555,1,0,0:0:0:0:
188,196,69727,1,0,0:0:0:0:
296,264,69898,2,0,B|328:248|328:248|360:180,1,105.000004005432
357,185,70241,1,0,0:0:0:0:
248,216,70412,6,0,P|212:252|212:320,1,105.000004005432
206,303,70755,1,0,0:0:0:0:
304,88,70927,2,0,P|372:120|416:116,1,105.000004005432
400,119,71270,2,0,L|416:248,1,105.000004005432
320,264,71612,1,0,0:0:0:0:
340,292,71698,1,0,0:0:0:0:
380,296,71784,1,0,0:0:0:0:
208,188,71955,5,0,0:0:0:0:
120,224,72127,1,0,0:0:0:0:
240,88,72298,2,0,L|340:48,1,105.000004005432
220,284,72641,2,0,P|284:260|316:184,1,140
88,56,73155,6,0,P|76:124|52:176,1,105.000004005432,0|0,0:0|0:0,0:0:0:0:
172,148,73498,2,0,P|188:92|216:44,1,105.000004005432
144,240,73841,2,0,P|208:276|252:256,1,105.000004005432
234,268,74184,1,0,0:0:0:0:
228,144,74355,1,0,0:0:0:0:
368,100,74527,5,0,0:0:0:0:
372,220,74698,1,0,0:0:0:0:
396,236,74784,1,0,0:0:0:0:
320,292,74955,1,0,0:0:0:0:
296,308,75041,1,0,0:0:0:0:
184,180,75212,2,0,P|192:124|212:52,1,105.000004005432
271,233,75555,1,0,0:0:0:0:
88,160,75898,6,0,L|196:156,1,105.000004005432
192,156,76241,1,0,0:0:0:0:
260,284,76412,1,0,0:0:0:0:
420,216,76584,2,0,P|436:156|400:64,1,157.500006008148
336,100,76927,6,0,P|272:132|224:128,1,105.000004005432
172,84,77270,2,0,L|216:40,1,52.5000020027161
108,156,77441,2,0,L|60:204,1,52.5000020027161
240,172,77612,2,8,L|288:124,1,52.5000020027161
164,248,77784,2,0,L|116:296,1,52.5000020027161
272,264,77955,2,8,L|328:288,1,52.5000020027161
320,284,78127,1,8,0:0:0:0:
392,176,78298,2,0,B|336:140|336:104|336:104|360:64,1,140
359,65,78641,5,8,0:0:0:0:
440,116,78812,1,2,0:0:0:0:
312,160,78984,2,0,P|296:216|252:256,1,105,2|0,0:0|0:0,0:0:0:0:
264,248,79327,1,0,0:0:0:0:
204,124,79498,2,0,P|212:80|288:28,1,105.000004005432
252,37,79841,1,0,0:0:0:0:
156,224,80012,5,2,0:0:0:0:
352,272,80270,1,2,0:0:0:0:
288,140,80527,1,2,0:0:0:0:
260,316,80698,2,0,P|204:332|144:332,1,105.000004005432
116,104,81041,2,0,P|148:156|288:180,1,210.000008010865
285,181,81555,5,0,0:0:0:0:
192,208,81727,2,0,P|148:248|120:304,1,105.000004005432,8|0,0:0|0:0,0:0:0:0:
125,287,82070,1,0,0:0:0:0:
260,288,82241,1,0,0:0:0:0:
128,196,82412,2,0,P|104:132|52:100,1,105.000004005432,8|0,0:0|0:0,0:0:0:0:
52,108,82669,1,0,0:0:0:0:
32,120,82755,1,0,0:0:0:0:
164,96,82927,1,0,0:0:0:0:
152,176,83098,6,0,P|180:224|180:284,1,105.000004005432,8|0,0:0|0:0,0:0:0:0:
182,272,83441,1,2,0:0:0:0:
264,176,83612,2,0,P|316:164|376:184,1,105.000004005432
364,177,83955,1,0,0:0:0:0:
144,268,84127,6,0,B|100:240|100:240|80:184,1,105.000004005432
168,188,84470,2,0,P|216:216|232:276,1,105.000004005432
232,260,84812,1,0,0:0:0:0:
280,132,84984,2,0,B|288:96|288:96|352:40,1,105.000004005432
360,136,85327,1,0,0:0:0:0:
312,208,85498,6,0,P|336:256|424:304,1,157.500006008148
440,300,85841,1,0,0:0:0:0:
432,204,86012,1,0,0:0:0:0:
420,176,86098,1,0,0:0:0:0:
408,152,86184,1,2,0:0:0:0:
264,144,86355,2,0,P|228:184|224:240,1,105.000004005432
222,233,86698,1,0,0:0:0:0:
192,148,86870,6,0,B|144:88|144:88|104:72,1,105.000004005432
100,152,87212,2,0,L|172:240,1,105.000004005432
166,233,87555,2,0,P|224:204|360:236,1,210.000008010865,0|8,0:0|0:0,0:0:0:0:
308,292,88070,1,2,0:0:0:0:
320,120,88241,1,2,0:0:0:0:
104,280,88412,1,2,0:0:0:0:
100,88,88584,1,2,0:0:0:0:
244,332,88755,1,2,0:0:0:0:
236,72,88927,5,2,0:0:0:0:
88,328,89098,1,2,0:0:0:0:
380,192,89270,5,10,0:0:0:0:
288,184,89441,1,2,0:0:0:0:
272,200,89527,1,0,0:0:0:0:
256,216,89612,1,0,1:0:0:0:
340,120,89784,6,0,B|380:84|380:84|436:64,1,105.000004005432,0|0,0:0|0:0,0:0:0:0:
404,160,90127,1,0,0:0:0:0:
268,148,90298,2,0,P|192:168|148:148,1,105.000004005432
324,240,90641,1,0,0:0:0:0:
208,204,90812,2,0,P|188:264|196:328,1,105.000004005432,0|2,0:0|0:0,0:0:0:0:
340,120,91241,5,2,0:0:0:0:
96,316,91498,1,2,0:0:0:0:
96,200,91670,1,8,0:0:0:0:
104,176,91755,1,8,0:0:0:0:
112,152,91841,1,8,0:0:0:0:
120,136,91884,2,8,L|132:104,3,26.2500010013581,0|0|0|0,0:0|0:0|0:0|0:0,0:0:0:0:
220,128,92184,6,0,L|184:240,1,105.000004005432,0|8,0:0|0:0,0:0:0:0:
187,227,92527,1,0,0:1:0:0:
372,200,92698,1,2,0:1:0:0:
444,232,92870,1,2,0:1:0:0:
344,80,93041,1,2,0:1:0:0:
272,48,93212,1,2,0:1:0:0:
384,224,93384,2,0,P|376:296|356:344,1,105.000004005432,2|0,0:0|0:0,0:0:0:0:
288,260,93727,5,8,0:0:0:0:
288,260,93812,1,0,0:0:0:0:
380,140,94070,1,8,0:0:0:0:
240,204,94241,1,8,0:0:0:0:
188,148,94412,2,0,B|128:92|128:92|96:88,1,105.000004005432,10|0,0:0|0:0,0:0:0:0:
76,88,94670,5,0,0:0:0:0:
44,88,94755,1,0,0:0:0:0:
68,164,94841,2,0,L|48:204,3,35.0000013351441,0|0|0|0,0:0|0:0|0:0|0:0,0:0:0:0:
104,164,95098,1,0,0:0:0:0:
152,256,95270,2,0,L|92:352,1,105.000004005432,2|0,0:0|0:0,0:0:0:0:
272,284,95612,2,0,P|316:236|368:220,1,105.000004005432,2|0,0:0|0:0,0:0:0:0:
240,160,95955,2,0,B|216:112|216:112|152:92,1,105.000004005432,2|0,0:0|0:0,0:0:0:0:
160,176,96298,2,0,P|196:232|256:236,1,105.000004005432,2|8,0:0|0:0,0:0:0:0:
344,192,96641,5,8,0:0:0:0:
368,176,96727,1,0,0:0:0:0:
276,104,96898,1,8,0:0:0:0:
252,84,96984,1,0,0:0:0:0:
232,196,97155,1,8,0:0:0:0:
352,188,97327,2,0,P|408:140|432:104,1,105.000004005432,8|8,0:0|0:0,0:0:0:0:
188,136,97841,6,0,L|144:240,1,105.000004005432,0|0,0:0|0:0,0:0:0:0:
147,232,98184,1,0,0:0:0:0:
248,228,98355,2,0,P|312:216|360:236,1,105.000004005432
364,248,98612,1,0,0:0:0:0:
376,268,98698,1,0,0:0:0:0:
388,284,98784,1,0,0:0:0:0:
400,300,98870,1,0,0:0:0:0:
412,316,98955,5,0,0:0:0:0:
424,332,99041,1,0,0:0:0:0:
464,240,99212,2,0,P|456:164|420:128,1,105.000004005432,8|0,0:3|0:0,0:0:0:0:
336,80,99555,1,0,0:0:0:0:
284,192,99727,1,0,0:0:0:0:
208,84,99898,1,0,0:0:0:0:
192,184,100070,5,0,0:0:0:0:
192,208,100155,1,0,0:0:0:0:
184,228,100241,1,0,0:0:0:0:
168,244,100327,1,0,0:0:0:0:
148,256,100412,1,0,0:0:0:0:
124,264,100498,1,0,0:0:0:0:
100,264,100584,1,0,0:0:0:0:
168,104,111555,5,2,0:0:0:0:
152,240,111727,2,0,P|192:196|200:164,1,70,0|2,0:0|0:0,0:0:0:0:
248,128,112070,1,0,0:0:0:0:
300,220,112241,2,0,P|240:264|232:288,1,70,2|0,0:0|0:0,0:0:0:0:
80,136,112584,1,2,0:0:0:0:
132,204,112755,2,0,L|260:120,1,140,0|0,0:0|0:0,0:0:0:0:
340,104,113270,5,0,0:0:0:0:
320,184,113441,2,0,P|360:224|384:228,1,70,2|0,0:0|0:0,0:0:0:0:
371,226,113784,1,0,0:0:0:0:
312,296,113955,1,0,0:0:0:0:
228,316,114127,1,0,0:0:0:0:
168,256,114298,2,0,P|200:192|184:120,1,140,2|2,0:0|0:0,0:0:0:0:
116,204,114812,6,0,P|92:252|96:280,1,70
240,168,115155,2,0,P|280:136|292:112,1,70,2|0,0:0|0:0,0:0:0:0:
272,252,115498,2,0,P|348:248|412:284,1,140,2|0,0:0|0:0,0:0:0:0:
403,276,116012,5,2,0:0:0:0:
420,172,116184,2,2,P|380:156|352:120,1,70,0|2,0:0|0:0,0:0:0:0:
168,252,116527,1,0,0:0:0:0:
232,180,116698,1,2,0:0:0:0:
184,88,116870,1,2,0:0:0:0:
248,256,117041,6,0,P|320:252|336:240,1,70,2|0,0:0|0:0,0:0:0:0:
284,188,117384,2,0,P|212:192|196:204,1,70
216,192,117727,1,2,0:0:0:0:
348,236,117898,2,0,L|388:144,1,70,0|2,0:0|0:0,0:0:0:0:
304,304,118241,2,0,P|232:320|172:284,1,140,2|0,0:0|0:0,0:0:0:0:
156,176,118755,5,0,0:0:0:0:
96,240,118927,1,0,0:0:0:0:
256,176,119098,2,0,L|304:124,1,70
376,168,119441,1,0,0:0:0:0:
264,240,119612,1,0,0:0:0:0:
216,104,119784,1,2,0:0:0:0:
328,268,119955,5,0,0:0:0:0:
352,100,120127,1,0,0:0:0:0:
244,292,120298,1,0,0:0:0:0:
216,160,120470,1,2,0:0:0:0:
416,224,120641,1,0,0:0:0:0:
284,120,120812,1,2,0:0:0:0:
352,312,120984,6,0,P|400:288|436:284,1,70,8|0,0:0|0:0,0:0:0:0:
336,220,121327,2,0,P|296:248|252:256,1,70,0|2,0:0|0:0,0:0:0:0:
272,176,121670,2,0,P|316:144|344:144,1,70,0|2,0:0|0:0,0:0:0:0:
329,142,122012,1,0,0:0:0:0:
240,244,122184,1,2,0:0:0:0:
192,124,122355,2,0,L|132:172,1,70
120,184,122612,5,0,0:0:0:0:
108,208,122698,1,0,0:0:0:0:
192,296,123041,2,0,P|256:216|300:208,2,140,0|0|2,0:0|0:0|0:0,0:0:0:0:
292,304,123898,1,0,0:0:0:0:
376,224,124070,2,0,L|396:136,1,70
388,320,124412,1,0,0:0:0:0:
288,208,124584,6,0,L|120:236,1,140,2|0,0:0|0:0,0:0:0:0:
149,231,125098,1,0,0:0:0:0:
204,128,125270,1,2,0:0:0:0:
168,304,125441,1,0,0:0:0:0:
104,164,125612,2,0,L|48:24,1,140
152,68,126127,5,0,0:0:0:0:
56,144,126298,2,0,P|40:224|48:240,1,70
96,260,126641,1,0,0:0:0:0:
220,172,126812,1,0,0:0:0:0:
288,124,126984,1,0,0:0:0:0:
260,244,127155,2,0,P|236:272|188:304,1,70,0|2,0:0|0:0,0:0:0:0:
376,240,127670,5,2,0:0:0:0:
436,152,127841,1,0,0:0:0:0:
348,280,128012,1,0,0:0:0:0:
476,208,128184,2,0,P|452:88|424:72,2,140,0|0|0,0:0|0:0|0:0,0:0:0:0:
412,284,129041,1,2,0:0:0:0:
352,204,129212,2,0,L|280:228,1,70
284,304,129555,5,2,0:0:0:0:
292,148,129727,1,0,0:0:0:0:
168,272,129898,1,0,0:0:0:0:
120,212,130070,1,0,0:0:0:0:
96,284,130241,1,0,0:0:0:0:
212,104,130412,1,0,0:0:0:0:
288,200,130584,1,0,0:0:0:0:
296,52,130755,1,2,0:0:0:0:
244,252,130927,1,0,0:0:0:0:
80,144,131098,5,0,0:0:0:0:
40,228,131270,1,0,0:0:0:0:
360,152,131441,1,2,0:0:0:0:
388,228,131612,1,0,0:0:0:0:
264,304,131784,1,2,0:0:0:0:
156,284,131955,1,0,0:0:0:0:
228,204,132127,1,0,0:0:0:0:
152,324,132298,5,0,0:0:0:0:
192,128,132470,2,0,P|228:96|240:64,1,70
276,168,132812,2,0,P|344:172|396:232,1,140,2|0,0:0|0:0,0:0:0:0:
352,308,133327,1,2,0:0:0:0:
248,312,133498,1,8,0:0:0:0:
104,232,133670,6,0,L|76:144,1,70
196,160,134012,1,0,0:0:0:0:
188,252,134184,1,8,0:0:0:0:
296,224,134355,1,8,0:0:0:0:
320,208,134441,1,8,0:0:0:0:
352,208,134527,1,0,0:0:0:0:
280,112,134698,5,0,0:0:0:0:
188,80,134870,1,0,0:0:0:0:
108,176,135041,1,8,0:0:0:0:
100,200,135127,1,8,0:0:0:0:
92,220,135212,1,0,0:0:0:0:
216,184,135384,1,8,0:0:0:0:
224,160,135470,1,8,0:0:0:0:
232,132,135555,1,8,0:0:0:0:
216,304,135727,6,0,P|260:288|284:272,1,70,0|0,0:0|0:0,0:0:0:0:
312,196,136070,1,8,0:0:0:0:
340,188,136155,1,8,0:0:0:0:
368,192,136241,1,0,0:0:0:0:
336,280,136412,2,0,L|284:348,1,70
216,308,136755,5,8,0:0:0:0:
192,300,136841,1,8,0:0:0:0:
164,296,136927,2,0,P|112:260|88:264,1,70
96,336,137270,1,4,0:0:0:0:
188,204,137441,1,0,0:0:0:0:
112,164,137612,2,0,L|136:88,1,70
236,104,137955,1,0,0:0:0:0:
252,124,138041,1,0,0:0:0:0:
264,148,138127,5,0,0:0:0:0:
268,168,138212,1,0,0:0:0:0:
272,192,138298,1,0,0:0:0:0:
272,220,138384,1,0,0:0:0:0:
268,248,138470,1,8,0:0:0:0:
260,276,138555,1,8,0:0:0:0:
244,296,138641,1,8,0:0:0:0:
344,308,138812,5,8,0:0:0:0:
360,280,138898,1,0,0:0:0:0:
368,252,138984,1,0,0:0:0:0:
292,216,139155,1,8,0:0:0:0:
272,228,139241,1,0,0:0:0:0:
252,244,139327,1,0,0:0:0:0:
376,148,139498,2,0,L|424:80,1,70
432,68,139755,1,0,0:0:0:0:
452,44,139841,1,0,0:0:0:0:
304,80,140012,5,8,0:0:0:0:
212,148,140184,1,0,0:0:0:0:
300,248,140355,1,0,0:0:0:0:
200,284,140527,1,0,0:0:0:0:
104,248,140698,1,8,0:0:0:0:
88,228,140784,1,8,0:0:0:0:
76,208,140870,2,0,P|92:124|128:72,1,140
121,79,141384,5,8,0:0:0:0:
204,124,141555,2,0,P|264:124|284:116,1,70,0|8,0:0|0:0,0:0:0:0:
160,192,141898,1,0,0:0:0:0:
252,204,142070,2,0,L|292:276,1,70
285,265,142327,1,0,0:0:0:0:
285,265,142412,1,0,0:0:0:0:
332,192,142584,5,0,0:0:0:0:
256,136,142755,2,0,P|188:116|180:104,1,70
84,172,143098,1,8,0:0:0:0:
80,200,143184,1,8,0:0:0:0:
64,224,143270,1,0,0:0:0:0:
132,272,143441,1,0,0:0:0:0:
192,212,143612,1,8,0:0:0:0:
208,188,143698,1,8,0:0:0:0:
224,164,143784,2,0,L|272:92,1,70
262,105,144127,1,0,0:0:0:0:
312,192,144298,6,0,P|352:240|416:240,1,105.000004005432,0|10,0:0|0:0,0:0:0:0:
388,168,144641,1,0,0:0:0:0:
328,264,144812,2,0,L|256:348,1,105.000004005432,2|0,0:0|0:0,0:0:0:0:
259,343,145155,1,2,0:0:0:0:
200,252,145327,1,0,0:0:0:0:
200,144,145498,2,0,P|260:152|360:268,1,210.000008010865,2|2,0:0|0:0,0:0:0:0:
104,304,146098,5,0,0:0:0:0:
196,236,146355,1,0,0:0:0:0:
96,96,146527,1,8,0:0:0:0:
200,144,146698,2,0,B|212:120|212:120|212:104|212:32,1,105.000004005432,0|8,0:0|0:0,0:0:0:0:
272,168,147041,1,0,0:0:0:0:
192,248,147212,5,2,0:0:0:0:
140,304,147384,1,0,0:0:0:0:
360,216,147555,2,0,P|412:208|464:228,1,105.000004005432,8|0,0:0|0:0,0:0:0:0:
460,225,147898,1,2,0:0:0:0:
280,268,148070,1,0,0:0:0:0:
344,164,148241,1,0,0:0:0:0:
400,288,148412,1,2,0:0:0:0:
424,304,148498,1,0,0:0:0:0:
448,320,148584,1,0,0:0:0:0:
280,268,148755,6,0,P|224:264|172:228,1,105.000004005432,0|8,0:0|0:0,0:0:0:0:
292,168,149098,2,0,B|340:112|340:112|392:100,1,105.000004005432,0|8,0:0|0:0,0:0:0:0:
196,200,149441,2,0,L|160:96,1,105.000004005432,0|8,0:0|0:0,0:0:0:0:
161,100,149784,1,0,0:0:0:0:
104,204,149955,6,8,L|88:320,1,105.000004005432,8|0,0:0|0:0,0:0:0:0:
89,308,150298,1,8,0:0:0:0:
224,148,150470,1,8,0:0:0:0:
268,248,150641,1,8,0:0:0:0:
116,124,150812,1,8,0:0:0:0:
328,224,150984,1,8,0:0:0:0:
184,304,151155,1,8,0:0:0:0:
252,96,151327,5,8,0:0:0:0:
160,208,151498,1,8,0:0:0:0:
352,272,151670,1,8,0:0:0:0:
156,104,151841,1,8,0:0:0:0:
156,104,151927,1,8,0:0:0:0:
112,140,152012,1,8,0:0:0:0:
264,168,152184,6,0,P|296:144|360:116,1,105.000004005432
355,117,152527,1,0,0:0:0:0:
268,268,152698,1,8,0:0:0:0:
256,288,152784,1,8,0:0:0:0:
244,308,152870,1,0,0:0:0:0:
232,328,152955,1,0,0:0:0:0:
164,336,153041,5,8,0:0:0:0:
140,324,153127,1,8,0:0:0:0:
112,308,153212,1,8,0:0:0:0:
88,296,153298,1,8,0:0:0:0:
72,228,153384,2,0,P|80:164|60:100,1,105.000004005432,2|0,0:0|0:0,0:0:0:0:
148,96,153727,1,8,0:0:0:0:
180,120,153812,1,8,0:0:0:0:
212,144,153898,1,0,0:0:0:0:
144,236,154070,5,2,0:0:0:0:
328,304,154241,1,2,0:0:0:0:
396,112,154412,1,2,0:0:0:0:
208,40,154584,1,2,0:0:0:0:
144,304,154755,1,2,0:0:0:0:
392,304,154927,1,2,0:0:0:0:
328,104,155098,2,0,L|344:68,4,35.0000013351441,0|0|0|0|0,0:0|0:0|0:0|0:0|0:0,0:0:0:0:
284,164,155441,6,0,P|232:176|120:144,1,157.500006008148
112,136,155784,1,8,0:0:0:0:
212,248,156127,1,2,0:0:0:0:
216,84,156298,1,8,0:0:0:0:
228,56,156384,1,8,0:0:0:0:
248,32,156470,1,8,0:0:0:0:
192,160,156641,1,0,0:0:0:0:
144,224,156812,1,2,0:0:0:0:
392,236,157155,5,0,0:0:0:0:
416,88,157498,1,0,0:0:0:0:
304,144,157670,1,8,0:0:0:0:
272,164,157755,1,8,0:0:0:0:
240,180,157841,1,8,0:0:0:0:
392,236,158012,1,8,0:0:0:0:
416,88,158184,1,8,0:0:0:0:
328,240,158527,5,8,0:0:0:0:
196,292,158870,1,8,0:0:0:0:
236,156,159041,1,8,0:0:0:0:
236,156,159127,1,8,0:0:0:0:
236,156,159212,1,8,0:0:0:0:
328,240,159384,1,8,0:0:0:0:
196,292,159555,1,8,0:0:0:0:
236,156,159727,5,8,0:0:0:0:
236,156,159812,1,8,0:0:0:0:
236,156,159898,1,8,0:0:0:0:
132,248,160070,1,8,0:0:0:0:
104,240,160155,1,8,0:0:0:0:
80,232,160241,1,8,0:0:0:0:
48,184,160327,5,8,0:0:0:0:
60,160,160412,1,8,0:0:0:0:
72,140,160498,1,8,0:0:0:0:
84,116,160584,1,8,0:0:0:0:
196,144,160755,1,0,0:0:0:0:
312,52,160927,1,0,0:0:0:0:
336,56,161012,1,0,0:0:0:0:
360,68,161098,1,0,0:0:0:0:
380,84,161184,1,0,0:0:0:0:
396,100,161270,1,0,0:0:0:0:
408,120,161355,1,0,0:0:0:0:
404,184,161441,6,0,L|312:252,1,105.000004005432
300,264,161698,1,0,0:0:0:0:
276,280,161784,1,0,0:0:0:0:
256,296,161870,1,0,0:0:0:0:
236,312,161955,1,0,0:0:0:0:
220,324,162041,1,0,0:0:0:0:
180,236,162298,5,0,0:0:0:0:
196,212,162384,1,0,0:0:0:0:
208,184,162470,1,0,0:0:0:0:
212,164,162555,1,0,0:0:0:0:
208,136,162641,2,0,P|192:76|156:44,1,105.000004005432
112,128,162984,5,0,0:0:0:0:
104,144,163070,1,0,0:0:0:0:
96,160,163155,1,0,0:0:0:0:
88,176,163241,1,0,0:0:0:0:
80,192,163327,2,0,L|36:332,1,140
288,220,163670,2,0,P|336:164|408:148,1,140
412,240,163927,5,0,0:0:0:0:
400,264,164012,2,0,B|320:336|320:336|264:332,1,140
192,248,164355,2,0,L|112:104,1,140
356,96,164698,2,0,L|336:268,1,140
332,256,164955,1,0,0:0:0:0:
320,284,165041,2,0,L|296:328,10,35.0000013351441,0|0|0|0|0|0|0|0|0|0|0,0:0|0:0|0:0|0:0|0:0|0:0|0:0|0:0|0:0|0:0|0:0,0:0:0:0:
200,212,165727,6,0,L|236:252,10,35.0000013351441,0|0|0|0|0|0|0|0|0|0|0,0:0|0:0|0:0|0:0|0:0|0:0|0:0|0:0|0:0|0:0|0:0,0:0:0:0:
192,136,166412,2,0,L|316:64,1,105.000004005432
284,176,166755,2,0,L|168:244,1,105.000004005432
80,188,167098,1,0,0:0:0:0:
120,332,167270,1,0,0:0:0:0:
256,108,167441,1,0,0:0:0:0:
240,280,167612,6,0,B|280:312|280:312|328:288|360:228,1,157.500006008148
356,208,167955,2,0,P|344:148|432:40,1,210.000008010865
448,152,168470,1,0,0:0:0:0:
288,124,168641,1,0,0:0:0:0:
264,144,168727,1,0,0:0:0:0:
236,152,168812,1,0,0:0:0:0:
128,80,168984,1,0,0:0:0:0:
80,216,169155,2,0,P|136:288|264:264,2,210.000008010865,0|0|0,0:0|0:0|0:0,0:0:0:0:
92,120,170012,6,0,B|192:136|192:136|252:124|304:56,1,210.000008010865,0|0,0:0|0:0,0:0:0:0:
236,196,170698,1,0,0:0:0:0:
248,224,170784,1,0,0:0:0:0:
260,252,170870,1,0,0:0:0:0:
352,216,171041,2,0,L|380:108,1,105.000004005432
300,120,171384,1,0,0:0:0:0:
416,236,171555,1,0,0:0:0:0:
216,160,171727,5,0,0:0:0:0:
184,164,171812,1,0,0:0:0:0:
152,168,171898,1,0,0:0:0:0:
276,264,172070,2,0,P|308:296|364:328,1,105.000004005432
424,256,172412,1,0,0:0:0:0:
288,320,172584,6,0,P|256:256|128:228,1,210.000008010865
108,244,173012,1,0,0:0:0:0:
108,244,173098,1,0,0:0:0:0:
196,140,173270,1,0,0:0:0:0:
276,84,173441,2,0,P|292:136|192:236,1,210.000008010865
84,128,173955,2,0,L|56:336,2,210.000008010865,0|0|0,0:0|0:0|0:0,0:0:0:0:
104,100,174727,5,0,0:0:0:0:
124,72,174812,1,0,0:0:0:0:
216,200,174984,1,0,0:0:0:0:
216,200,175155,1,0,0:0:0:0:
92,320,175327,1,0,0:0:0:0:
40,260,175498,1,0,0:0:0:0:
224,80,175670,1,0,0:0:0:0:
232,188,175841,1,0,0:0:0:0:
348,144,176012,6,0,P|340:224|236:296,1,210.000008010865,0|0,0:0|0:0,0:0:0:0:
148,236,176527,1,0,0:0:0:0:
200,136,176698,2,0,P|244:88|260:44,1,105.000004005432
328,104,177041,2,0,P|288:156|240:308,1,210.000008010865
248,312,177470,1,0,0:0:0:0:
248,312,177555,1,0,0:0:0:0:
352,252,177727,5,0,0:0:0:0:
280,96,177898,1,0,0:0:0:0:
200,152,178070,2,0,P|148:172|88:216,1,105.000004005432
120,104,178412,1,0,0:0:0:0:
280,96,178584,2,0,B|300:164|300:164|260:212|260:212|244:276|296:312,1,210.000008010865
384,92,179270,2,0,B|388:172|388:172|408:204,1,105.000004005432
320,232,179612,5,0,0:0:0:0:
300,252,179698,1,0,0:0:0:0:
280,272,179784,1,0,0:0:0:0:
232,188,179955,1,0,0:0:0:0:
160,144,180127,2,0,P|180:100|160:40,1,105.000004005432
96,88,180470,2,0,B|76:136|76:136|92:200,1,105.000004005432
232,296,180812,5,0,0:0:0:0:
144,260,180984,1,0,0:0:0:0:
232,148,181155,2,0,P|296:132|348:156,1,105.000004005432
288,212,181498,2,0,P|224:232|156:108,1,210.000008010865
160,104,181927,1,0,0:0:0:0:
176,80,182012,1,0,0:0:0:0:
260,96,182184,2,0,P|312:116|368:104,1,105.000004005432
208,164,182527,1,0,0:0:0:0:
160,256,182698,5,0,0:0:0:0:
160,256,182784,1,0,0:0:0:0:
160,256,182870,2,0,P|236:248|328:344,1,210.000008010865
304,248,183384,2,0,P|304:176|336:144,1,105.000004005432
240,128,183727,2,0,B|228:108|228:108|140:80,1,105.000004005432
124,88,183984,1,0,0:0:0:0:
104,96,184070,1,0,0:0:0:0:
96,248,184241,6,0,L|164:168,1,105.000004005432
240,196,184584,2,0,L|164:288,1,105.000004005432
144,148,184927,2,0,P|204:92|332:124,1,210.000008010865
368,168,185355,1,0,0:0:0:0:
376,240,185441,1,0,0:0:0:0:
348,304,185527,1,0,0:0:0:0:
284,332,185612,1,0,0:0:0:0:
216,320,185698,5,0,0:0:0:0:
156,280,185784,2,0,P|156:224|148:164,1,105.000004005432
104,108,186127,1,0,0:0:0:0:
236,120,186298,2,0,P|232:188|244:248,1,105.000004005432
288,280,186641,1,0,0:0:0:0:
168,264,186812,1,0,0:0:0:0:
308,208,186984,1,0,0:0:0:0:
92,68,187327,5,0,0:0:0:0:
32,324,187670,1,0,0:0:0:0:
292,108,188012,1,0,0:0:0:0:
328,308,188355,6,0,P|384:256|404:212,1,105.000004005432
264,184,188698,2,0,P|184:232|160:260,1,105.000004005432
400,180,189041,2,0,P|388:112|364:76,1,105.000004005432
240,288,189384,2,0,B|168:288|168:288|136:300,1,105.000004005432
280,128,189727,2,0,P|200:124|136:68,1,157.500006008148
128,108,190070,2,0,B|136:160|136:160|112:224,1,105.000004005432,2|0,0:0|0:0,0:0:0:0:
320,240,190412,6,0,B|368:188|368:188|516:168,1,210.000008010865
496,192,190841,1,0,0:0:0:0:
488,216,190927,1,0,0:0:0:0:
312,140,191098,2,0,B|248:96|248:96|216:92,1,105.000004005432
204,184,191441,2,0,P|176:264|144:288,1,105.000004005432
352,184,191784,2,0,P|388:112|488:24,2,210.000008010865,0|0|0,0:0|0:0|0:0,0:0:0:0:
192,320,192641,5,0,0:0:0:0:
160,300,192727,1,0,0:0:0:0:
144,268,192812,1,0,0:0:0:0:
292,124,192984,1,0,0:0:0:0:
288,344,193155,1,0,0:0:0:0:
80,80,193327,2,0,B|128:136|128:136|168:144,1,105.000004005432
296,196,193670,5,0,0:0:0:0:
296,228,193755,1,0,0:0:0:0:
276,252,193841,1,0,0:0:0:0:
232,116,194012,2,0,B|272:60|272:60|316:44,1,105.000004005432
248,264,194355,2,0,B|208:320|208:320|168:336,1,105.000004005432
344,164,194698,2,0,B|404:124|404:124|468:120,1,105.000004005432
208,216,195041,6,0,P|132:168|84:48,2,210.000008010865,0|0|0,0:0|0:0|0:0,0:0:0:0:
224,72,195898,2,0,P|300:116|344:232,1,210.000008010865
144,208,196412,1,0,0:0:0:0:
176,276,196584,1,0,0:0:0:0:
252,272,196755,1,0,0:0:0:0:
384,160,196927,6,0,P|392:104|376:48,1,105.000004005432
300,112,197270,2,0,P|292:188|304:224,1,105.000004005432
168,96,197612,1,0,0:0:0:0:
88,136,197784,1,0,0:0:0:0:
144,208,197955,1,0,0:0:0:0:
336,224,198298,1,0,0:0:0:0:
336,52,198641,1,0,0:0:0:0:
200,248,198812,5,0,0:0:0:0:
184,276,198898,1,0,0:0:0:0:
168,300,198984,1,0,0:0:0:0:
304,264,199155,2,0,B|356:216|356:216|364:168,1,105.000004005432
184,112,199498,2,0,P|108:88|72:96,1,105.000004005432
180,228,199841,2,0,P|248:176|260:136,1,105.000004005432
388,152,200184,6,0,L|420:272,1,105.000004005432
232,100,200527,2,0,L|236:216,1,105.000004005432
324,88,200870,2,0,P|392:52|444:64,1,105.000004005432
336,192,201212,2,0,P|312:260|264:292,1,105.000004005432
204,148,201555,5,0,0:0:0:0:
172,140,201641,1,0,0:0:0:0:
140,128,201727,1,0,0:0:0:0:
140,212,201898,1,0,0:0:0:0:
244,80,202070,2,0,P|312:76|368:92,1,105.000004005432
316,176,202412,2,0,P|256:268|144:300,2,210.000008010865,0|0|0,0:0|0:0|0:0,0:0:0:0:
316,176,203270,1,0,0:0:0:0:
156,100,203441,1,0,0:0:0:0:
140,200,203612,5,0,0:0:0:0:
160,184,203698,1,0,0:0:0:0:
184,168,203784,1,0,0:0:0:0:
296,128,203955,2,0,L|300:264,1,105.000004005432
400,156,204298,2,0,P|416:100|400:56,1,105.000004005432
300,260,204641,6,0,B|380:284|380:284|392:312,1,105.000004005432
388,303,204984,1,0,0:0:0:0:
204,280,205155,2,0,P|120:220|104:116,2,210.000008010865,0|0|0,0:0|0:0|0:0,0:0:0:0:
224,152,206012,2,0,P|316:160|408:84,1,210.000008010865
404,90,206527,1,0,0:0:0:0:
312,196,206698,2,0,P|280:272|296:320,1,105.000004005432
283,291,207041,1,0,0:0:0:0:
156,224,207212,6,0,P|92:152|100:36,1,210.000008010865
96,43,207727,1,0,0:0:0:0:
184,140,207898,2,0,P|228:168|240:228,1,105.000004005432
116,308,208241,1,0,0:0:0:0:
212,336,208412,1,0,0:0:0:0:
344,68,208584,2,0,B|416:64|416:64|448:44,1,105.000004005432,0|0,0:0|0:0,0:0:0:0:
443,46,208927,1,0,0:0:0:0:
412,192,209098,5,8,0:0:0:0:
380,208,209184,1,8,0:0:0:0:
356,232,209270,1,8,0:0:0:0:
344,264,209355,1,8,0:0:0:0:
312,256,209441,1,8,0:0:0:0:
280,260,209527,1,8,0:0:0:0:
248,276,209612,1,8,0:0:0:0:
224,304,209698,1,8,0:0:0:0:
212,336,209784,2,8,L|200:376,12,26.2500010013581,0|0|0|0|0|0|0|0|0|0|0|0|0,0:0|0:0|0:0|0:0|0:0|0:0|0:0|0:0|0:0|0:0|0:0|0:0|0:0,0:0:0:0:
