osu file format v12

[General]
AudioFilename: smooooch.mp3
AudioLeadIn: 0
PreviewTime: 22313
Countdown: 0
SampleSet: Soft
StackLeniency: 0.7
Mode: 0
LetterboxInBreaks: 1
WidescreenStoryboard: 0

[Editor]
DistanceSpacing: 1.9
BeatDivisor: 4
GridSize: 8
TimelineZoom: 1

[Metadata]
Title:smooooch
TitleUnicode:smooooch
Artist:kors k
ArtistUnicode:kors k
Creator:fuji97
Version:TAG4
Source:Beatmania IIDX 16 EMPRESS
Tags:candy rave reflec beat plus beat+ rb+
BeatmapID:270071
BeatmapSetID:101645

[Difficulty]
HPDrainRate:6
CircleSize:5
OverallDifficulty:8
ApproachRate:9
SliderMultiplier:1.3
SliderTickRate:2

[Events]
//Background and Video events
Video,-1389,"video.avi"
0,0,"bg.jpg",0,0
//Break Periods
2,66920,75951
//Storyboard Layer 0 (Background)
//Storyboard Layer 1 (Fail)
//Storyboard Layer 2 (Pass)
//Storyboard Layer 3 (Foreground)
//Storyboard Sound Samples
//Background Colour Transformations
3,100,163,162,255

[TimingPoints]
1975,338.983050847458,4,2,2,100,1,0
23669,-100,4,2,2,60,0,0
24941,-100,4,2,3,60,0,0
25110,-100,4,2,2,60,0,0
27313,-100,4,2,4,60,0,0
27483,-100,4,2,2,60,0,0
30364,-100,4,2,3,60,0,0
30534,-100,4,2,2,60,0,0
35703,-50,4,2,2,60,0,0
36720,-100,4,2,2,60,0,0
56212,-50,4,2,2,60,0,0
76551,-50,4,2,2,80,0,0
78076,-100,4,2,2,60,0,0
84602,-100,4,2,3,60,0,0
84771,-100,4,2,2,60,0,0
87398,-100,4,2,2,80,0,0
88754,-100,4,2,2,80,0,1
89093,-100,4,2,2,60,0,1
95449,-100,4,2,3,60,0,1
95619,-100,4,2,2,60,0,1
100788,-50,4,2,2,60,0,1
101805,-100,4,2,2,60,0,1
105025,-100,4,2,2,100,0,1
110788,-100,4,2,2,60,0,1
113161,-100,4,2,2,15,0,0

[Colours]
Combo1 : 210,210,210
Combo2 : 80,163,254
Combo3 : 255,128,192
Combo4 : 255,255,64

[HitObjects]
80,40,12483,5,0,0:0:0:0:
104,96,12652,2,0,P|128:120|176:144,1,65,0|8,0:0|0:0,0:0:0:0:
280,176,13161,2,0,P|304:104|280:48,1,130,8|0,0:0|0:0,0:0:0:0:
248,96,13669,1,0,0:0:0:0:
208,152,13839,2,0,P|184:216|192:288,1,130
432,344,15195,5,0,0:0:0:0:
408,288,15364,2,0,P|384:264|336:240,1,65,0|8,0:0|0:0,0:0:0:0:
296,224,15703,1,8,0:0:0:0:
232,216,15873,2,0,P|208:288|232:344,1,130,8|0,0:0|0:0,0:0:0:0:
264,288,16381,1,0,0:0:0:0:
296,232,16551,2,0,P|320:168|312:96,1,130
80,40,17907,5,0,0:0:0:0:
104,96,18076,2,0,P|128:120|176:144,1,65,0|8,0:0|0:0,0:0:0:0:
280,168,18585,2,0,P|304:96|280:40,1,130
248,96,19093,1,0,0:0:0:0:
216,152,19263,2,0,P|192:216|200:288,1,130
256,192,20619,12,0,21975,0:0:0:0:
56,48,22313,5,8,0:0:0:0:
456,336,22652,5,2,0:0:0:0:
456,48,22991,5,8,0:0:0:0:
56,336,23330,5,2,0:0:0:0:
104,88,23669,6,0,P|120:120|208:168,1,130,8|2,0:0|0:0,0:0:0:0:
328,192,24178,1,0,0:0:0:0:
104,296,24347,2,0,P|120:264|208:216,1,130,8|2,0:0|0:0,0:0:0:0:
424,56,24856,6,0,P|448:96|440:176,1,130
352,272,25364,1,2,0:0:0:0:
328,144,25534,2,0,P|328:104|320:56,1,65,0|8,0:0|0:0,0:0:0:0:
40,208,25873,5,0,0:0:0:0:
40,208,25958,1,0,0:0:0:0:
40,208,26042,1,2,0:0:0:0:
424,304,26212,5,0,0:0:0:0:
432,176,26381,2,0,P|384:192|320:264,1,130,8|2,0:0|0:0,0:0:0:0:
64,56,27059,5,8,0:0:0:0:
80,184,27229,2,0,P|144:160|200:104,1,130
248,8,27737,1,8,0:0:0:0:
256,192,27907,5,0,0:0:0:0:
256,192,27991,1,0,0:0:0:0:
256,192,28076,1,2,0:0:0:0:
312,96,28246,6,0,P|344:112|360:152,1,65,0|8,0:0|0:0,0:0:0:0:
200,288,28585,6,0,P|168:272|152:232,1,65,0|2,0:0|0:0,0:0:0:0:
152,120,28924,1,0,0:0:0:0:
112,248,29093,2,0,P|96:288|16:336,1,130,8|2,0:0|0:0,0:0:0:0:
40,200,29602,2,0,P|64:160|96:152,1,65,0|8,0:0|0:0,0:0:0:0:
224,40,30110,1,2,0:0:0:0:
456,72,30280,6,0,P|464:128|432:216,1,130
312,192,30788,1,2,0:0:0:0:
376,304,30958,2,0,P|416:256|424:224,1,65,0|8,0:0|0:0,0:0:0:0:
64,320,31466,5,2,0:0:0:0:
224,304,31805,5,8,0:0:0:0:
288,80,31975,5,0,0:0:0:0:
288,304,32144,5,2,0:0:0:0:
224,80,32313,5,0,0:0:0:0:
352,304,32483,5,8,0:0:0:0:
160,80,32652,5,0,0:0:0:0:
256,160,32822,6,0,L|256:224,1,65,2|0,0:0|0:0,0:0:0:0:
256,225,33161,1,8,0:0:0:0:
368,88,33330,5,0,0:0:0:0:
368,88,33415,1,0,0:0:0:0:
368,88,33500,1,0,0:0:0:0:
448,280,33669,5,0,0:0:0:0:
64,104,33839,5,0,0:0:0:0:
256,192,34178,1,0,0:0:0:0:
432,64,34517,6,0,P|448:96|456:128,1,65
328,88,34856,1,0,0:0:0:0:
208,144,35025,2,0,P|232:216|280:256,1,130
56,48,35703,6,4,B|80:88|80:88|80:88|56:104|56:104|80:120|80:120|56:136|56:136|80:152|80:152|56:168|56:168|80:184|80:184|56:200|56:200|80:216|80:216|56:232|56:232,1,260,4|4,0:0|0:0,0:0:0:0:
456,336,36381,6,4,B|432:296|432:296|432:296|456:280|456:280|432:264|432:264|456:248|456:248|432:232|432:232|456:216|456:216|432:200|432:200|456:184|456:184|432:168|432:168|456:152|456:152,1,260,4|4,0:0|0:0,0:0:0:0:
288,40,36890,6,2,L|256:56|224:72,1,65
344,128,37229,2,2,P|320:176|256:248,1,130
64,192,37737,1,0,0:0:0:0:
456,192,38076,5,0,0:0:0:0:
64,192,38415,5,0,0:0:0:0:
456,192,38754,5,0,0:0:0:0:
328,80,39093,5,0,0:0:0:0:
184,56,39263,1,2,0:0:0:0:
232,168,39432,1,0,0:0:0:0:
264,48,39602,1,2,0:0:0:0:
168,128,39771,1,0,0:0:0:0:
296,144,39941,2,8,P|320:176|328:272,1,130,2|0,0:0|0:0,0:0:0:0:
120,48,40449,6,4,P|88:72|40:160,1,130
392,336,41127,6,4,P|424:312|472:224,1,130
120,48,41805,6,4,P|88:72|40:160,1,130
344,200,42313,1,0,0:0:0:0:
472,184,42483,1,0,0:0:0:0:
216,272,42652,5,2,0:0:0:0:
176,224,42737,5,0,0:0:0:0:
168,168,42822,5,2,0:0:0:0:
200,112,42907,5,0,0:0:0:0:
256,88,42991,5,2,0:0:0:0:
312,112,43076,5,0,0:0:0:0:
344,168,43161,5,2,0:0:0:0:
336,232,43246,5,0,0:0:0:0:
296,272,43330,5,2,0:0:0:0:
256,312,43415,5,0,0:0:0:0:
256,248,43500,5,2,0:0:0:0:
80,72,43839,5,0,0:0:0:0:
432,312,44178,5,0,0:0:0:0:
256,128,44517,5,0,0:0:0:0:
192,240,44686,2,0,P|240:224|264:208,1,65
320,240,45025,2,0,P|272:224|248:208,1,65
296,88,45364,5,8,0:0:0:0:
216,296,45534,5,0,0:0:0:0:
216,88,45703,6,0,P|224:120|256:144,1,65
304,296,46042,6,0,P|288:264|256:240,1,65,8|0,0:0|0:0,0:0:0:0:
136,88,46381,6,0,P|112:112|96:160,1,65
392,296,46720,5,8,0:0:0:0:
120,88,46890,5,8,0:0:0:0:
120,88,46975,1,8,0:0:0:0:
392,88,47229,5,8,0:0:0:0:
120,296,47398,5,8,0:0:0:0:
256,40,47568,5,0,0:0:0:0:
256,344,47737,5,0,0:0:0:0:
256,80,48076,6,0,P|240:112|232:152,1,65,8|0,0:0|0:0,0:0:0:0:
360,144,48415,1,0,0:0:0:0:
232,184,48585,2,0,P|224:216|240:256,1,65,0|8,0:0|0:0,0:0:0:0:
80,192,48924,1,0,0:0:0:0:
432,192,49093,1,0,0:0:0:0:
256,304,49263,5,0,0:0:0:0:
256,304,49347,1,0,0:0:0:0:
256,304,49432,1,8,0:0:0:0:
256,32,49602,6,0,P|224:64|216:96,1,65
184,208,49941,1,0,0:0:0:0:
312,192,50110,2,0,P|352:168|368:128,1,65,8|0,0:0|0:0,0:0:0:0:
392,24,50449,1,0,0:0:0:0:
392,288,50788,5,8,0:0:0:0:
120,96,51127,1,8,0:0:0:0:
344,112,51466,1,10,0:0:0:0:
256,192,51636,1,10,0:0:0:0:
168,272,51805,1,10,0:0:0:0:
80,48,52144,5,8,0:0:0:0:
256,304,52313,5,8,0:0:0:0:
256,304,52398,1,8,0:0:0:0:
432,48,52568,5,8,0:0:0:0:
432,48,52652,1,8,0:0:0:0:
256,112,52822,5,10,0:0:0:0:
200,216,52991,1,2,0:0:0:0:
312,216,53161,1,2,0:0:0:0:
288,80,53500,5,8,0:0:0:0:
224,304,53670,5,0,0:0:0:0:
224,80,53839,5,0,0:0:0:0:
288,304,54008,5,0,0:0:0:0:
160,80,54178,5,8,0:0:0:0:
352,304,54347,5,0,0:0:0:0:
96,80,54517,5,0,0:0:0:0:
416,304,54686,5,8,0:0:0:0:
256,192,54856,5,8,0:0:0:0:
256,192,54941,1,0,0:0:0:0:
256,192,55025,1,0,0:0:0:0:
256,192,55110,1,0,0:0:0:0:
256,192,55195,1,0,0:0:0:0:
256,192,55280,1,0,0:0:0:0:
256,192,55364,1,0,0:0:0:0:
256,192,55449,1,0,0:0:0:0:
256,192,55534,1,0,0:0:0:0:
256,192,55619,1,0,0:0:0:0:
256,192,55703,1,0,0:0:0:0:
40,160,55873,5,0,0:0:0:0:
80,224,56042,1,0,0:0:0:0:
120,160,56212,2,4,B|176:280|272:72|352:192,1,260
368,304,56720,5,0,0:0:0:0:
144,80,56890,5,2,0:0:0:0:
144,80,56975,1,2,0:0:0:0:
144,80,57059,1,2,0:0:0:0:
368,88,57229,5,0,0:0:0:0:
264,344,57398,5,0,0:0:0:0:
72,192,57568,5,8,0:0:0:0:
440,192,57737,5,0,0:0:0:0:
440,192,57822,1,0,0:0:0:0:
440,192,57907,1,0,0:0:0:0:
256,48,58076,5,8,0:0:0:0:
144,312,58246,5,8,0:0:0:0:
144,312,58330,1,0,0:0:0:0:
144,312,58415,1,8,0:0:0:0:
96,88,58585,5,8,0:0:0:0:
152,136,58754,1,0,0:0:0:0:
208,184,58924,2,4,L|320:272,2,130
144,208,59432,1,0,0:0:0:0:
272,152,59602,1,8,0:0:0:0:
272,152,59686,1,0,0:0:0:0:
272,152,59771,1,0,0:0:0:0:
400,56,59941,5,0,0:0:0:0:
400,128,60110,1,0,0:0:0:0:
400,200,60280,1,0,0:0:0:0:
400,200,60364,1,0,0:0:0:0:
96,56,60619,5,0,0:0:0:0:
96,56,60703,1,0,0:0:0:0:
96,56,60788,1,0,0:0:0:0:
96,128,60958,5,0,0:0:0:0:
96,200,61127,5,0,0:0:0:0:
96,200,61212,1,0,0:0:0:0:
96,200,61297,1,0,0:0:0:0:
256,312,61466,5,0,0:0:0:0:
208,264,61636,1,0,0:0:0:0:
256,216,61805,5,0,0:0:0:0:
256,216,61890,1,0,0:0:0:0:
256,216,61975,1,0,0:0:0:0:
312,176,62144,6,0,L|208:96,1,130,0|8,0:0|0:0,0:0:0:0:
256,48,62483,1,0,0:0:0:0:
256,48,62568,1,0,0:0:0:0:
256,48,62652,1,0,0:0:0:0:
320,48,62822,1,0,0:0:0:0:
144,264,62991,5,8,0:0:0:0:
368,120,63161,5,8,0:0:0:0:
368,120,63246,1,8,0:0:0:0:
144,120,63415,5,8,0:0:0:0:
144,120,63500,1,8,0:0:0:0:
368,264,63669,5,10,0:0:0:0:
408,40,63839,5,2,0:0:0:0:
104,344,64008,5,2,0:0:0:0:
352,104,64347,6,0,P|304:128|256:192,1,130,8|0,0:0|0:0,0:0:0:0:
64,192,64686,1,8,0:0:0:0:
345,282,64856,2,0,P|292:245|256:192,1,130,0|8,0:0|0:0,0:0:0:0:
128,88,65195,5,2,0:0:0:0:
128,88,65280,1,0,0:0:0:0:
128,88,65364,1,2,0:0:0:0:
128,88,65449,1,0,0:0:0:0:
128,88,65534,1,2,0:0:0:0:
128,88,65619,1,0,0:0:0:0:
128,88,65703,1,10,0:0:0:0:
296,88,65873,6,8,L|432:88,1,130
48,272,66212,6,8,L|192:272,1,130
360,272,66551,5,8,0:0:0:0:
152,112,66720,5,8,0:0:0:0:
56,48,76551,6,0,B|80:88|80:88|80:88|56:104|56:104|80:120|80:120|56:136|56:136|80:152|80:152|56:168|56:168|80:184|80:184|56:200|56:200|80:216|80:216|56:232|56:232,1,260,8|0,0:0|0:0,0:0:0:0:
456,336,77229,6,0,B|432:296|432:296|432:296|456:280|456:280|432:264|432:264|456:248|456:248|432:232|432:232|456:216|456:216|432:200|432:200|456:184|456:184|432:168|432:168|456:152|456:152,1,260,8|0,0:0|0:0,0:0:0:0:
256,56,77907,5,8,0:0:0:0:
256,312,78246,5,0,0:0:0:0:
200,224,78415,1,0,0:0:0:0:
312,224,78585,1,8,0:0:0:0:
480,240,78924,6,0,L|480:168,1,65
384,152,79263,1,8,0:0:0:0:
480,128,79432,2,0,B|480:64|472:40|448:32|424:32|408:32,1,130
320,32,79941,1,8,0:0:0:0:
80,40,80110,5,0,0:0:0:0:
80,40,80195,1,0,0:0:0:0:
80,40,80280,1,0,0:0:0:0:
104,168,80449,5,0,0:0:0:0:
416,216,80619,6,0,P|368:248|296:256,1,130,8|0,0:0|0:0,0:0:0:0:
136,56,81297,6,0,L|136:120,1,65,8|0,0:0|0:0,0:0:0:0:
136,216,81636,1,0,0:0:0:0:
136,216,81805,1,0,0:0:0:0:
312,168,81975,5,8,0:0:0:0:
312,184,82059,1,0,0:0:0:0:
312,200,82144,1,2,0:0:0:0:
312,216,82229,1,0,0:0:0:0:
200,216,82313,5,2,0:0:0:0:
200,200,82397,1,0,0:0:0:0:
200,184,82482,1,2,0:0:0:0:
200,168,82567,1,0,0:0:0:0:
448,96,82652,5,8,0:0:0:0:
448,216,82822,2,0,P|440:256|424:280,1,65
320,296,83161,5,0,0:0:0:0:
192,88,83330,5,8,0:0:0:0:
256,296,83669,5,0,0:0:0:0:
136,136,83839,5,0,0:0:0:0:
360,136,84008,5,8,0:0:0:0:
96,232,84347,5,0,0:0:0:0:
96,232,84517,2,0,B|96:160|104:136|128:104,1,130
125,107,85025,1,0,0:0:0:0:
312,160,85195,6,0,L|312:224,1,65,0|8,0:0|0:0,0:0:0:0:
312,344,85534,1,0,0:0:0:0:
408,272,85703,1,0,0:0:0:0:
288,80,86042,5,8,0:0:0:0:
224,304,86212,5,0,0:0:0:0:
224,80,86381,5,2,0:0:0:0:
288,304,86550,5,0,0:0:0:0:
160,80,86720,5,8,0:0:0:0:
352,304,86889,5,0,0:0:0:0:
96,80,87059,5,2,0:0:0:0:
416,304,87229,5,0,0:0:0:0:
256,192,87398,5,8,0:0:0:0:
256,192,87737,1,8,0:0:0:0:
256,192,88076,1,8,0:0:0:0:
256,72,88415,5,8,0:0:0:0:
136,248,88585,5,8,0:0:0:0:
376,248,88754,5,8,0:0:0:0:
136,120,89093,5,0,0:0:0:0:
256,296,89263,5,0,0:0:0:0:
360,136,89432,5,8,0:0:0:0:
184,56,89771,5,0,0:0:0:0:
184,56,89941,2,0,B|176:112|176:128|176:136|176:152,1,65,0|8,0:0|0:0,0:0:0:0:
248,184,90280,1,0,0:0:0:0:
248,184,90449,1,0,0:0:0:0:
176,216,90619,2,0,B|184:264|192:288|216:288|216:288,2,65,0|8|0,0:0|0:0|0:0,0:0:0:0:
424,72,91127,5,0,0:0:0:0:
384,192,91297,1,0,0:0:0:0:
296,104,91466,2,0,P|248:96|168:112,1,130,8|0,0:0|0:0,0:0:0:0:
376,296,91975,5,0,0:0:0:0:
256,328,92144,1,8,0:0:0:0:
136,304,92313,2,0,B|96:288|64:272|64:240|64:200,1,130
64,209,92822,1,8,0:0:0:0:
288,80,93161,5,2,0:0:0:0:
224,304,93331,5,0,0:0:0:0:
224,80,93500,5,8,0:0:0:0:
288,304,93669,5,0,0:0:0:0:
160,80,93839,5,2,0:0:0:0:
352,304,94008,5,0,0:0:0:0:
96,80,94178,5,8,0:0:0:0:
416,304,94348,5,0,0:0:0:0:
256,192,94517,5,2,0:0:0:0:
256,192,94686,1,0,0:0:0:0:
320,192,94856,2,0,L|184:192,1,130,8|0,0:0|0:0,0:0:0:0:
384,48,95364,6,0,B|448:64|448:64|464:128,1,130
344,152,95873,1,0,0:0:0:0:
256,240,96042,2,0,L|208:288,1,65,0|8,0:0|0:0,0:0:0:0:
104,96,96381,6,0,L|40:32,2,65
224,304,96890,5,8,0:0:0:0:
288,80,97060,5,0,0:0:0:0:
288,304,97229,5,2,0:0:0:0:
224,80,97398,5,0,0:0:0:0:
352,304,97568,5,8,0:0:0:0:
160,80,97737,5,0,0:0:0:0:
96,80,97907,5,2,0:0:0:0:
416,304,98076,5,0,0:0:0:0:
296,168,98246,5,8,0:0:0:0:
296,184,98330,1,0,0:0:0:0:
296,200,98415,1,0,0:0:0:0:
296,216,98500,1,0,0:0:0:0:
216,216,98585,5,0,0:0:0:0:
216,200,98669,1,0,0:0:0:0:
216,184,98754,1,0,0:0:0:0:
216,168,98839,1,0,0:0:0:0:
256,48,98924,5,8,0:0:0:0:
384,192,99093,5,0,0:0:0:0:
256,336,99263,5,0,0:0:0:0:
128,192,99432,5,0,0:0:0:0:
136,56,99602,6,0,P|192:56|208:64,1,65,8|0,0:0|0:0,0:0:0:0:
256,136,99941,1,0,0:0:0:0:
312,59,100110,2,0,P|320:56|376:56,1,65,0|8,0:0|0:0,0:0:0:0:
448,128,100449,1,0,0:0:0:0:
352,152,100619,1,0,0:0:0:0:
448,200,100788,6,4,B|424:240|424:240|424:240|448:256|448:256|424:272|424:272|448:288|448:288|424:304|424:304|448:320|448:320|424:336|424:336|448:352|448:352|424:368|424:368|448:384|448:384,1,260
56,176,101466,6,4,B|80:136|80:136|80:136|56:120|56:120|80:104|80:104|56:88|56:88|80:72|80:72|56:56|56:56|80:40|80:40|56:24|56:24|80:8|80:8|56:-8|56:-8,1,260
256,120,101975,5,8,0:0:0:0:
200,216,102144,1,8,0:0:0:0:
312,216,102313,1,8,0:0:0:0:
392,272,102483,5,0,0:0:0:0:
408,176,102652,2,0,P|448:160|456:120,1,65
456,48,102991,1,8,0:0:0:0:
360,48,103161,2,0,B|272:48|248:48|232:72|224:96,1,130
136,72,103669,2,0,B|140:72|124:48|100:48|12:48,1,130,8|0,0:0|0:0,0:0:0:0:
152,264,104178,5,0,0:0:0:0:
256,328,104347,1,8,0:0:0:0:
360,264,104517,1,0,0:0:0:0:
312,152,104686,1,0,0:0:0:0:
200,152,104856,1,0,0:0:0:0:
88,80,105025,6,0,P|128:56|168:48,1,65,8|8,0:0|0:0,0:0:0:0:
368,56,105364,5,8,0:0:0:0:
464,136,105534,1,8,0:0:0:0:
104,256,105873,5,8,0:0:0:0:
168,328,106042,1,8,0:0:0:0:
200,240,106212,1,8,0:0:0:0:
440,288,106551,5,8,0:0:0:0:
160,112,106890,5,8,0:0:0:0:
64,40,107059,1,8,0:0:0:0:
440,288,107398,5,8,0:0:0:0:
440,288,107483,1,8,0:0:0:0:
440,288,107568,1,8,0:0:0:0:
440,288,107652,1,8,0:0:0:0:
440,288,107737,1,8,0:0:0:0:
336,56,108076,6,8,L|392:112,1,65
104,256,108585,5,8,0:0:0:0:
168,328,108754,1,8,0:0:0:0:
200,240,108924,1,8,0:0:0:0:
256,72,109093,5,8,0:0:0:0:
304,32,109178,5,8,0:0:0:0:
360,56,109263,5,8,0:0:0:0:
392,112,109347,5,8,0:0:0:0:
384,176,109432,5,8,0:0:0:0:
368,232,109517,5,8,0:0:0:0:
344,288,109602,5,8,0:0:0:0:
304,336,109686,5,8,0:0:0:0:
256,376,109771,5,8,0:0:0:0:
208,336,109856,5,8,0:0:0:0:
168,288,109941,5,8,0:0:0:0:
144,232,110025,5,8,0:0:0:0:
128,176,110110,5,8,0:0:0:0:
120,112,110195,5,8,0:0:0:0:
152,56,110280,5,8,0:0:0:0:
208,32,110364,5,8,0:0:0:0:
256,192,110449,12,0,113161,0:0:0:0:
