osu file format v12

[General]
AudioFilename: smooooch.mp3
AudioLeadIn: 0
PreviewTime: 22313
Countdown: 0
SampleSet: Normal
StackLeniency: 0.7
Mode: 0
LetterboxInBreaks: 1
WidescreenStoryboard: 0

[Editor]
DistanceSpacing: 0.8
BeatDivisor: 4
GridSize: 8

[Metadata]
Title:smooooch
TitleUnicode:smooooch
Artist:kors k
ArtistUnicode:kors k
Creator:fuji97
Version:Normal
Source:Beatmania IIDX 16 EMPRESS
Tags:candy rave reflec beat plus beat+ rb+
BeatmapID:279716
BeatmapSetID:101645

[Difficulty]
HPDrainRate:2
CircleSize:3
OverallDifficulty:4
ApproachRate:4
SliderMultiplier:1.00000000596046
SliderTickRate:1

[Events]
//Background and Video events
Video,-1389,"video.avi"
0,0,"bg.jpg",0,0
//Break Periods
2,66919,75231
//Storyboard Layer 0 (Background)
//Storyboard Layer 1 (Fail)
//Storyboard Layer 2 (Pass)
//Storyboard Layer 3 (Foreground)
//Storyboard Sound Samples
//Background Colour Transformations
3,100,163,162,255

[TimingPoints]
1975,338.983050847458,4,1,1,100,1,0
23669,-100,4,1,2,60,0,0
76551,-100,4,1,1,80,0,0
78076,-100,4,1,2,60,0,0
87398,-100,4,1,1,80,0,0
88754,-100,4,1,1,80,0,1
89093,-100,4,1,2,60,0,1
105025,-100,4,1,1,100,0,1
110449,-100,4,1,1,60,0,1
113161,-100,4,2,1,15,0,0

[Colours]
Combo1 : 212,212,212
Combo2 : 80,163,254
Combo3 : 255,128,192
Combo4 : 255,255,64
Combo5 : 72,255,72

[HitObjects]
104,128,12822,2,0,L|104:240,1,100.000000596046
256,160,15534,6,0,L|256:232,2,50.000000298023
424,192,18246,5,0,0:0:0:0:
256,192,20958,12,0,22991,0:0:0:0:
128,56,23669,6,0,P|120:96|128:176,1,100.000000596046
216,152,24347,2,0,P|224:112|216:32,1,100.000000596046
312,48,25025,1,0,0:0:0:0:
400,56,25364,2,0,P|392:120|376:168,1,100.000000596046
352,240,26042,2,0,P|280:232|240:232,1,100.000000596046
160,224,26720,1,0,0:0:0:0:
88,168,27059,2,0,P|72:120|72:104,1,50.000000298023
144,64,27568,1,0,0:0:0:0:
280,32,28076,6,0,L|400:32,1,100.000000596046
440,104,28754,2,0,L|320:104,1,100.000000596046
392,184,29432,2,0,L|272:184,1,100.000000596046
304,272,30110,2,0,L|184:272,3,100.000000596046
464,56,31805,6,0,B|440:72|440:72|392:72|392:72|360:96|360:96,1,100.000000596046
312,152,32483,2,0,B|288:184|288:184|256:184|256:184|232:208|232:208,1,100.000000596046
176,272,33161,2,0,L|136:312,4,50.000000298023
264,272,34178,1,0,0:0:0:0:
360,208,34517,6,0,P|344:136|312:112,1,100.000000596046
272,192,35195,1,0,0:0:0:0:
184,176,35534,2,0,P|200:240|240:272,1,100.000000596046
304,264,36212,1,0,0:0:0:0:
384,264,36551,1,0,0:0:0:0:
344,192,36890,1,0,0:0:0:0:
424,192,37229,5,0,0:0:0:0:
392,120,37568,2,0,P|432:56|472:40,2,100.000000596046
312,120,38585,1,0,0:0:0:0:
256,184,38924,1,0,0:0:0:0:
208,248,39263,1,0,0:0:0:0:
152,320,39602,2,0,P|112:304|96:288,2,50.000000298023
240,328,40280,6,0,L|352:328,1,100.000000596046
432,328,40958,1,0,0:0:0:0:
432,240,41297,2,0,P|424:168|408:128,1,100.000000596046
344,200,41975,1,0,0:0:0:0:
344,112,42313,2,0,L|344:48,2,50.000000298023
264,120,42991,2,0,L|264:192,1,50.000000298023
184,120,43500,2,0,L|184:0,1,100.000000596046
104,24,44178,2,0,L|104:136,1,100.000000596046
104,128,44686,2,0,P|128:222|136:238,1,100.000000596046
208,208,45364,5,0,0:0:0:0:
272,160,45703,1,0,0:0:0:0:
336,112,46042,1,0,0:0:0:0:
408,136,46381,1,0,0:0:0:0:
440,208,46720,1,0,0:0:0:0:
392,272,47059,1,0,0:0:0:0:
336,328,47398,2,0,L|384:376,2,50.000000298023
256,336,48076,2,0,P|184:312|152:280,1,100.000000596046
112,240,48754,1,0,0:0:0:0:
136,152,49093,2,0,P|176:88|216:64,1,100.000000596046
224,160,49771,2,0,P|272:136|312:80,1,100.000000596046
112,56,50788,6,0,P|96:128|96:168,1,100.000000596046
184,160,51466,2,0,L|184:96,2,50.000000298023
264,120,52144,2,0,L|264:184|264:232,1,100.000000596046
352,224,52822,2,0,P|360:152|360:104,1,100.000000596046
312,48,53500,5,0,0:0:0:0:
240,80,53839,1,0,0:0:0:0:
184,136,54178,2,0,P|232:184|256:232,1,100.000000596046
312,272,54856,6,0,P|352:296|376:296,6,50.000000298023
384,216,56212,1,0,0:0:0:0:
344,136,56551,1,0,0:0:0:0:
272,88,56890,2,0,P|240:152|224:192,1,100.000000596046
136,176,57568,2,0,P|128:120|112:88,1,75.0000004470345
176,80,58076,2,0,P|224:56|240:56,3,50.000000298023
312,72,58924,2,0,P|352:48|376:48,2,50.000000298023
320,160,59602,2,0,P|368:184|384:184,2,50.000000298023
320,248,60280,2,0,P|256:264|208:264,2,100.000000596046
304,336,61297,2,0,P|264:344|232:344,1,50.000000298023
168,344,61805,6,0,P|136:264|136:232,1,100.000000596046
160,168,62483,2,0,P|224:192|264:192,1,100.000000596046
304,192,62991,1,0,0:0:0:0:
344,120,63330,1,0,0:0:0:0:
264,120,63669,1,0,0:0:0:0:
184,120,64008,1,0,0:0:0:0:
104,120,64347,6,0,P|120:64|144:24,2,100.000000596046
80,208,65364,1,0,0:0:0:0:
72,296,65703,2,0,L|8:304,2,50.000000298023
160,296,66381,2,0,L|216:304,2,50.000000298023
208,136,76551,6,0,P|192:192|208:240,1,100.000000596046
304,136,77229,2,0,P|320:192|304:240,1,100.000000596046
256,304,77907,1,0,0:0:0:0:
168,280,78246,2,0,P|128:264|104:264,2,50.000000298023
168,144,79093,2,0,P|192:104|240:48,1,100.000000596046
312,64,79771,2,0,L|344:120,1,50.000000298023
384,184,80280,2,0,L|448:184,2,50.000000298023
296,184,80958,1,0,0:0:0:0:
208,184,81297,2,0,L|136:184,1,50.000000298023
72,192,81805,1,0,0:0:0:0:
152,80,82313,5,0,0:0:0:0:
232,80,82652,1,0,0:0:0:0:
304,112,82991,1,0,0:0:0:0:
352,176,83330,1,0,0:0:0:0:
328,256,83669,2,0,L|400:272,2,50.000000298023
216,216,84517,2,0,P|152:192|112:160,1,100.000000596046
136,96,85195,2,0,L|208:96,1,50.000000298023
304,320,86042,6,0,L|192:320,1,100.000000596046
256,248,86720,2,0,L|144:248,1,100.000000596046
136,160,87398,1,0,0:0:0:0:
136,72,87737,1,0,0:0:0:0:
216,120,88076,1,0,0:0:0:0:
304,120,88415,2,0,L|368:120,2,50.000000298023
304,208,89093,5,0,0:0:0:0:
248,264,89432,1,0,0:0:0:0:
192,208,89771,1,0,0:0:0:0:
136,152,90110,1,0,0:0:0:0:
200,104,90449,1,0,0:0:0:0:
264,56,90788,1,0,0:0:0:0:
320,112,91127,2,0,L|368:160,2,50.000000298023
296,200,91805,1,0,0:0:0:0:
296,288,92144,2,0,L|240:288,1,50.000000298023
160,288,92652,1,0,0:0:0:0:
192,160,93161,6,0,B|240:88|280:96|312:80|352:112|368:144|328:176|336:200|320:216|288:232|256:208|256:208|256:208,1,300.000001788138
192,256,94517,2,0,L|128:288,2,50.000000298023
192,120,95364,2,0,P|208:64|256:48,1,100.000000596046
336,48,96042,2,0,L|408:48,1,50.000000298023
400,208,96890,1,0,0:0:0:0:
320,208,97229,1,0,0:0:0:0:
240,208,97568,1,0,0:0:0:0:
160,208,97907,1,0,0:0:0:0:
80,208,98246,2,0,L|80:272,4,50.000000298023
328,96,99602,6,0,P|352:192|328:288,1,200.000001192092
184,96,100958,2,0,P|160:192|184:288,1,200.000001192092
160,80,102313,2,0,P|256:56|352:80,1,200.000001192092
160,296,103669,2,0,P|256:320|352:296,1,200.000001192092
256,152,105025,5,0,0:0:0:0:
256,232,105364,2,0,L|256:288,1,50.000000298023
176,288,105873,2,0,P|160:224|168:192,1,100.000000596046
192,112,106551,1,0,0:0:0:0:
272,112,106890,2,0,L|336:112,1,50.000000298023
344,192,107398,5,0,0:0:0:0:
264,192,107737,1,0,0:0:0:0:
184,192,108076,2,0,L|120:192,1,50.000000298023
128,272,108585,2,0,L|248:272,1,100.000000596046
312,272,109263,1,0,0:0:0:0:
392,272,109602,2,0,L|392:208,1,50.000000298023
392,144,110110,1,0,0:0:0:0:
392,64,110449,1,0,0:0:0:0:
