osu file format v12

[General]
AudioFilename: kors k - smooooch.mp3
AudioLeadIn: 0
PreviewTime: 22893
Countdown: 0
SampleSet: Normal
StackLeniency: 0.5
Mode: 0
LetterboxInBreaks: 0
WidescreenStoryboard: 0

[Editor]
Bookmarks: 1199,12046,14758,17470,20182,21537,22893,33741,44588,55436,66283,77131,87978,98826,109673
DistanceSpacing: 1
BeatDivisor: 2
GridSize: 4

[Metadata]
Title:smooooch
TitleUnicode:smooooch ・∀・
Artist:kors k
ArtistUnicode:kors k
Creator:ampzz
Version:Normal
Source:beatmania IIDX
Tags:Empress candy rave konami bemani kosuke saito maya galvenize happy30 kinomicandy
BeatmapID:200741
BeatmapSetID:64535

[Difficulty]
HPDrainRate:4
CircleSize:3
OverallDifficulty:3
ApproachRate:4
SliderMultiplier:1
SliderTickRate:1

[Events]
//Background and Video events
0,0,"kors k - smooooch - Background.jpg",0,0
//Break Periods
2,66483,74335
//Storyboard Layer 0 (Background)
//Storyboard Layer 1 (Fail)
//Storyboard Layer 2 (Pass)
//Storyboard Layer 3 (Foreground)
//Storyboard Sound Samples
//Background Colour Transformations
3,100,0,0,0

[TimingPoints]
1199,338.983050847458,4,2,0,100,1,0
21537,-133.333333333333,4,2,0,70,0,0
22554,-133.333333333333,4,2,0,100,0,0
22893,-100,4,2,0,100,0,0
33402,-100,4,1,0,60,0,0
44588,-100,4,1,0,50,0,1
44673,-100,4,1,0,45,0,0
49673,-100,4,1,0,50,0,0
49758,-100,4,1,0,45,0,0
65944,-100,4,1,0,100,0,0
66283,-100,4,1,0,60,0,0
75775,-100,4,1,0,40,0,0
76453,-100,4,1,0,60,0,0
77131,-100,4,2,0,100,0,0
86622,-100,4,1,0,45,0,0
87639,-100,4,1,0,70,0,0
87978,-100,4,1,0,50,0,0
96283,-100,4,1,0,60,0,0
98826,-100,4,1,0,55,0,1
109673,-100,4,1,0,75,0,0

[Colours]
Combo1 : 0,255,255
Combo2 : 255,0,255
Combo3 : 0,128,255
Combo4 : 255,255,0
Combo5 : 255,255,255

[HitObjects]
48,76,12046,1,4,1:0:0:0:
68,172,12385,1,4,0:0:0:0:
164,140,12724,6,0,P|260:116|364:132,1,200,0|2,0:0|0:0,0:0:0:0:
452,172,13741,2,0,L|408:380,1,200
310,373,14758,5,4,1:0:0:0:
320,324,14927,1,0,1:0:0:0:
332,275,15097,1,4,0:0:0:0:
272,196,15436,6,0,P|220:244|124:168,1,200,0|2,0:0|0:0,0:0:0:0:
164,92,16453,2,0,L|372:60,1,200,0|0,0:0|0:0,0:0:0:0:
460,48,17470,5,4,1:0:0:0:
300,168,18148,6,0,P|252:220|328:316,1,200,0|2,0:0|0:0,0:0:0:0:
400,360,19165,2,0,L|440:160,1,200
372,88,20182,5,0,0:0:0:0:
204,196,20860,1,0,0:0:0:0:
312,364,21537,2,2,L|348:216,1,150.000005722046,4|0,1:0|1:0,0:0:0:0:
400,24,22893,5,4,1:0:0:0:
472,92,23232,1,2,0:0:0:0:
464,192,23571,2,0,L|304:232,1,150,0|2,1:0|0:0,0:0:0:0:
256,152,24419,2,0,P|208:132|156:120,1,100,2|2,0:0|0:0,0:0:0:0:
132,112,24927,1,0,1:0:0:0:
40,156,25266,5,2,0:0:0:0:
80,248,25605,1,0,1:0:0:0:
172,212,25944,1,2,0:0:0:0:
244,284,26283,1,0,1:0:0:0:
260,308,26453,2,0,P|312:324|376:332,1,100
484,252,27300,2,0,P|424:244|368:228,1,100,2|0,0:0|1:0,0:0:0:0:
380,136,27978,1,2,0:0:0:0:
476,160,28317,5,0,1:0:0:0:
408,360,28995,2,0,L|264:320,1,150,0|2,1:0|0:0,0:0:0:0:
180,264,29843,1,2,0:0:0:0:
260,204,30182,1,2,0:0:0:0:
280,192,30351,2,0,P|304:104|304:40,1,150,0|0,1:0|0:0,0:0:0:0:
328,32,31029,6,0,L|436:52,1,100,4|0,2:2|0:0,0:0:0:0:
464,144,31707,1,4,2:2:0:0:
320,284,32385,1,4,0:0:0:0:
304,184,32724,1,4,0:0:0:0:
400,204,33063,1,4,0:0:0:0:
424,300,33402,1,4,2:0:0:0:
364,380,33741,5,0,0:0:0:0:
344,364,33910,2,0,P|280:348|240:344,1,100,0|2,0:0|0:0,0:0:0:0:
188,264,34588,2,0,P|252:248|292:244,1,100,0|2,0:0|0:0,0:0:0:0:
324,152,35266,2,0,P|260:136|220:132,1,100,0|2,0:0|0:0,0:0:0:0:
128,148,35944,1,0,0:0:0:0:
64,72,36283,5,0,0:0:0:0:
44,84,36453,2,0,P|8:164|4:244,1,150,0|2,0:0|0:0,0:0:0:0:
48,316,37300,1,2,0:0:0:0:
140,356,37639,2,0,P|176:276|180:196,1,150,0|2,0:0|0:0,0:0:0:0:
280,196,38487,1,0,0:0:0:0:
376,172,38826,1,2,0:0:0:0:
476,160,39165,5,4,0:0:0:0:
460,180,39334,2,0,P|444:244|440:284,1,100,0|2,0:0|0:0,0:0:0:0:
352,228,40012,2,0,P|348:194|332:130,1,100,0|2,0:0|0:0,0:0:0:0:
252,192,40690,2,0,P|236:256|232:296,1,100,0|2,0:0|0:0,0:0:0:0:
156,224,41368,2,0,P|152:190|136:126,1,100,0|2,0:0|0:0,0:0:0:0:
124,104,41876,5,4,0:2:0:0:
40,156,42215,2,0,L|32:220,1,50,0|4,0:0|0:2,0:0:0:0:
36,304,42724,1,4,0:2:0:0:
108,372,43063,1,4,0:2:0:0:
204,340,43402,1,0,0:0:0:0:
228,244,43741,2,0,B|272:184|304:224|360:148,1,150
416,88,44588,5,4,0:0:0:0:
504,136,44927,1,8,0:0:0:0:
512,236,45266,1,0,0:0:0:0:
424,284,45605,1,8,0:0:0:0:
344,224,45944,2,0,P|272:196|196:332,1,250
200,340,46961,1,0,0:0:0:0:
100,328,47300,6,0,P|84:268|68:224,3,100,0|8|0|8,0:0|0:0|0:0|0:0,0:0:0:0:
28,144,48656,1,0,0:0:0:0:
92,68,48995,2,0,P|132:140|168:252,1,200,8|8,0:0|0:0,0:0:0:0:
264,276,50012,5,0,0:0:0:0:
360,248,50351,1,8,0:1:0:0:
460,268,50690,2,0,P|476:200|500:160,1,100,0|8,0:0|0:0,0:0:0:0:
432,92,51368,2,0,P|380:188|372:352,1,250
376,348,52385,1,8,0:0:0:0:
280,372,52724,5,0,0:0:0:0:
208,304,53063,1,8,0:0:0:0:
196,204,53402,1,0,0:0:0:0:
260,124,53741,1,8,0:0:0:0:
360,108,54080,2,0,L|420:128,6,50,0|0|8|0|0|0|12,0:0|0:0|0:0|0:0|0:0|0:0|0:0,0:0:0:0:
328,204,55436,6,0,L|308:312,1,100,2|2,0:0|0:0,0:0:0:0:
223,353,56114,1,0,0:0:0:0:
124,338,56453,1,2,0:0:0:0:
49,271,56792,2,0,P|55:199|81:99,2,150,4|4|4,0:0|0:0|0:0,0:0:0:0:
144,239,58148,6,0,B|216:215|276:271|348:227,1,200,2|2,0:0|0:0,0:0:0:0:
393,146,59165,1,2,0:0:0:0:
468,220,59504,2,0,P|492:296|500:392,2,150,4|4|4,0:0|0:0|0:0,0:0:0:0:
372,252,60860,6,0,L|260:300,1,100,4|2,0:0|0:0,0:0:0:0:
204,228,61537,2,0,L|316:180,1,100,0|2,0:0|0:0,0:0:0:0:
300,88,62215,2,0,L|144:156,2,150
392,48,63571,5,4,0:0:0:0:
444,240,64249,1,0,0:0:0:0:
268,332,64927,1,0,0:0:0:0:
212,248,65266,1,0,0:0:0:0:
220,148,65605,1,0,0:0:0:0:
308,96,65944,5,4,2:2:0:0:
324,196,66283,1,4,0:0:0:0:
108,340,75775,5,0,0:0:0:0:
108,340,76453,1,0,0:0:0:0:
108,340,77131,6,0,P|196:352|212:364,1,100,4|2,0:0|0:0,0:0:0:0:
284,300,77809,2,0,P|291:295|379:283,1,100,0|2,0:0|0:0,0:0:0:0:
227,223,78487,2,0,P|219:218|131:206,1,100,0|2,0:0|0:0,0:0:0:0:
31,223,79165,2,0,P|-9:135|15:23,1,200
96,80,80182,5,2,0:0:0:0:
188,120,80521,2,0,L|216:348,1,200
312,336,81537,2,0,P|368:356|416:336,2,100,2|0|2,0:0|0:0|0:0,0:0:0:0:
288,240,82554,5,4,0:0:0:0:
272,140,82893,2,0,L|372:156,1,100,2|0,0:0|0:0,0:0:0:0:
439,249,83571,2,0,L|339:233,1,100,2|4,0:0|0:2,0:0:0:0:
236,300,84249,2,0,L|336:316,2,100,2|0|2,0:2|0:0|0:2,0:0:0:0:
136,280,85266,5,4,2:2:0:0:
60,96,85944,1,4,2:0:0:0:
248,12,86622,5,2,0:0:0:0:
328,100,86961,1,2,0:0:0:0:
212,136,87300,1,2,0:0:0:0:
284,244,87639,1,0,0:0:0:0:
276,280,87809,1,0,0:0:0:0:
264,312,87978,6,0,L|156:332,2,100,4|2|2,0:0|0:0|0:0,0:0:0:0:
364,300,88995,1,0,0:0:0:0:
388,312,89165,2,0,L|496:292,1,100,2|2,0:0|0:0,0:0:0:0:
504,196,89843,1,2,0:0:0:0:
484,184,90012,2,0,P|432:212|376:204,1,100,2|2,0:0|0:0,0:0:0:0:
320,140,90690,5,2,0:0:0:0:
268,224,91029,1,0,0:0:0:0:
260,324,91368,2,2,L|276:372,1,50,2|0,0:0|0:0,0:0:0:0:
363,284,91876,2,0,L|315:124,1,150,2|2,0:0|0:0,0:0:0:0:
228,68,92724,1,2,0:0:0:0:
116,108,93063,1,2,0:0:0:0:
76,220,93402,6,0,P|136:284|252:256,1,200,6|2,0:0|0:0,0:0:0:0:
384,164,94588,1,2,0:0:0:0:
428,252,94927,1,2,0:0:0:0:
480,336,95266,1,2,0:0:0:0:
480,336,95436,1,0,0:0:0:0:
308,232,96114,6,0,L|248:108,1,100,6|2,0:0|0:0,0:0:0:0:
192,212,96792,2,0,P|140:212|88:240,1,100,6|2,0:0|0:0,0:0:0:0:
8,188,97470,1,6,0:0:0:0:
32,92,97809,2,0,L|44:28,2,50,2|6|6,0:0|0:0|0:0,0:0:0:0:
148,356,98826,5,4,0:0:0:0:
168,340,98995,2,0,P|232:324|272:320,1,100,0|2,0:0|0:0,0:0:0:0:
324,240,99673,2,0,P|260:224|220:220,1,100,0|2,0:0|0:0,0:0:0:0:
188,128,100351,2,0,P|252:112|292:108,1,100,0|2,0:0|0:0,0:0:0:0:
384,148,101029,1,0,0:0:0:0:
448,72,101368,5,0,0:0:0:0:
468,84,101538,2,0,P|504:164|508:244,1,150,2|2,0:0|0:0,0:0:0:0:
464,316,102385,1,2,0:0:0:0:
372,356,102724,2,0,P|336:276|332:196,1,150,0|2,0:0|0:0,0:0:0:0:
344,116,103572,1,0,0:0:0:0:
248,136,103911,1,6,0:0:0:0:
192,216,104250,5,0,0:0:0:0:
180,236,104419,2,0,P|116:252|76:256,1,100,0|2,0:0|0:0,0:0:0:0:
112,144,105097,1,0,0:0:0:0:
136,124,105266,1,0,0:0:0:0:
160,104,105436,1,2,0:0:0:0:
288,184,105775,2,0,P|304:248|308:288,1,100,0|2,0:0|0:0,0:0:0:0:
304,308,106283,1,0,0:0:0:0:
220,360,106622,1,0,0:0:0:0:
144,296,106961,5,6,0:1:0:0:
192,208,107300,2,0,L|200:144,1,50,0|6,0:0|0:1,0:0:0:0:
104,128,107809,2,0,L|112:64,2,50,0|0|2,0:0|0:0|0:0,0:0:0:0:
256,192,108317,12,4,109673,0:0:0:0:
