osu file format v12

[General]
AudioFilename: kors k - smooooch.mp3
AudioLeadIn: 0
PreviewTime: 22893
Countdown: 0
SampleSet: Soft
StackLeniency: 0.6
Mode: 0
LetterboxInBreaks: 0

[Editor]
Bookmarks: 1199,12046,14758,17470,20182,21537,22893,33741,44588,55436,66283,77131,83232,87978,98826,109673
DistanceSpacing: 1.2
BeatDivisor: 4
GridSize: 4

[Metadata]
Title:smooooch
TitleUnicode:smooooch ・∀・
Artist:kors k
ArtistUnicode:kors k
Creator:ampzz
Version:Hypernize
Source:beatmania IIDX
Tags:Empress candy rave konami bemani kosuke saito maya galvenize happy30 kinomicandy
BeatmapID:191540
BeatmapSetID:64535

[Difficulty]
HPDrainRate:6
CircleSize:4
OverallDifficulty:6
ApproachRate:8
SliderMultiplier:1.4
SliderTickRate:2

[Events]
//Background and Video events
0,0,"kors k - smooooch - Background.jpg",0,0
//Break Periods
2,12584,13669
2,15297,16381
2,66482,75025
//Storyboard Layer 0 (Background)
//Storyboard Layer 1 (Fail)
//Storyboard Layer 2 (Pass)
//Storyboard Layer 3 (Foreground)
//Storyboard Sound Samples
//Background Colour Transformations
3,100,0,0,0

[TimingPoints]
1199,338.983050847458,4,2,0,100,1,0
33402,-100,4,1,0,50,0,0
44588,-100,4,1,0,50,0,1
44673,-100,4,1,0,45,0,0
49673,-90.9090909090909,4,1,0,50,0,0
49758,-100,4,1,0,45,0,0
65944,-100,4,1,0,70,0,0
66283,-100,4,1,0,60,0,0
75775,-100,4,1,0,40,0,0
76453,-100,4,1,0,60,0,0
77131,-100,4,2,0,100,0,0
83910,-100,4,1,0,50,0,0
85266,-100,4,1,0,55,0,0
86622,-100,4,1,0,45,0,0
87639,-100,4,1,0,70,0,0
87978,-100,4,1,0,50,0,0
96283,-100,4,1,0,60,0,0
98826,-100,4,1,0,55,0,1
108995,-100,4,1,0,40,0,1
109165,-100,4,1,0,75,0,1
109334,-100,4,1,0,40,0,1
109504,-100,4,1,0,75,0,1
109673,-100,4,1,0,75,0,0
112385,-100,4,2,0,5,0,0

[Colours]
Combo1 : 0,255,255
Combo2 : 255,0,255
Combo3 : 0,128,255
Combo4 : 255,255,0
Combo5 : 255,255,255

[HitObjects]
84,92,12046,2,4,P|160:80|224:88,1,140
428,168,14419,6,0,P|388:176|344:164,1,70
280,148,14758,1,4,0:0:0:0:
196,152,14927,1,4,0:0:0:0:
120,188,15097,1,4,0:0:0:0:
76,276,17131,6,0,P|120:272|168:272,1,70
228,276,17470,2,0,P|292:288|372:264,2,140,4|2|2,0:0|0:0|0:0,0:0:0:0:
204,196,18317,1,0,0:0:0:0:
252,128,18487,2,0,P|284:104|328:104,1,70,2|0,0:0|0:0,0:0:0:0:
396,100,18826,2,0,B|480:100|500:20,2,140,2|2|2,0:0|0:0|0:0,0:0:0:0:
316,76,19673,1,2,0:0:0:0:
240,40,19843,6,0,P|232:76|248:120,1,70,0|0,0:0|0:0,0:0:0:0:
292,176,20182,2,0,L|308:212,7,35,2|0|0|0|2|0|2|0,0:0|0:0|0:0|0:0|0:0|0:0|0:0|0:0,0:0:0:0:
264,212,20860,2,0,L|272:268,7,35,0|0|2|0|2|0|0|0,0:0|0:0|0:0|0:0|0:0|0:0|0:0|0:0,0:0:0:0:
256,192,21537,12,0,22554,0:0:0:0:
164,188,22893,6,0,P|148:264|200:324,1,140,4|2,0:0|0:0,0:0:0:0:
256,352,23402,1,0,0:0:0:0:
331,312,23571,2,0,P|363:263|347:187,1,140,2|0,0:0|0:0,0:0:0:0:
256,120,24080,6,0,B|236:192|272:192|256:284,2,140,2|2|2,0:0|0:0|0:0,0:0:0:0:
256,36,24927,1,2,0:0:0:0:
184,76,25097,1,0,0:0:0:0:
184,76,25182,1,0,0:0:0:0:
184,76,25266,2,0,L|96:76,1,70,2|2,0:0|0:0,0:0:0:0:
44,124,25605,6,0,P|88:192|56:264,1,140,2|2,0:0|0:0,0:0:0:0:
36,320,26114,1,0,0:0:0:0:
73,244,26283,2,0,L|148:276,1,70,0|2,0:0|0:0,0:0:0:0:
220,300,26622,1,0,0:0:0:0:
300,320,26792,2,0,P|344:248|316:184,1,140,2|0,0:0|0:0,0:0:0:0:
329,199,27215,1,0,0:0:0:0:
329,199,27300,1,2,0:0:0:0:
312,116,27470,6,0,P|348:104|388:116,1,70,2|2,0:0|0:0,0:0:0:0:
436,172,27809,2,0,P|448:208|436:248,1,70,2|2,0:0|0:0,0:0:0:0:
392,308,28148,1,2,0:0:0:0:
392,308,28232,1,0,0:0:0:0:
392,308,28317,2,0,P|328:324|256:296,1,140,2|2,0:0|0:0,0:0:0:0:
188,256,28826,1,2,0:0:0:0:
124,200,28995,6,0,P|104:128|132:64,1,140,2|0,0:0|0:0,0:0:0:0:
127,69,29419,1,0,0:0:0:0:
127,69,29504,6,0,P|168:80|200:80,1,70,2|0,0:0|0:0,0:0:0:0:
384,69,29843,2,0,P|344:80|312:80,1,70,2|0,0:0|0:0,0:0:0:0:
256,20,30182,1,2,0:0:0:0:
256,20,30351,2,0,B|240:64|272:120|248:176,1,140,2|0,0:0|0:0,0:0:0:0:
256,328,31029,5,4,0:0:0:0:
188,376,31199,1,2,0:0:0:0:
116,332,31368,1,2,0:0:0:0:
188,288,31537,1,2,0:0:0:0:
256,328,31707,5,4,0:0:0:0:
324,376,31877,1,2,0:0:0:0:
396,332,32046,1,2,0:0:0:0:
324,288,32215,1,2,0:0:0:0:
256,328,32385,6,0,L|172:344,1,70,4|0,0:0|0:0,0:0:0:0:
256,220,32724,2,0,L|340:236,1,70,4|0,0:0|0:0,0:0:0:0:
256,108,33063,2,0,L|172:124,1,70,4|0,0:0|0:0,0:0:0:0:
104,132,33402,1,8,0:0:0:0:
100,140,33487,1,0,0:0:0:0:
96,148,33571,1,8,0:0:0:0:
92,156,33656,1,0,0:0:0:0:
88,164,33741,6,0,P|80:216|84:252,2,70,2|0|8,0:0|0:0|0:0,0:0:0:0:
164,204,34249,2,0,L|192:128,1,70,2|0,0:0|0:0,0:0:0:0:
248,28,34588,2,0,L|272:104,1,70,2|8,0:0|0:0,0:0:0:0:
276,208,34927,2,2,P|360:192|416:200,1,140,2|2,0:0|0:0,0:0:0:0:
496,220,35436,5,8,0:0:0:0:
480,140,35605,1,2,0:0:0:0:
496,220,35775,1,2,0:0:0:0:
452,292,35944,1,0,0:0:0:0:
496,220,36114,5,10,0:0:0:0:
412,208,36283,1,2,0:0:0:0:
328,228,36453,2,0,P|292:240|248:240,1,70,2|0,0:0|0:0,0:0:0:0:
176,224,36792,1,8,0:0:0:0:
108,172,36961,2,0,P|128:144|168:120,1,70,2|0,0:0|0:0,0:0:0:0:
220,68,37300,2,0,P|200:40|152:4,2,70,2|8|2,0:0|0:0|0:0,0:0:0:0:
284,124,37809,5,2,0:0:0:0:
340,184,37978,1,0,0:0:0:0:
404,128,38148,1,10,0:0:0:0:
348,68,38317,1,2,0:0:0:0:
284,124,38487,2,0,P|232:184|188:236,1,140,2|10,0:0|0:0,0:0:0:0:
136,292,38995,1,0,0:0:0:0:
64,248,39165,5,6,0:0:0:0:
64,248,39334,2,2,L|52:180,1,70,0|8,0:0|0:0,0:0:0:0:
124,104,39673,2,0,L|136:172,1,70,2|0,0:0|0:0,0:0:0:0:
164,276,40012,2,0,L|260:288,1,70,2|8,0:0|0:0,0:0:0:0:
320,224,40351,6,0,L|416:236,2,70,2|2|2,0:0|0:0|0:0,0:0:0:0:
236,212,40860,1,8,0:0:0:0:
156,192,41029,2,0,P|116:128|156:64,1,140,2|2,0:0|0:0,0:0:0:0:
200,24,41537,1,2,0:0:0:0:
280,48,41707,1,8,0:0:0:0:
360,72,41876,5,12,0:0:0:0:
476,192,42215,1,14,0:0:0:0:
476,192,42385,1,8,0:0:0:0:
448,100,42724,5,10,0:0:0:0:
400,152,43063,1,6,0:0:0:0:
352,200,43402,1,14,0:0:0:0:
300,248,43741,1,6,0:0:0:0:
300,248,43910,2,0,L|300:320,2,70,2|2|2,0:0|0:0|0:0,0:0:0:0:
256,104,44588,5,8,0:0:0:0:
184,60,44758,1,0,0:0:0:0:
256,20,44927,1,8,0:0:0:0:
256,20,45097,1,0,0:0:0:0:
332,56,45266,1,8,0:0:0:0:
256,104,45436,1,0,0:0:0:0:
256,104,45605,1,8,0:0:0:0:
100,168,45944,6,0,L|184:188,1,70,8|0,0:0|0:0,0:0:0:0:
196,196,46199,2,0,P|216:228|220:272,1,70,8|0,0:0|0:0,0:0:0:0:
224,288,46453,2,0,P|264:308|296:308,1,70,8|8,0:0|0:0,0:0:0:0:
372,304,46792,1,8,0:0:0:0:
448,272,46961,1,12,0:0:0:0:
408,108,47300,5,2,0:0:0:0:
340,156,47470,1,0,0:0:0:0:
340,156,47639,1,2,0:0:0:0:
296,84,47809,1,0,0:0:0:0:
364,32,47978,1,2,0:0:0:0:
364,32,48148,1,0,0:0:0:0:
408,108,48317,6,0,P|432:156|432:188,1,70,2|0,0:0|0:0,0:0:0:0:
433,171,48571,1,0,0:0:0:0:
433,171,48656,1,2,0:0:0:0:
444,256,48826,2,0,L|368:264,1,70,2|2,0:0|0:0,0:0:0:0:
300,224,49165,2,0,L|232:256,1,70,0|2,0:0|0:0,0:0:0:0:
160,284,49504,1,8,0:0:0:0:
160,284,49673,1,12,0:0:0:0:
52,192,50012,6,0,P|40:152|48:112,1,70,2|0,0:0|0:0,0:0:0:0:
112,76,50351,2,0,P|124:116|116:156,1,70,2|0,0:0|0:0,0:0:0:0:
52,192,50690,5,2,0:0:0:0:
36,108,50860,1,2,0:0:0:0:
112,76,51029,2,0,L|192:76,1,70,2|0,0:0|0:0,0:0:0:0:
268,76,51368,6,0,P|260:120|272:156,1,70,8|0,0:0|0:0,0:0:0:0:
280,184,51622,2,0,L|364:168,1,70,8|0,0:0|0:0,0:0:0:0:
392,164,51876,2,0,P|412:200|404:240,1,70,8|8,0:0|0:0,0:0:0:0:
388,308,52215,1,8,0:0:0:0:
304,320,52385,1,8,0:0:0:0:
136,340,52724,6,0,P|140:292|144:256,1,70,2|0,0:0|0:0,0:0:0:0:
152,188,53063,1,2,0:0:0:0:
96,124,53232,2,0,P|64:160|64:200,1,70,0|2,0:0|0:0,0:0:0:0:
152,188,53571,2,0,L|228:188,2,70,0|2|0,0:0|0:0|0:0,0:0:0:0:
184,108,54080,5,12,0:0:0:0:
184,108,54249,1,8,0:0:0:0:
256,64,54419,1,8,0:0:0:0:
256,64,54588,1,8,0:0:0:0:
328,108,54758,1,8,0:0:0:0:
328,108,54927,1,8,0:0:0:0:
256,152,55097,2,0,L|256:304,1,140,12|4,0:0|0:0,0:0:0:0:
152,212,55775,5,2,0:0:0:0:
360,212,56114,1,2,0:0:0:0:
152,212,56453,1,2,0:0:0:0:
360,212,56792,6,0,P|328:240|328:288,1,70,8|0,0:0|0:0,0:0:0:0:
328,308,57046,2,0,P|356:340|404:340,1,70,8|0,0:0|0:0,0:0:0:0:
424,340,57300,2,0,P|456:312|456:264,2,70,8|8|8,0:0|0:0|0:0,0:0:0:0:
392,276,57809,5,12,0:0:0:0:
360,112,58148,6,4,P|296:148|348:180,1,140,2|12,0:0|0:0,0:0:0:0:
152,272,58826,2,0,P|216:236|164:204,1,140,2|8,0:0|0:0,0:0:0:0:
52,104,59504,5,8,0:0:0:0:
52,104,59588,2,0,P|124:92|172:96,1,105,8|8,0:0|0:0,0:0:0:0:
240,104,60012,1,12,0:0:0:0:
320,128,60182,1,12,0:0:0:0:
400,152,60351,1,8,0:0:0:0:
400,152,60436,1,8,0:0:0:0:
400,152,60521,2,0,L|424:144,8,17.5,0|0|0|0|0|0|0|0|4,0:0|0:0|0:0|0:0|0:0|0:0|0:0|0:0|0:0,0:0:0:0:
316,300,61199,5,2,0:0:0:0:
148,300,61537,1,2,0:0:0:0:
316,300,61876,1,2,0:0:0:0:
148,300,62215,6,0,L|152:216,1,70,12|0,0:0|0:0,0:0:0:0:
152,188,62470,1,8,0:0:0:0:
156,104,62639,1,0,0:0:0:0:
156,104,62724,1,8,0:0:0:0:
164,20,62893,2,0,P|232:12|264:8,2,70,12|0|4,0:0|0:0|0:0,0:0:0:0:
324,88,63571,5,2,0:0:0:0:
404,60,63741,1,8,0:0:0:0:
436,140,63910,1,2,0:0:0:0:
356,164,64080,1,8,0:0:0:0:
324,88,64249,5,2,0:0:0:0:
316,92,64334,1,0,0:0:0:0:
308,96,64419,1,0,0:0:0:0:
300,100,64504,1,0,0:0:0:0:
292,104,64588,2,0,L|264:176,1,70,2|0,0:0|0:0,0:0:0:0:
240,248,64927,5,12,0:0:0:0:
272,328,65097,1,8,0:0:0:0:
188,312,65266,5,8,0:0:0:0:
156,236,65436,1,8,0:0:0:0:
292,180,65605,5,8,0:0:0:0:
324,256,65775,1,8,0:0:0:0:
240,248,65944,6,0,P|215:183|236:119,1,140,4|4,0:0|0:0,0:0:0:0:
256,192,75775,12,4,76792,0:0:0:0:
256,60,77131,6,0,L|176:84,1,70,2|0,0:0|0:0,0:0:0:0:
196,164,77470,2,0,L|116:188,1,70,2|2,0:0|0:0,0:0:0:0:
48,208,77809,2,0,P|20:280|48:344,1,140,2|0,0:0|0:0,0:0:0:0:
120,312,78317,2,0,L|196:340,1,70,2|0,0:0|0:0,0:0:0:0:
260,296,78656,2,0,P|328:272|400:288,1,140,2|2,0:0|0:0,0:0:0:0:
472,320,79165,2,0,L|472:240,1,70,2|2,0:0|0:0,0:0:0:0:
472,240,79419,1,0,0:0:0:0:
472,228,79504,5,2,0:0:0:0:
428,156,79673,1,2,0:0:0:0:
356,200,79843,2,0,P|284:220|216:192,1,140,2|2,0:0|0:0,0:0:0:0:
156,148,80351,1,0,0:0:0:0:
92,204,80521,2,0,L|104:284,1,70,2|2,0:0|0:0,0:0:0:0:
116,356,80860,1,0,0:0:0:0:
192,320,81029,2,0,P|256:292|324:304,1,140,2|0,0:0|0:0,0:0:0:0:
340,312,81453,1,0,0:0:0:0:
356,320,81537,6,0,L|424:304,1,70,2|2,0:0|0:0,0:0:0:0:
464,208,81876,2,0,L|384:216,2,70,2|2|2,0:0|0:0|0:0,0:0:0:0:
492,128,82385,1,2,0:0:0:0:
492,128,82470,1,0,0:0:0:0:
492,128,82554,6,0,P|416:108|352:124,1,140,6|2,0:0|0:0,0:0:0:0:
284,164,83063,1,2,0:0:0:0:
216,216,83232,2,0,P|140:236|76:220,1,140,2|2,0:0|0:0,0:0:0:0:
64,216,83656,1,0,0:0:0:0:
48,208,83741,6,0,P|68:176|68:136,1,70,2|0,0:0|0:0,0:0:0:0:
120,32,84080,2,0,P|124:72|160:108,1,70,2|0,0:0|0:0,0:0:0:0:
220,140,84419,1,2,0:0:0:0:
220,140,84588,2,0,P|296:131|364:188,1,140,2|0,0:0|0:0,0:0:0:0:
140,336,85266,5,2,0:0:0:0:
66,298,85436,1,0,0:0:0:0:
108,224,85605,1,2,0:0:0:0:
184,260,85775,1,0,0:0:0:0:
144,351,85944,5,6,0:0:0:0:
51,303,86114,1,2,0:0:0:0:
103,209,86283,1,2,0:0:0:0:
200,256,86453,1,2,0:0:0:0:
128,284,86622,5,14,0:0:0:0:
256,84,86961,1,8,0:0:0:0:
384,284,87300,1,8,0:0:0:0:
256,84,87639,5,4,0:0:0:0:
256,168,87809,1,0,0:0:0:0:
256,252,87978,2,0,P|192:280|124:252,1,140,2|2,0:0|0:0,0:0:0:0:
76,192,88487,1,2,0:0:0:0:
128,128,88656,2,0,P|192:100|260:128,1,140,2|0,0:0|0:0,0:0:0:0:
316,180,89165,6,0,L|388:168,1,70,2|0,0:0|0:0,0:0:0:0:
428,244,89504,2,0,L|356:256,1,70,2|0,0:0|0:0,0:0:0:0:
276,264,89843,1,2,0:0:0:0:
200,232,90012,1,2,0:0:0:0:
120,260,90182,1,0,0:0:0:0:
120,260,90266,1,0,0:0:0:0:
120,260,90351,2,0,L|144:336,1,70,2|2,0:0|0:0,0:0:0:0:
200,232,90690,6,0,L|176:156,1,70,2|0,0:0|0:0,0:0:0:0:
180,80,91029,1,2,0:0:0:0:
256,44,91199,1,0,0:0:0:0:
332,80,91368,2,0,L|420:80,2,70,2|2|0,0:0|0:0|0:0,0:0:0:0:
256,116,91876,2,2,P|236:192|264:248,1,140,2|0,0:0|0:0,0:0:0:0:
268,260,92300,1,0,0:0:0:0:
276,272,92385,5,2,0:0:0:0:
332,208,92554,1,2,0:0:0:0:
412,240,92724,1,2,0:0:0:0:
404,324,92893,1,2,0:0:0:0:
320,340,93063,2,0,L|244:364,1,70,2|0,0:0|0:0,0:0:0:0:
244,360,93317,1,0,0:0:0:0:
228,360,93402,38,0,P|152:340|84:356,1,140,6|2,0:0|0:0,0:0:0:0:
60,272,93910,1,2,0:0:0:0:
128,220,94080,2,0,L|108:144,1,70,2|0,0:0|0:0,0:0:0:0:
92,72,94419,1,0,0:0:0:0:
92,72,94504,1,0,0:0:0:0:
92,72,94588,2,0,P|168:80|240:56,2,140,2|2|2,0:0|0:0|0:0,0:0:0:0:
40,140,95436,6,0,P|40:180|28:224,1,70,2|0,0:0|0:0,0:0:0:0:
96,312,95775,2,0,P|104:272|120:240,1,70,0|2,0:0|0:0,0:0:0:0:
168,176,96114,5,12,0:0:0:0:
244,140,96283,1,0,0:0:0:0:
328,148,96453,1,8,0:0:0:0:
396,196,96622,1,0,0:0:0:0:
388,280,96792,5,12,0:0:0:0:
312,316,96961,1,2,0:0:0:0:
228,308,97131,1,8,0:0:0:0:
160,260,97300,1,2,0:0:0:0:
276,224,97470,5,4,0:0:0:0:
352,248,97809,5,12,0:0:0:0:
220,276,97978,1,6,0:0:0:0:
264,152,98148,1,12,0:0:0:0:
264,152,98487,6,0,L|272:200,4,35,8|0|8|0|6,0:0|0:0|0:0|0:0|0:0,0:0:0:0:
240,72,98995,1,2,0:0:0:0:
160,96,99165,1,8,0:0:0:0:
112,164,99334,2,0,P|92:200|88:240,1,70,0|2,0:0|0:0,0:0:0:0:
84,312,99673,1,0,0:0:0:0:
160,352,99843,1,8,0:0:0:0:
224,296,100012,6,0,P|260:284|300:280,1,70,2|0,0:0|0:0,0:0:0:0:
408,204,100351,2,0,P|368:196|336:184,1,70,2|8,0:0|0:0,0:0:0:0:
260,160,100690,1,2,0:0:0:0:
180,184,100860,1,2,0:0:0:0:
104,152,101029,1,0,0:0:0:0:
80,116,101114,1,0,0:0:0:0:
84,76,101199,1,8,0:0:0:0:
140,16,101368,1,8,0:0:0:0:
180,88,101537,6,0,P|220:88|256:76,1,70,2|0,0:0|0:0,0:0:0:0:
328,52,101876,1,8,0:0:0:0:
392,104,102046,1,0,0:0:0:0:
360,184,102215,2,0,P|356:224|372:260,1,70,2|2,0:0|0:0,0:0:0:0:
444,284,102554,1,8,0:0:0:0:
392,348,102724,2,0,P|320:372|248:356,1,140,6|0,0:0|0:0,0:0:0:0:
258,360,103148,1,0,0:0:0:0:
258,360,103232,5,2,0:0:0:0:
180,324,103402,1,8,0:0:0:0:
100,352,103571,2,0,P|60:344|36:312,1,70,4|8,0:0|0:0,0:0:0:0:
16,244,103910,1,6,0:0:0:0:
92,204,104080,1,8,0:0:0:0:
92,204,104165,1,0,0:0:0:0:
92,204,104249,6,0,L|56:64,1,140,0|8,0:0|0:0,0:0:0:0:
140,44,104758,2,0,P|212:64|280:48,1,140,8|8,0:0|0:0,0:0:0:0:
352,20,105266,1,0,0:0:0:0:
432,48,105436,2,0,L|408:124,1,70,12|0,0:0|0:0,0:0:0:0:
328,124,105775,6,0,P|300:196|320:264,1,140,12|8,0:0|0:0,0:0:0:0:
348,332,106283,2,0,L|192:352,1,140,8|8,0:0|0:0,0:0:0:0:
192,348,106707,1,0,0:0:0:0:
176,344,106792,1,8,0:0:0:0:
160,340,106876,1,0,0:0:0:0:
144,336,106961,6,0,P|124:272|64:228,1,140,2|0,0:0|0:0,0:0:0:0:
32,148,107470,2,0,L|176:124,1,140,2|6,0:0|0:0,0:0:0:0:
252,108,107978,1,8,0:0:0:0:
336,92,108148,1,2,0:0:0:0:
336,92,108232,1,0,0:0:0:0:
336,92,108317,6,0,L|404:124,1,70,8|0,0:0|0:0,0:0:0:0:
416,204,108656,2,0,L|336:184,1,70,8|0,0:0|0:0,0:0:0:0:
280,236,108995,2,0,L|348:268,1,70,8|0,0:0|0:0,0:0:0:0:
360,348,109334,2,0,L|280:328,1,70,8|0,0:0|0:0,0:0:0:0:
212,308,109673,1,4,0:0:0:0:
256,192,109843,12,0,112385,0:0:0:0:
