osu file format v12

[General]
AudioFilename: kors k - smooooch.mp3
AudioLeadIn: 0
PreviewTime: 22893
Countdown: 0
SampleSet: Normal
StackLeniency: 0.5
Mode: 0
LetterboxInBreaks: 0
WidescreenStoryboard: 0

[Editor]
Bookmarks: 1199,12046,14758,17470,20182,21537,22893,33741,44588,55436,66283,77131,87978,98826,109673
DistanceSpacing: 1
BeatDivisor: 2
GridSize: 4

[Metadata]
Title:smooooch
TitleUnicode:smooooch ・∀・
Artist:kors k
ArtistUnicode:kors k
Creator:ampzz
Version:Beginner
Source:beatmania IIDX
Tags:Empress candy rave konami bemani kosuke saito maya galvenize happy30 kinomicandy
BeatmapID:191504
BeatmapSetID:64535

[Difficulty]
HPDrainRate:2
CircleSize:3
OverallDifficulty:2
ApproachRate:3
SliderMultiplier:0.8
SliderTickRate:1

[Events]
//Background and Video events
0,0,"kors k - smooooch - Background.jpg",0,0
//Break Periods
2,66483,74335
//Storyboard Layer 0 (Background)
//Storyboard Layer 1 (Fail)
//Storyboard Layer 2 (Pass)
//Storyboard Layer 3 (Foreground)
//Storyboard Sound Samples
//Background Colour Transformations
3,100,0,0,0

[TimingPoints]
1199,338.983050847458,4,2,0,100,1,0
17470,-133.333333333333,4,2,0,100,0,0
19504,-100,4,2,0,100,0,0
33402,-100,4,1,0,40,0,0
44588,-100,4,1,0,50,0,1
44673,-100,4,1,0,45,0,0
49673,-100,4,1,0,50,0,0
49758,-100,4,1,0,45,0,0
65944,-100,4,1,0,100,0,0
66283,-100,4,1,0,60,0,0
75775,-100,4,1,0,40,0,0
76453,-100,4,1,0,60,0,0
77131,-100,4,2,0,100,0,0
83910,-100,4,1,0,50,0,0
85266,-100,4,1,0,55,0,0
86622,-100,4,1,0,45,0,0
87639,-100,4,1,0,70,0,0
87978,-100,4,1,0,50,0,0
96283,-100,4,1,0,60,0,0
98826,-100,4,1,0,55,0,1
109673,-100,4,2,0,5,0,0

[Colours]
Combo1 : 0,255,255
Combo2 : 255,0,255
Combo3 : 0,128,255
Combo4 : 255,255,0
Combo5 : 255,255,255

[HitObjects]
158,98,12046,2,0,L|146:184,1,80,4|4,0:0|0:0,0:0:0:0:
354,98,14758,6,0,L|366:184,1,80,4|4,0:0|0:0,0:0:0:0:
198,252,17470,6,0,P|256:265|314:251,1,120.000004577637,4|2,0:0|0:0,0:0:0:0:
314,131,18826,2,0,P|255:117|197:130,1,120.000004577637,4|2,0:0|0:0,0:0:0:0:
256,192,20182,12,4,21537,0:0:0:0:
211,242,22215,5,4,0:0:0:0:
114,114,22893,6,0,P|36:218|115:323,1,280,4|2,0:0|0:0,0:0:0:0:
195,310,24419,2,0,L|278:224,1,120,2|2,0:0|0:0,0:0:0:0:
336,168,25266,1,2,0:0:0:0:
395,114,25605,6,0,P|473:218|394:323,1,280,4|2,0:0|0:0,0:0:0:0:
316,304,27131,2,0,B|256:292|256:292|180:316|180:316|123:304,1,200,2|2,0:0|0:0,0:0:0:0:
100,226,28317,6,0,P|154:168|180:93,1,160,2|2,0:0|0:0,0:0:0:0:
291,45,29504,1,2,0:0:0:0:
367,67,29843,2,0,P|396:117|386:175,1,120,2|2,0:0|0:0,0:0:0:0:
256,265,31029,5,4,0:0:0:0:
113,191,31707,1,4,0:0:0:0:
248,105,32385,2,0,P|286:95|326:95,1,80,4|0,0:0|0:0,0:0:0:0:
405,107,33063,1,4,0:0:0:0:
445,260,33741,6,0,P|398:355|308:298,1,240,2|2,0:0|0:0,0:0:0:0:
256,238,35097,2,0,L|256:118,2,120,2|2|2,0:0|0:0|0:0,0:0:0:0:
202,298,36453,6,0,P|111:354|67:258,1,240,6|0,0:0|0:0,0:0:0:0:
115,195,37809,2,0,P|151:125|151:46,1,160,2|2,0:0|0:0,0:0:0:0:
230,37,38826,1,2,0:0:0:0:
256,112,39165,6,0,L|256:231,1,120,6|0,0:0|0:0,0:0:0:0:
280,308,40012,1,2,0:0:0:0:
354,337,40351,2,0,P|444:303|479:212,1,200,2|2,0:0|0:0,0:0:0:0:
460,135,41537,1,6,0:0:0:0:
429,60,41876,6,0,P|372:47|313:59,1,120,6|6,0:0|0:0,0:0:0:0:
256,115,42724,1,2,0:0:0:0:
326,151,43063,2,0,P|339:209|325:267,1,120,6|0,0:0|0:0,0:0:0:0:
256,306,43910,1,2,0:0:0:0:
187,264,44249,1,2,0:0:0:0:
106,264,44588,6,0,P|53:168|144:108,1,240,8|2,0:0|0:0,0:0:0:0:
133,188,45944,2,0,P|172:194|211:189,1,80,8|0,0:0|0:0,0:0:0:0:
256,121,46622,2,0,P|295:114|334:120,1,80,8|8,0:0|0:0,0:0:0:0:
408,152,47300,6,0,B|419:204|419:204|403:254|403:254|408:309,2,160,2|2|2,0:0|0:0|0:0,0:0:0:0:
358,88,48995,1,2,0:0:0:0:
280,67,49334,2,0,L|201:67,1,80,2|12,0:0|0:0,0:0:0:0:
221,144,50012,6,0,L|300:144,2,80,10|2|8,0:0|0:0|0:0,0:0:0:0:
142,160,51029,1,2,0:0:0:0:
65,132,51368,2,0,P|35:203|60:277,1,160,2|2,0:0|0:0,0:0:0:0:
139,294,52385,1,8,0:0:0:0:
219,292,52724,6,2,P|290:210|213:130,1,240,8|12,0:0|0:0,0:0:0:0:
209,211,54080,2,2,P|133:133|206:51,1,240,8|4,0:0|0:2,0:0:0:0:
285,53,55436,6,0,L|367:53,2,80,6|6|2,0:0|0:0|0:0,0:0:0:0:
286,133,56453,1,4,0:0:0:0:
287,213,56792,2,0,B|287:271|287:271|304:317|304:317|304:369,1,160,2|2,0:0|0:0,0:0:0:0:
223,369,57809,1,8,0:0:0:0:
163,315,58148,6,0,L|84:315,1,80,2|2,0:0|0:0,0:0:0:0:
109,239,58826,2,0,L|188:239,1,80,2|2,0:0|0:0,0:0:0:0:
256,195,59504,1,6,0:0:0:0:
323,239,59843,2,0,L|403:239,1,80,6|6,0:0|0:0,0:0:0:0:
468,192,60521,1,2,0:0:0:0:
422,124,60860,6,0,P|355:87|288:125,1,160,6|2,0:0|0:0,0:0:0:0:
289,205,61876,1,2,0:0:0:0:
289,284,62215,2,0,P|224:324|160:283,1,160,12|8,0:0|0:0,0:0:0:0:
145,204,63232,1,12,0:0:0:0:
186,135,63571,6,0,P|203:100|215:62,1,80,8|8,0:0|0:0,0:0:0:0:
296,62,64249,2,0,P|308:100|325:135,1,80,4|4,0:0|0:0,0:0:0:0:
401,163,64927,2,2,P|473:247|405:335,1,240,8|4,0:0|0:0,0:0:0:0:
329,308,66283,5,4,0:0:0:0:
413,192,75775,6,0,B|352:197|352:197|313:185|313:185|256:192,1,160,4|4,0:0|0:0,0:0:0:0:
116,271,77131,6,0,P|38:167|117:62,1,280,4|2,0:0|0:0,0:0:0:0:
195,77,78656,2,0,L|273:168,1,120,2|2,0:0|0:0,0:0:0:0:
328,225,79504,1,2,0:0:0:0:
393,272,79843,6,0,P|471:168|392:63,1,280,4|2,0:0|0:0,0:0:0:0:
315,79,81368,2,2,B|255:115|178:42|122:79,1,200,2|2,0:0|0:0,0:0:0:0:
100,157,82554,6,0,B|154:215|154:215|181:291,1,160,6|2,0:0|0:2,0:0:0:0:
284,352,83741,1,2,0:2:0:0:
292,272,84080,2,0,B|312:215|312:215|352:171,1,120,6|2,0:0|0:0,0:0:0:0:
256,192,85266,12,4,86622,0:0:0:0:
390,167,87300,5,2,0:0:0:0:
310,154,87639,1,8,0:0:0:0:
310,234,87978,6,0,P|257:335|209:234,1,280,2|2,0:0|0:0,0:0:0:0:
202,154,89504,1,2,0:0:0:0:
143,98,89843,2,0,P|81:84|36:113,1,120,2|2,0:0|0:0,0:0:0:0:
96,165,90690,6,0,P|101:205|96:244,1,80,2|2,0:0|0:0,0:0:0:0:
78,322,91368,2,0,P|130:341|194:342,1,120,2|2,0:0|0:0,0:0:0:0:
256,292,92215,2,0,L|256:89,1,200,2|2,0:0|0:0,0:0:0:0:
317,42,93402,6,0,P|377:42|431:118,1,160,6|2,0:0|0:0,0:0:0:0:
367,219,94588,1,2,0:0:0:0:
296,256,94927,1,2,0:0:0:0:
255,185,95266,2,0,P|198:169|141:185,1,120,2|0,0:0|0:0,0:0:0:0:
256,192,96114,12,4,98148,0:0:0:0:
179,118,98826,6,0,P|159:173|180:228,1,120,2|0,0:0|0:0,0:0:0:0:
256,253,99673,1,8,0:0:0:0:
335,251,100012,2,0,P|398:187|334:122,1,200,2|2,0:0|0:0,0:0:0:0:
190,192,101537,6,0,L|66:192,2,120,2|2|8,0:0|0:0|0:0,0:0:0:0:
256,146,102893,2,0,L|256:66,1,80,4|10,0:0|0:0,0:0:0:0:
336,68,103571,2,0,L|336:148,1,80,2|12,0:0|0:0,0:0:0:0:
326,227,104249,6,0,P|298:275|239:295,1,120,2|2,0:0|0:0,0:0:0:0:
167,263,105097,1,4,0:0:0:0:
87,260,105436,2,2,P|26:193|87:125,1,200,6|6,0:0|0:0,0:0:0:0:
247,125,106961,2,0,L|372:125,2,120,6|2|2,0:0|0:0|0:0,0:0:0:0:
246,45,108317,6,2,P|167:119|236:203,1,240,4|4,0:0|0:0,0:0:0:0:
256,192,109673,12,0,112385,0:0:0:0:
