osu file format v12

[General]
AudioFilename: kors k - smooooch.mp3
AudioLeadIn: 0
PreviewTime: 22893
Countdown: 0
SampleSet: Soft
StackLeniency: 0.5
Mode: 0
LetterboxInBreaks: 0
WidescreenStoryboard: 0

[Editor]
Bookmarks: 1199,12046,14758,17470,20182,21537,22893,33741,44588,55436,66283,77131,87978,98826,109673
DistanceSpacing: 0.8
BeatDivisor: 4
GridSize: 4

[Metadata]
Title:smooooch
TitleUnicode:smooooch ・∀・
Artist:kors k
ArtistUnicode:kors k
Creator:ampzz
Version:Another
Source:beatmania IIDX
Tags:Empress candy rave konami bemani kosuke saito maya galvenize happy30 kinomicandy
BeatmapID:189861
BeatmapSetID:64535

[Difficulty]
HPDrainRate:8
CircleSize:4
OverallDifficulty:8
ApproachRate:9
SliderMultiplier:1.7
SliderTickRate:2

[Events]
//Background and Video events
0,0,"kors k - smooooch - Background.jpg",0,0
//Break Periods
2,12585,14158
2,15297,16870
2,66482,75175
//Storyboard Layer 0 (Background)
//Storyboard Layer 1 (Fail)
//Storyboard Layer 2 (Pass)
//Storyboard Layer 3 (Foreground)
//Storyboard Sound Samples
//Background Colour Transformations
3,100,0,0,0

[TimingPoints]
1199,338.983050847458,4,2,0,80,1,0
20182,-100,4,1,0,40,0,0
20860,-100,4,1,0,50,0,0
21537,-100,4,2,0,100,0,0
22893,-100,4,2,0,70,0,0
22978,-100,4,2,0,100,0,0
31029,-100,4,2,0,70,0,0
31199,-100,4,2,0,100,0,0
31707,-100,4,2,0,70,0,0
31876,-100,4,2,0,100,0,0
32385,-100,4,2,0,70,0,0
32470,-100,4,2,0,100,0,0
32724,-100,4,2,0,70,0,0
32893,-100,4,2,0,100,0,0
33063,-100,4,2,0,70,0,0
33148,-100,4,2,0,100,0,0
33402,-100,4,1,0,40,0,0
44588,-100,4,1,0,50,0,1
44673,-100,4,1,0,45,0,0
49673,-90.9090909090909,4,1,0,50,0,0
49758,-100,4,1,0,40,0,0
65944,-100,4,1,0,50,0,0
75775,-100,4,1,0,40,0,0
76453,-100,4,1,0,60,0,0
77131,-100,4,2,0,100,0,0
81537,-100,4,1,0,50,0,0
82300,-100,4,2,0,100,0,0
82554,-100,4,2,0,70,0,0
82639,-100,4,2,0,100,0,0
83910,-100,4,1,0,50,0,0
85266,-100,4,1,0,55,0,0
86622,-100,4,1,0,45,0,0
87639,-100,4,1,0,70,0,0
87978,-100,4,1,0,50,0,0
96283,-100,4,1,0,60,0,0
98826,-100,4,1,0,55,0,1
108995,-100,4,1,0,40,0,1
109165,-100,4,1,0,75,0,1
109249,-100,4,1,0,40,0,1
109504,-100,4,1,0,75,0,1
109546,-100,4,1,0,40,0,1
109673,-100,4,1,0,75,0,0
112385,-100,4,2,0,5,0,0

[Colours]
Combo1 : 0,255,255
Combo2 : 255,0,255
Combo3 : 0,128,255
Combo4 : 255,255,0
Combo5 : 255,255,255

[HitObjects]
256,32,12046,5,4,0:0:0:0:
256,352,12385,1,4,0:0:0:0:
96,192,14758,5,4,0:0:0:0:
256,140,14927,1,4,0:0:0:0:
416,192,15097,1,4,0:0:0:0:
256,376,17470,6,0,L|256:292,1,85,4|0,0:0|0:0,0:0:0:0:
247,206,17809,2,0,P|212:176|174:165,1,85
92,185,18148,1,2,0:0:0:0:
44,114,18317,1,0,0:0:0:0:
98,48,18487,1,0,0:0:0:0:
178,73,18656,1,0,0:0:0:0:
259,48,18826,6,0,L|339:19,2,85,2|2|2,0:0|0:0|0:0,0:0:0:0:
292,126,19334,1,0,0:0:0:0:
363,173,19504,2,0,P|372:129|369:88,2,85,2|2|2,0:0|0:0|0:0,0:0:0:0:
308,238,20012,1,2,0:0:0:0:
134,234,20182,5,2,0:0:0:0:
116,221,20266,1,0,0:0:0:0:
103,203,20351,1,0,0:0:0:0:
99,180,20436,1,0,0:0:0:0:
103,158,20520,1,2,0:0:0:0:
113,138,20605,1,0,0:0:0:0:
128,121,20690,1,0,0:0:0:0:
147,109,20775,1,0,0:0:0:0:
169,102,20859,5,2,0:0:0:0:
191,101,20944,1,0,0:0:0:0:
213,107,21029,1,2,0:0:0:0:
233,119,21114,1,0,0:0:0:0:
247,135,21198,1,2,0:0:0:0:
256,156,21283,1,0,0:0:0:0:
256,179,21368,1,0,0:0:0:0:
255,202,21453,1,0,0:0:0:0:
256,224,21537,6,0,B|256:256,12,21.25,4|0|0|0|0|0|0|0|0|0|0|0|0,0:0|0:0|0:0|0:0|0:0|0:0|0:0|0:0|0:0|0:0|0:0|0:0|0:0,0:0:0:0:
320,344,22215,2,0,B|336:364,12,21.25,4|0|0|0|0|0|0|0|0|0|0|0|0,0:0|0:0|0:0|0:0|0:0|0:0|0:0|0:0|0:0|0:0|0:0|0:0|0:0,0:0:0:0:
192,344,22893,6,0,B|148:345|112:318,1,85,4|0,0:0|0:0,0:0:0:0:
47,218,23232,1,2,0:0:0:0:
122,125,23402,1,2,0:0:0:0:
240,119,23571,2,0,B|278:100|298:60,1,85,2|0,0:0|0:0,0:0:0:0:
162,31,23910,1,0,0:0:0:0:
179,170,24080,2,0,B|187:254,1,85,2|0,0:0|0:0,0:0:0:0:
333,170,24419,2,0,B|325:254,1,85,2|0,0:0|0:0,0:0:0:0:
226,361,24758,1,2,0:0:0:0:
107,279,24927,2,0,B|142:257|187:254,1,85,2|2,0:0|0:0,0:0:0:0:
231,262,25182,1,0,0:0:0:0:
231,262,25266,5,2,0:0:0:0:
335,348,25436,1,0,0:0:0:0:
452,326,25605,2,0,P|467:286|467:245,1,85,2|2,0:0|0:0,0:0:0:0:
333,170,25944,2,0,P|342:128|368:94,1,85,2|2,0:0|0:0,0:0:0:0:
493,90,26283,1,2,0:0:0:0:
390,230,26453,2,0,P|350:248|310:248,1,85,2|0,0:0|0:0,0:0:0:0:
118,165,26792,2,0,P|155:142|195:138,1,85,2|0,0:0|0:0,0:0:0:0:
333,170,27131,5,2,0:0:0:0:
333,170,27215,1,0,0:0:0:0:
368,146,27300,2,0,P|361:102|337:69,1,85,2|0,0:0|0:0,0:0:0:0:
205,35,27639,1,2,0:0:0:0:
92,112,27809,1,0,0:0:0:0:
128,248,27978,2,0,P|166:261|209:255,1,85,2|2,0:0|0:0,0:0:0:0:
246,233,28232,1,0,0:0:0:0:
282,210,28317,6,0,P|322:199|363:208,1,85,2|0,0:0|0:0,0:0:0:0:
462,274,28656,1,2,0:0:0:0:
397,374,28826,1,2,0:0:0:0:
292,317,28995,2,0,P|250:308|208:317,1,85,2|0,0:0|0:0,0:0:0:0:
96,356,29334,1,0,0:0:0:0:
96,356,29419,1,0,0:0:0:0:
53,360,29504,6,0,B|20:320|36:260,1,85,2|0,0:0|0:0,0:0:0:0:
148,112,29843,2,0,B|181:152|165:212,1,85,2|0,0:0|0:0,0:0:0:0:
48,196,30182,1,2,0:0:0:0:
36,80,30351,1,2,0:0:0:0:
140,20,30521,1,0,0:0:0:0:
256,36,30690,2,0,B|264:80|260:120,1,85,2|0,0:0|0:0,0:0:0:0:
252,156,30944,1,0,0:0:0:0:
256,192,31029,5,4,0:0:0:0:
332,260,31199,1,0,0:0:0:0:
432,260,31368,1,2,0:0:0:0:
508,192,31537,1,0,0:0:0:0:
256,192,31707,5,4,0:0:0:0:
180,260,31877,1,0,0:0:0:0:
80,260,32046,1,2,0:0:0:0:
4,192,32215,1,0,0:0:0:0:
131,51,32385,6,0,B|143:93|135:135,1,85,4|2,0:0|0:0,0:0:0:0:
4,192,32724,1,4,0:0:0:0:
20,48,32893,1,2,0:0:0:0:
135,135,33063,2,0,P|171:151|215:148,1,85,4|2,0:0|0:0,0:0:0:0:
320,60,33402,1,8,0:0:0:0:
361,51,33487,1,0,0:0:0:0:
401,61,33571,1,8,0:0:0:0:
433,89,33656,1,0,0:0:0:0:
453,126,33741,6,0,B|468:166|457:209,1,85,2|2,0:0|0:0,0:0:0:0:
386,319,34080,1,0,0:0:0:0:
300,244,34249,2,0,B|256:232|216:244,1,85,2|0,0:0|0:0,0:0:0:0:
94,279,34588,2,0,B|59:251|48:209,1,85,2|0,0:0|0:0,0:0:0:0:
153,125,34927,1,2,0:0:0:0:
216,244,35097,2,0,B|228:328,1,85,2|0,0:0|0:0,0:0:0:0:
337,197,35436,2,0,B|349:113,2,85,0|2|0,0:0|0:0|0:0,0:0:0:0:
332,316,35944,1,0,0:0:0:0:
447,346,36114,1,2,0:0:0:0:
508,244,36283,1,2,0:0:0:0:
444,143,36453,6,0,L|452:54,1,85
315,28,36792,2,0,B|299:68|299:112,1,85,2|0,0:0|0:0,0:0:0:0:
216,216,37131,1,2,0:0:0:0:
148,120,37300,2,0,B|148:77|132:37,1,85,2|0,0:0|0:0,0:0:0:0:
24,90,37639,1,2,0:0:0:0:
32,208,37809,2,0,B|32:292,1,85,0|2,0:0|0:0,0:0:0:0:
148,352,38148,2,0,B|153:325|143:293|148:267,1,85,2|2,0:0|0:0,0:0:0:0:
256,192,38487,2,0,L|256:276,1,85,2|0,0:0|0:0,0:0:0:0:
348,352,38826,1,2,0:0:0:0:
444,272,38995,1,0,0:0:0:0:
355,190,39165,6,0,P|344:150|349:108,1,85,6|2,0:0|0:0,0:0:0:0:
454,23,39504,1,0,0:0:0:0:
321,20,39673,2,0,B|280:27|240:48,1,85,2|0,0:0|0:0,0:0:0:0:
155,125,40012,1,2,0:0:0:0:
219,214,40182,1,2,0:0:0:0:
211,312,40351,1,2,0:0:0:0:
99,284,40521,2,0,B|87:240|99:200,2,85,0|2|0,0:0|0:0|0:0,0:0:0:0:
192,376,41029,1,2,0:0:0:0:
256,264,41199,1,0,0:0:0:0:
324,372,41368,1,2,0:0:0:0:
400,284,41537,2,0,B|412:240|400:200,1,85,6|2,0:0|0:0,0:0:0:0:
209,120,41876,6,0,B|233:155|271:177,1,85,6|0,0:0|0:0,0:0:0:0:
393,116,42215,1,2,0:0:0:0:
500,200,42385,2,0,B|511:243|500:284,1,85,6|0,0:0|0:0,0:0:0:0:
271,177,42724,2,0,B|292:139|330:117,1,85,2|0,0:0|0:0,0:0:0:0:
406,247,43063,1,6,0:0:0:0:
318,334,43232,1,0,0:0:0:0:
194,207,43402,1,2,0:0:0:0:
243,302,43571,2,0,B|223:339|184:362,1,85,0|2,0:0|0:0,0:0:0:0:
100,192,43910,2,0,B|89:148|100:108,1,85,2|2,0:0|0:0,0:0:0:0:
256,44,44249,1,2,0:0:0:0:
256,148,44419,1,2,0:0:0:0:
256,248,44588,5,8,0:0:0:0:
256,248,44758,1,8,0:0:0:0:
356,172,44927,1,0,0:0:0:0:
440,80,45097,1,8,0:0:0:0:
440,80,45266,1,8,0:0:0:0:
312,92,45436,1,0,0:0:0:0:
184,104,45605,2,0,B|152:108|152:108|128:104|128:104|100:108,1,85,2|4,0:0|0:0,0:0:0:0:
0,192,45944,5,8,0:0:0:0:
42,192,46029,1,0,0:0:0:0:
104,332,46199,1,8,0:0:0:0:
130,298,46283,1,0,0:0:0:0:
256,378,46453,1,8,0:0:0:0:
337,251,46622,1,8,0:0:0:0:
181,173,46792,1,8,0:0:0:0:
256,40,46961,1,8,0:0:0:0:
256,40,47300,6,0,B|256:128,1,85,2|0,0:0|0:0,0:0:0:0:
172,252,47639,2,0,B|132:236|132:236|104:204,1,85,2|0,0:0|0:0,0:0:0:0:
340,128,47978,2,0,B|380:144|380:144|408:176,1,85,2|0,0:0|0:0,0:0:0:0:
372,324,48317,2,0,B|328:316|328:316|288:324,1,85,2|2,0:0|0:0,0:0:0:0:
248,340,48571,1,2,0:0:0:0:
208,328,48656,2,0,B|184:292|184:292|172:252,1,85,2|0,0:0|0:0,0:0:0:0:
256,192,48995,5,2,0:0:0:0:
224,96,49165,1,0,0:0:0:0:
124,96,49334,1,2,0:0:0:0:
84,188,49504,1,0,0:0:0:0:
172,252,49673,2,0,B|180:200|180:200|176:160,1,93.5000028533936,12|0,0:0|0:0,0:0:0:0:
112,32,50012,6,0,B|68:20|28:32,1,85,10|0,0:0|0:0,0:0:0:0:
256,192,50351,2,0,B|300:204|340:192,1,85,2|0,0:0|0:0,0:0:0:0:
436,80,50690,1,8,0:0:0:0:
292,108,50860,1,8,0:0:0:0:
424,192,51029,2,0,B|440:232|424:276,1,85,2|0,0:0|0:0,0:0:0:0:
312,332,51368,5,8,0:0:0:0:
304,207,51537,2,0,L|327:170,2,42.5,8|8|0,0:0|0:0|0:0,0:0:0:0:
256,192,51792,2,0,B|256:150,2,42.5,8|8|0,0:0|0:0|0:0,0:0:0:0:
208,207,52046,1,8,0:0:0:0:
162,365,52215,1,8,0:0:0:0:
312,332,52385,1,8,0:0:0:0:
372,60,52724,5,2,0:0:0:0:
280,220,52893,1,0,0:0:0:0:
252,36,53063,1,2,0:0:0:0:
380,168,53232,1,0,0:1:0:0:
196,132,53402,2,0,P|152:128|112:132,2,85,2|0|12,0:0|0:0|0:0,0:0:0:0:
280,220,53910,1,0,1:0:0:0:
257,334,54080,5,8,0:0:0:0:
132,195,54249,1,8,0:0:0:0:
258,360,54419,1,8,0:0:0:0:
315,151,54588,1,8,0:0:0:0:
239,349,54758,1,8,0:0:0:0:
202,112,54927,1,8,0:0:0:0:
34,290,55097,5,4,0:2:0:0:
0,151,55266,1,2,0:0:0:0:
76,41,55436,2,0,B|118:28|160:40,1,85,6|0,0:0|0:0,0:0:0:0:
256,118,55775,2,0,B|256:210,2,85,6|0|2,0:0|0:0|0:0,0:0:0:0:
343,16,56283,1,0,0:0:0:0:
473,54,56453,2,0,P|476:95|458:134,1,85,4|0,0:0|0:0,0:0:0:0:
340,176,56792,6,0,B|340:220,1,42.5,8|0,0:0|0:0,0:0:0:0:
228,232,57047,2,0,B|260:260,1,42.5,8|0,0:0|0:0,0:0:0:0:
188,344,57301,2,0,B|233:343,1,42.5,8|0,0:0|0:0,0:0:0:0:
272,344,57470,2,0,B|315:343,1,42.5
356,344,57640,1,8,0:0:0:0:
452,288,57809,2,0,B|468:248|448:204,1,85,10|0,0:0|0:0,0:0:0:0:
368,108,58148,5,2,0:0:0:0:
312,248,58317,1,0,0:0:0:0:
256,40,58487,1,2,0:0:0:0:
200,248,58656,1,4,0:0:0:0:
144,108,58826,1,2,0:0:0:0:
316,108,58995,1,0,0:0:0:0:
196,108,59165,1,2,0:0:0:0:
256,211,59334,1,4,0:0:0:0:
316,108,59504,5,6,0:0:0:0:
332,80,59588,1,0,0:0:0:0:
336,48,59673,1,2,0:0:0:0:
176,48,59843,1,6,0:0:0:0:
180,80,59928,1,0,0:0:0:0:
196,108,60012,1,2,0:0:0:0:
256,211,60182,2,0,P|267:250|265:296,1,85,6|0,0:0|0:0,0:0:0:0:
256,326,60436,1,0,0:0:0:0:
239,355,60521,2,0,B|230:374,4,21.25,2|0|0|0|2,0:0|0:0|0:0|0:0|0:0,0:0:0:0:
191,260,60860,5,4,0:0:0:0:
110,191,61029,2,0,B|66:189|26:202,1,85,2|2,0:0|0:0,0:0:0:0:
57,332,61368,2,0,B|98:324|130:292,1,85,2|0,0:0|0:0,0:0:0:0:
201,165,61707,1,0,0:0:0:0:
64,120,61876,2,0,B|56:76|80:36,1,85,2|0,0:0|0:0,0:0:0:0:
204,16,62215,5,12,0:0:0:0:
332,36,62385,1,8,0:0:0:0:
364,64,62470,1,0,0:0:0:0:
256,128,62639,1,8,0:0:0:0:
256,170,62724,1,0,0:0:0:0:
256,300,62893,1,8,0:0:0:0:
140,328,63063,1,8,0:0:0:0:
372,328,63232,1,12,0:0:0:0:
364,192,63571,5,8,0:0:0:0:
256,84,63741,1,8,0:0:0:0:
148,192,63910,1,8,0:0:0:0:
256,300,64080,1,8,0:0:0:0:
256,196,64249,5,4,0:0:0:0:
248,188,64334,1,0,0:0:0:0:
240,180,64419,1,4,0:0:0:0:
232,172,64504,1,0,0:0:0:0:
224,164,64588,1,4,0:0:0:0:
216,156,64673,1,0,0:0:0:0:
208,148,64758,1,4,0:0:0:0:
200,140,64843,1,0,0:0:0:0:
192,132,64927,6,0,B|160:104,1,42.5,8|0,0:0|0:0,0:0:0:0:
120,116,65097,2,0,B|108:76,1,42.5,8|0,0:0|0:0,0:0:0:0:
56,112,65266,2,0,B|48:68,1,42.5,8|0,0:0|0:0,0:0:0:0:
72,48,65436,2,0,B|96:8,1,42.5,8|0,0:0|0:0,0:0:0:0:
136,44,65605,2,0,B|168:16,1,42.5,2|0,0:0|0:0,0:0:0:0:
208,52,65775,2,0,B|248:40,1,42.5,8|0,0:0|0:0,0:0:0:0:
280,64,65944,2,0,B|336:100|444:100,1,170,4|4,0:0|0:0,0:0:0:0:
256,28,75775,5,4,0:0:0:0:
256,192,76453,1,4,0:0:0:0:
256,356,76792,1,0,0:0:0:0:
256,356,76876,1,0,0:0:0:0:
256,356,76961,1,0,0:0:0:0:
256,356,77046,1,0,0:0:0:0:
256,356,77131,6,0,B|293:377|337:374,1,85,6|0,0:0|0:0,0:0:0:0:
434,303,77470,1,2,0:0:0:0:
380,196,77639,1,0,0:0:0:0:
256,192,77809,2,0,P|210:182|179:160,1,85,2|0,0:0|0:0,0:0:0:0:
138,61,78148,1,0,0:0:0:0:
249,28,78317,2,0,P|260:69|245:112,1,85,2|0,0:0|0:0,0:0:0:0:
66,186,78656,2,0,P|96:159|138:149,1,85,2|0,0:0|0:0,0:0:0:0:
256,192,78995,1,2,0:0:0:0:
368,231,79165,1,2,0:0:0:0:
401,231,79249,1,0,0:0:0:0:
432,216,79334,1,2,0:0:0:0:
453,189,79419,1,2,0:0:0:0:
463,156,79504,6,0,P|453:114|426:83,1,85,2|2,0:0|0:0,0:0:0:0:
182,184,79843,2,0,P|192:226|219:257,1,85,2|0,0:0|0:0,0:0:0:0:
371,137,80182,2,0,P|334:114|293:111,1,85,2|0,0:0|0:0,0:0:0:0:
96,196,80521,1,2,0:0:0:0:
96,196,80605,1,0,0:0:0:0:
64,168,80690,2,0,B|63:125|81:86,1,85,2|0,0:0|3:2,0:0:0:0:
432,84,81029,2,0,B|450:123|449:166,1,85,2|2,0:0|3:2,0:0:0:0:
444,200,81283,1,0,3:0:0:0:
428,230,81368,1,0,3:0:0:0:
400,249,81453,1,0,3:0:0:0:
367,256,81537,5,2,0:0:0:0:
288,168,81707,1,2,0:0:0:0:
180,216,81876,1,2,0:0:0:0:
192,336,82046,1,2,0:0:0:0:
308,360,82215,1,2,0:0:0:0:
308,324,82300,1,0,3:0:0:0:
292,292,82385,1,0,3:0:0:0:
272,264,82470,1,0,3:0:0:0:
244,244,82554,6,0,P|231:203|236:161,1,85,6|0,0:0|0:0,0:0:0:0:
318,66,82893,1,2,0:2:0:0:
425,84,83063,1,2,0:2:0:0:
492,192,83232,2,0,P|489:233|466:271,1,85,2|0,0:2|0:0,0:0:0:0:
340,248,83571,1,2,3:2:0:0:
320,220,83656,1,0,3:2:0:0:
306,188,83741,1,2,3:2:0:0:
282,73,83910,5,4,1:2:0:0:
153,100,84080,2,0,P|137:138|148:179,1,85,2|0,0:0|0:0,0:0:0:0:
256,256,84419,1,2,0:0:0:0:
360,100,84588,2,0,B|404:92|444:100,1,85,2|0,0:0|0:0,0:0:0:0:
148,179,84927,2,0,B|106:189|64:179,1,85,0|2,0:0|0:0,0:0:0:0:
50,138,85182,1,0,0:0:0:0:
68,100,85266,6,0,B|108:92|152:100,1,85,6|2,0:0|0:0,0:0:0:0:
256,256,85605,1,2,0:0:0:0:
436,204,85775,1,0,0:0:0:0:
312,104,85944,5,6,0:0:0:0:
256,256,86114,1,2,0:0:0:0:
200,104,86283,1,2,0:0:0:0:
76,204,86452,1,2,0:0:0:0:
256,340,86622,5,6,0:0:0:0:
256,44,86961,1,2,0:0:0:0:
256,256,87300,1,2,0:0:0:0:
256,248,87385,1,0,0:0:0:0:
256,240,87470,1,2,0:0:0:0:
256,232,87554,1,0,0:0:0:0:
256,224,87639,2,0,B|256:180,2,42.5,8|0|4,0:0|0:0|0:0,0:0:0:0:
172,332,87978,6,0,P|132:340|88:332,1,85,2|0,0:0|0:0,0:0:0:0:
11,241,88317,1,2,0:0:0:0:
36,124,88487,1,2,0:0:0:0:
141,69,88656,2,0,P|176:91|200:127,1,85,2|0,0:0|0:0,0:0:0:0:
189,245,88995,1,2,0:0:0:0:
267,154,89165,2,0,P|304:138|349:137,1,85,2|0,0:0|0:0,0:0:0:0:
512,272,89504,2,0,P|474:287|429:288,1,85,2|0,0:0|0:0,0:0:0:0:
343,228,89843,1,2,0:0:0:0:
267,154,90012,2,0,P|224:143|184:153,1,85,2|0,0:0|0:0,0:0:0:0:
154,181,90266,1,0,0:0:0:0:
154,181,90351,1,2,0:0:0:0:
202,312,90521,1,2,0:0:0:0:
301,208,90690,6,0,L|345:136,1,85,2|0,0:0|0:0,0:0:0:0:
126,91,91029,2,0,L|185:153,1,85,2|0,0:0|0:0,0:0:0:0:
256,276,91368,1,2,0:0:0:0:
179,361,91537,2,0,P|136:365|96:352,1,85,2|0,0:0|0:0,0:0:0:0:
71,172,91876,2,0,P|114:169|154:181,1,85,2|0,0:0|0:0,0:0:0:0:
380,292,92215,5,2,0:0:0:0:
380,292,92300,1,0,0:0:0:0:
420,308,92385,2,0,P|436:268|436:224,1,85,2|0,0:0|0:0,0:0:0:0:
264,88,92724,2,0,P|280:127|312:158,1,85,2|0,0:0|0:0,0:0:0:0:
472,96,93063,2,0,P|432:112|401:144,1,85,2|0,0:0|0:0,0:0:0:0:
384,172,93317,1,0,0:0:0:0:
368,204,93402,6,0,P|334:231|295:241,1,85,6|0,0:0|0:0,0:0:0:0:
160,213,93741,1,2,0:0:0:0:
201,342,93910,1,2,0:0:0:0:
294,241,94080,2,0,P|279:202|250:171,1,85,2|0,0:0|0:0,0:0:0:0:
120,120,94419,1,2,0:0:0:0:
120,120,94504,1,2,0:0:0:0:
104,80,94588,6,0,P|136:60|184:60,1,85,2|4,0:0|0:0,0:0:0:0:
408,304,94927,2,0,P|376:324|328:324,1,85,2|0,0:0|0:0,0:0:0:0:
256,192,95266,1,2,0:0:0:0:
96,192,95436,2,0,P|76:232|76:272,1,85,2|4,0:0|0:0,0:0:0:0:
233,306,95775,2,0,B|256:269|256:226,1,85,2|4,0:0|0:0,0:0:0:0:
256,192,96029,1,0,0:0:0:0:
241,161,96114,6,0,P|250:118|278:87,1,85,6|0,0:0|0:0,0:0:0:0:
404,216,96453,1,8,0:0:0:0:
360,336,96622,1,0,0:0:0:0:
236,364,96792,5,6,0:0:0:0:
136,288,96961,1,0,0:0:0:0:
172,164,97131,1,12,0:0:0:0:
296,144,97300,1,0,0:0:0:0:
252,264,97470,6,0,L|172:236,1,85,6|0,0:0|0:0,0:0:0:0:
120,120,97809,1,12,0:0:0:0:
256,80,97978,1,0,0:0:0:0:
392,120,98148,2,0,L|348:192,1,85,6|0,0:0|0:0,0:0:0:0:
356,304,98487,1,8,0:0:0:0:
385,335,98571,1,0,0:0:0:0:
426,341,98656,1,8,0:0:0:0:
467,329,98741,1,0,0:0:0:0:
498,300,98826,6,0,P|500:256|488:216,1,85,2|0,0:0|0:0,0:0:0:0:
392,120,99165,1,8,0:0:0:0:
296,192,99334,2,0,P|254:198|212:192,1,85,2|0,0:0|0:0,0:0:0:0:
172,40,99673,2,0,P|212:32|256:40,1,85,0|8,0:0|0:0,0:0:0:0:
212,192,100012,2,0,B|178:169|154:129,1,85,2|0,0:0|0:0,0:0:0:0:
359,182,100351,2,0,B|381:216|387:261,1,85,2|8,0:0|0:0,0:0:0:0:
256,364,100690,1,2,0:0:0:0:
100,296,100860,5,0,0:0:0:0:
212,232,101029,1,0,0:0:0:0:
212,232,101114,1,0,0:0:0:0:
212,232,101199,1,8,0:0:0:0:
208,360,101368,1,2,0:0:0:0:
100,296,101537,2,0,P|88:256|100:216,1,85,2|0,0:0|0:0,0:0:0:0:
212,144,101876,1,8,0:0:0:0:
324,216,102046,2,0,P|336:256|324:296,1,85,2|0,0:0|0:0,0:0:0:0:
100,216,102385,2,0,P|88:176|100:136,1,85,2|8,0:0|0:0,0:0:0:0:
432,112,102724,2,0,P|444:152|432:192,1,85,2|4,0:0|0:0,0:0:0:0:
292,304,103063,5,0,0:0:0:0:
258,308,103148,1,0,0:0:0:0:
224,312,103232,2,0,L|140:319,1,85,10|2,0:0|0:0,0:0:0:0:
34,243,103571,1,2,0:0:0:0:
125,154,103741,1,2,0:0:0:0:
33,66,103910,2,0,P|66:41|106:26,1,85,12|2,0:0|0:0,0:0:0:0:
256,16,104249,5,2,0:0:0:0:
340,152,104419,1,0,0:0:0:0:
208,204,104588,1,10,0:0:0:0:
340,360,104758,2,0,P|380:288|336:220,1,170,2|4,0:0|0:0,0:0:0:0:
208,204,105266,1,2,0:0:0:0:
168,200,105351,1,2,0:0:0:0:
136,180,105436,2,2,P|96:108|140:40,2,170,4|12|2,0:0|0:0|0:0,0:0:0:0:
172,112,106283,6,0,P|256:88|332:112,1,170,6|2,0:0|0:0,0:0:0:0:
360,139,106707,1,0,0:0:0:0:
383,169,106792,1,2,0:0:0:0:
399,203,106876,1,0,0:0:0:0:
407,240,106961,5,6,0:0:0:0:
328,352,107131,1,0,0:0:0:0:
255,210,107300,1,8,0:0:0:0:
176,352,107470,2,0,P|146:313|135:277,1,85,2|0,0:0|0:0,0:0:0:0:
135,104,107809,1,8,0:0:0:0:
40,237,107978,5,2,0:0:0:0:
214,146,108148,2,0,P|256:137|296:146,1,85,2|0,0:0|0:0,0:0:0:0:
472,237,108487,1,10,0:0:0:0:
376,104,108656,1,0,0:0:0:0:
255,210,108826,1,10,0:0:0:0:
366,324,108995,2,0,L|381:338,4,21.25,0|0|0|0|8,0:0|0:0|0:0|0:0|0:0,0:0:0:0:
146,324,109334,2,0,L|131:338,4,21.25,0|0|0|0|8,0:0|0:0|0:0|0:0|0:0,0:0:0:0:
256,192,109673,12,0,112385,0:0:0:0:
