osu file format v6

[General]
AudioFilename: 1-02. smooooch .mp3
AudioLeadIn: 0
PreviewTime: 87984
Countdown: 0
SampleSet: Normal
StackLeniency: 0.7
Mode: 0
LetterboxInBreaks: 1

[Editor]
DistanceSpacing: 0.800000011920929
BeatDivisor: 4
GridSize: 8

[Metadata]
Title:smooooch
Artist:kors k
Creator:Takuma
Version:Hyper
Source:
Tags:

[Difficulty]
HPDrainRate:6
CircleSize:5
OverallDifficulty:7
SliderMultiplier:1.6
SliderTickRate:1

[Events]
//Background and Video events
0,0,"smooooch-bg.jpg"
//Break Periods
2,66149,74880
//Storyboard Layer 0 (Background)
//Storyboard Layer 1 (Fail)
//Storyboard Layer 2 (Pass)
//Storyboard Layer 3 (Foreground)
//Storyboard Sound Samples
//Background Colour Transformations
3,100,163,162,255

[TimingPoints]
12052,338.983050847458,4,1,0,60,1,0
30526,-100,4,2,0,70,0,0
30949,-100,4,1,0,60,0,0
57645,-50,4,1,0,60,0,0
57984,-100,4,1,0,60,0,0
87984,-100,4,1,0,60,0,1
109679,-100,4,1,0,60,0,0

[Colours]
Combo1 : 255,255,81
Combo2 : 94,174,255
Combo3 : 253,121,230

[HitObjects]
212,339,12052,1,0
212,339,12391,1,0
341,342,14763,5,0
341,342,14932,1,0
341,342,15102,1,0
472,344,17475,5,0
256,208,20187,12,4,21543
256,192,22221,5,4
136,136,22899,6,0,B|232:136|224:16,1,160,0|8
256,104,23407,1,0
287,28,23577,2,0,B|280:136|376:136,1,160,0|8
440,136,24085,6,0,B|504:136|504:240|432:240,2,160,0|2|2
440,136,24933,1,8
328,344,25272,5,8
256,344,25441,1,0
184,344,25611,1,2
256,224,25950,1,8
328,344,26289,5,2
184,344,26458,1,0
256,224,26797,1,4
170,55,27136,6,0,B|140:17|94:33,1,80,0|8
34,68,27475,6,0,B|0:94|16:140,1,80,0|0
48,197,27814,6,0,B|77:234|118:220,1,80,0|8
184,192,28153,2,2,B|217:165|201:119,1,80,0|4
376,48,28662,1,8
376,120,28832,1,0
440,88,29001,1,0
488,224,29340,1,8
488,296,29509,2,2,B|312:296,2,160,2|0|8
488,224,30357,1,0
368,224,30611,2,0,B|320:224,1,40,0|10
256,224,30865,1,2
256,224,31035,6,0,B|256:136,1,80,4|0
256,104,31374,1,8
256,64,31543,1,0
128,88,31713,5,4
128,128,31882,1,0
128,168,32052,2,0,B|128:256,1,80,8|0
40,296,32390,5,4
256,360,32729,1,4
472,296,33068,1,4
256,192,33407,2,8,L|256:208|256:200|256:240,4,40,8|8|8|8|4
392,192,33916,5,0
256,290,34255,1,0
120,192,34594,1,0
176,40,34933,2,2,L|336:40,4,160,2|2|2|2|8
96,40,36458,6,0,B|64:144|128:200,1,160,4|8
160,120,36967,2,0,B|232:176|192:272,1,160
120,288,37475,1,8
176,344,37645,2,2,B|256:384|344:336,1,160,2|0
384,288,38153,1,8
448,328,38323,1,0
448,328,38492,1,0
448,184,38831,2,2,B|448:96,1,80,10|0
448,24,39170,5,4
384,64,39340,1,0
256,152,39679,1,0
128,64,40018,1,0
256,8,40357,2,2,B|304:88|193:64|256:154,3,160
288,224,41543,1,8
216,256,41713,1,4
184,184,41882,1,4
56,192,42221,5,0
56,192,42390,1,0
456,192,42729,5,0
256,208,43068,12,4,44255
256,192,44594,5,4
336,192,44763,1,0
296,120,44933,1,8
216,120,45102,1,0
176,192,45272,1,0
216,264,45441,1,0
296,264,45611,1,8
104,80,45950,5,2
104,80,46119,2,0,B|64:104,1,40,0|2
104,304,46374,2,0,B|64:280,1,40,0|2
16,192,46628,2,0,L|104:192,1,80,8|0
176,192,46967,1,2
256,48,47306,6,0,L|344:48,1,80,0|0
464,120,47645,2,0,L|376:120,1,80,8|0
256,192,47984,2,0,L|336:192,1,80,8|0
464,264,48323,2,0,L|376:264,1,80,8|0
376,295,48577,1,0
367,326,48662,1,0
291,327,48831,2,0,L|255:350|219:327,2,80,0|8|0
256,264,49340,5,2
184,136,49509,1,8
328,136,49679,1,6
328,136,50018,5,2
184,136,50187,1,0
256,264,50357,1,8
328,136,50526,1,0
184,136,50696,5,2
256,264,50865,1,0
328,136,51035,1,8
240,64,51374,5,2
184,136,51543,1,0
184,136,51628,1,2
128,64,51797,1,0
128,64,51882,1,2
72,136,52052,2,0,L|56:136|64:136|-8:136,2,80,2|0|8
144,296,52729,6,0,L|64:296,2,80,0|0|8
120,216,53238,1,0
208,240,53407,1,2
288,224,53577,2,2,L|312:248|336:224|360:248|384:224|408:248,1,160,0|4
456,184,54085,1,8
456,184,54170,1,0
456,184,54255,1,8
456,184,54340,1,0
456,184,54424,1,8
456,184,54509,1,0
456,184,54594,1,8
256,208,54636,12,4,55441
256,192,55611,5,0
184,144,55780,1,8
112,192,55950,1,0
256,96,56289,5,0
328,40,56458,1,8
400,96,56628,1,0
328,136,56797,5,0
400,192,56967,1,0
400,192,57052,1,0
400,280,57221,1,0
400,280,57306,1,0
328,328,57475,1,0
328,232,57645,1,0
256,280,57814,2,0,L|80:280,1,160
24,280,58153,5,4
24,280,58323,1,0
96,280,58492,1,8
96,280,58662,1,0
96,208,58831,1,0
24,208,59001,1,0
24,280,59170,1,8
184,144,59509,5,0
184,144,59594,1,0
256,192,59763,1,0
256,192,59848,1,0
328,144,60018,1,0
256,112,60187,2,0,L|256:32,1,80
256,32,60526,2,0,L|256:8,9,20,0|0|0|0|0|0|0|0|4|4
328,72,61204,5,8
184,144,61543,1,0
328,240,61882,1,8
184,312,62221,1,0
256,344,62390,1,0
256,344,62475,1,0
328,312,62645,1,0
328,312,62729,1,0
328,240,62899,1,0
256,192,63068,1,0
184,240,63238,1,0
48,192,63577,5,4
48,192,63746,1,0
56,112,63916,2,0,B|104:112|120:168,1,80,8|0
112,232,64255,1,2
184,240,64424,2,2,B|168:136|272:112,1,160,0|0
328,128,64933,1,8
336,128,65018,1,0
344,128,65102,1,8
352,128,65187,1,0
360,128,65272,1,8
368,128,65357,1,0
376,128,65441,1,8
384,128,65526,1,0
392,128,65611,2,0,L|488:128,2,80,8|0|2
136,88,75780,6,0,B|120:56|104:40|80:32|48:40|32:64|16:96|24:128|40:160|64:184|88:224|88:224|120:216|144:208|176:192|208:192|232:152|232:112|216:80|192:64|144:80,1,560
149,78,77136,1,0
256,8,77475,1,0
360,80,77814,1,0
296,192,78153,1,0
424,192,78492,1,0
488,304,78831,1,0
360,304,79170,1,0
232,304,79509,1,0
232,304,79679,1,0
232,304,79848,5,0
296,192,80187,1,0
232,80,80526,1,0
168,192,80865,1,0
40,192,81204,1,0
104,304,81543,1,0
232,304,81882,1,0
296,192,82221,1,0
360,80,82560,5,4
360,80,82729,1,0
400,136,82899,1,0
400,136,83068,1,0
360,192,83238,1,0
360,192,83407,1,0
296,192,83577,1,0
296,192,83746,1,0
264,136,83916,5,4
264,136,84085,1,0
200,136,84255,1,0
200,136,84424,1,0
168,192,84594,1,0
168,192,84763,1,0
200,248,84932,1,0
200,248,85102,1,0
264,248,85272,5,4
264,248,85441,1,0
296,192,85611,1,0
296,192,85780,1,0
328,248,85950,1,4
328,248,86119,1,0
360,192,86289,1,0
392,248,86458,1,0
424,192,86628,5,0
328,64,86967,1,0
88,192,87306,5,0
184,64,87645,1,0
216,129,87814,1,0
256,192,87984,5,4
88,192,88323,2,0,L|0:192,2,80,8|0|0
176,336,89001,1,8
176,336,89170,2,2,L|336:336,2,160,0|2|8
176,264,90018,1,0
336,264,90357,5,2
400,304,90526,1,0
464,264,90696,1,8
400,136,91035,1,0
336,264,91374,5,2
464,264,91543,1,8
400,136,91882,1,4
256,136,92221,6,0,L|176:136,1,80,0|8
176,64,92560,2,0,L|96:64,1,80
96,136,92899,2,0,L|8:136,1,80,0|8
16,216,93238,1,0
96,216,93407,1,4
208,320,93746,5,8
256,264,93916,1,0
304,320,94085,1,0
416,192,94424,2,0,L|456:192,2,40,0|0|2
416,128,94763,1,4
352,128,94933,2,2,B|256:128|256:24,1,160,0|2
192,8,95441,2,0,B|152:32|168:80,1,80,8|0
192,136,95780,1,4
333,222,96119,5,0
307,251,96289,1,0
281,283,96459,1,0
256,314,96628,1,4
230,283,96798,1,0
204,251,96968,1,0
178,222,97137,1,0
256,192,97475,5,4
256,192,97814,2,0,L|256:104,2,80
256,192,98492,1,2
392,192,98831,5,4
392,192,99001,1,0
256,290,99340,1,0
120,192,99679,1,0
176,40,100018,2,2,L|336:40,4,160,2|2|2|2|8
96,40,101543,6,0,B|64:144|128:200,1,160,4|8
160,120,102052,2,0,B|232:176|192:272,1,160
120,288,102560,1,8
176,344,102730,2,2,B|256:384|344:336,1,160,2|0
384,288,103238,1,8
448,328,103408,1,0
448,328,103577,1,0
488,256,103746,1,0
448,184,103916,2,0,B|448:96,1,80,8|0
448,24,104255,5,4
448,24,104425,1,0
256,104,104763,1,0
64,24,105102,1,0
64,24,105272,1,0
64,24,105441,1,0
256,104,105780,1,0
168,192,106119,5,0
344,192,106289,1,0
256,288,106628,1,0
256,304,106713,1,0
256,320,106797,1,0
256,336,106882,1,0
256,352,106967,1,0
256,192,107306,5,0
256,192,107475,1,0
256,192,107814,1,0
256,192,107984,1,0
256,208,108153,12,4,109679
