osu file format v12

[General]
AudioFilename: smooooch.mp3
AudioLeadIn: 0
PreviewTime: 12299
Countdown: 0
SampleSet: Soft
StackLeniency: 0.7
Mode: 0
LetterboxInBreaks: 1
WidescreenStoryboard: 0

[Editor]
DistanceSpacing: 0.8
BeatDivisor: 4
GridSize: 4
TimelineZoom: 1

[Metadata]
Title:smooooch
TitleUnicode:smooooch
Artist:kors k
ArtistUnicode:kors k
Creator:Franc[e]sco
Version:Normal
Source:beatmania IIDX 16 EMPRESS
Tags:candy rave
BeatmapID:155181
BeatmapSetID:50092

[Difficulty]
HPDrainRate:5
CircleSize:4
OverallDifficulty:5
ApproachRate:6
SliderMultiplier:1
SliderTickRate:2

[Events]
//Background and Video events
Video,-700,"Senza titolo.avi"
0,0,"nh110504smooooch.jpg",0,0
//Break Periods
2,45550,55147
2,67245,75486
//Storyboard Layer 0 (Background)
//Storyboard Layer 1 (Fail)
//Storyboard Layer 2 (Pass)
//Storyboard Layer 3 (Foreground)
//Storyboard Sound Samples
//Background Colour Transformations
3,100,0,0,0

[TimingPoints]
1960.59337189988,338.983050847458,4,2,0,50,1,0
23655,-100,4,2,0,50,0,1
34502,-100,4,2,0,50,0,0
76536,-200,4,2,0,50,0,0
77892,-100,4,2,0,50,0,0
88740,-100,4,2,0,50,0,1
110604,-100,4,2,0,5,0,0

[Colours]
Combo1 : 86,47,40
Combo2 : 40,177,219
Combo3 : 240,101,160
Combo4 : 241,228,123
Combo5 : 229,196,151

[HitObjects]
256,192,12808,5,0,0:0:0:0:
256,192,13147,1,0,0:0:0:0:
180,288,15519,5,0,0:0:0:0:
180,288,15689,1,0,0:0:0:0:
180,288,15858,1,4,0:0:0:0:
344,288,18231,5,4,0:0:0:0:
460,192,20943,5,0,0:0:0:0:
384,172,21282,1,0,0:0:0:0:
336,108,21621,1,0,0:0:0:0:
280,164,21960,1,0,0:0:0:0:
204,188,22299,1,4,0:0:0:0:
292,320,22977,1,4,0:0:0:0:
400,192,23655,5,0,0:0:0:0:
444,260,23994,2,0,B|392:292|336:244,1,100,8|0,0:0|0:0,0:0:0:0:
320,180,24672,1,8,0:0:0:0:
364,112,25011,2,0,B|316:76|260:120,1,100,0|8,0:0|0:0,0:0:0:0:
220,52,25689,1,0,0:0:0:0:
152,92,26028,1,8,0:0:0:0:
88,44,26367,5,0,0:0:0:0:
40,108,26706,1,8,0:0:0:0:
88,172,27045,2,0,B|44:208|60:264,1,100,0|8,0:0|0:0,0:0:0:0:
136,236,27723,2,0,P|136:288|108:328,1,100,0|8,0:0|0:0,0:0:0:0:
184,356,28401,1,0,0:0:0:0:
260,328,28740,1,8,0:0:0:0:
276,248,29079,6,0,P|280:188|344:252,1,200
396,312,30096,1,8,0:0:0:0:
396,312,30265,2,0,P|434:244|416:156,1,150
452,100,31113,1,0,0:0:0:0:
300,56,31791,6,0,B|235:50|208:120,1,100,4|8,0:0|0:0,0:0:0:0:
288,136,32469,2,0,B|328:172|304:228,1,100,4|8,0:0|0:0,0:0:0:0:
232,192,33147,2,0,B|207:240|248:288,1,100,4|8,0:0|0:0,0:0:0:0:
320,312,33825,1,4,0:0:0:0:
320,312,34163,1,12,0:0:0:0:
492,276,34502,5,0,0:0:0:0:
424,320,34841,2,0,B|376:248|472:208|384:132,1,200,8|0,0:0|0:0,0:0:0:0:
460,104,35858,2,0,B|431:47|364:56,1,100,0|8,0:0|0:0,0:0:0:0:
320,112,36536,1,0,0:0:0:0:
272,48,36875,1,8,0:0:0:0:
212,104,37214,6,0,B|136:168|92:72|24:128,1,200,0|8,0:0|0:0,0:0:0:0:
72,184,38231,2,0,B|100:200|56:248|116:268,1,100,8|0,0:0|0:0,0:0:0:0:
184,240,38909,1,8,0:0:0:0:
256,260,39248,1,0,0:0:0:0:
276,332,39587,1,8,0:0:0:0:
352,320,39926,6,0,B|400:280|360:220,1,100,0|8,0:0|0:0,0:0:0:0:
308,184,40604,1,0,0:0:0:0:
232,180,40943,1,8,0:0:0:0:
180,120,41282,2,0,B|124:100|128:40,1,100,0|8,0:0|0:0,0:0:0:0:
208,44,41960,1,0,0:0:0:0:
276,88,42299,1,8,0:0:0:0:
344,44,42638,6,4,B|372:80|304:116|380:144|384:124,1,100
448,140,43316,2,4,B|420:176|488:212|412:240|408:220,1,100
256,192,43994,12,4,45350,0:0:0:0:
456,56,56197,5,0,0:0:0:0:
396,108,56536,1,8,0:0:0:0:
472,256,57214,5,8,0:0:0:0:
464,336,57553,2,0,B|292:360|352:224|196:228,1,300,0|8,0:0|0:0,0:0:0:0:
148,288,58909,5,0,0:0:0:0:
80,336,59248,1,8,0:0:0:0:
40,268,59587,1,0,0:0:0:0:
68,192,59926,1,8,0:0:0:0:
40,116,60265,2,0,B|120:64|228:152|352:76,1,300,0|8,0:0|0:0,0:0:0:0:
396,36,61621,5,0,0:0:0:0:
444,100,61960,1,8,0:0:0:0:
452,180,62299,1,0,0:0:0:0:
428,256,62638,1,8,0:0:0:0:
372,316,62977,2,0,B|296:364|148:260|64:316,1,300,0|4,0:0|0:0,0:0:0:0:
256,192,64333,12,4,67045,0:0:0:0:
48,192,76536,6,8,B|96:192|88:240|148:228,1,100
268,320,77892,1,8,0:0:0:0:
340,288,78231,1,8,0:0:0:0:
408,328,78570,1,8,0:0:0:0:
448,216,79079,1,8,0:0:0:0:
428,140,79418,1,8,0:0:0:0:
464,68,79757,1,8,0:0:0:0:
464,68,79926,1,8,0:0:0:0:
392,36,80265,5,8,0:0:0:0:
324,80,80604,1,8,0:0:0:0:
256,40,80943,1,8,0:0:0:0:
208,104,81282,1,8,0:0:0:0:
264,164,81621,1,8,0:0:0:0:
284,240,81960,1,8,0:0:0:0:
348,196,82299,1,8,0:0:0:0:
428,208,82638,1,8,0:0:0:0:
472,276,82977,1,8,0:0:0:0:
392,280,83316,6,8,B|376:336|292:328,1,100
236,352,83994,1,8,0:0:0:0:
168,312,84333,1,8,0:0:0:0:
168,312,84502,1,8,0:0:0:0:
92,336,84841,1,8,0:0:0:0:
52,224,85350,1,8,0:0:0:0:
256,192,86028,12,4,87384,0:0:0:0:
256,192,87723,5,4,0:0:0:0:
320,144,88062,1,4,0:0:0:0:
256,96,88401,1,4,0:0:0:0:
328,64,88740,6,0,B|392:68|400:144,1,100,0|8,0:0|0:0,0:0:0:0:
472,156,89418,2,0,P|428:200|376:200,1,100,0|8,0:0|0:0,0:0:0:0:
412,280,90096,1,0,0:0:0:0:
464,344,90435,1,8,0:0:0:0:
384,360,90774,2,0,P|344:336|328:288,1,100,0|8,0:0|0:0,0:0:0:0:
264,336,91452,5,0,0:0:0:0:
220,268,91791,1,8,0:0:0:0:
160,324,92130,2,0,B|108:344|64:308,1,100,0|8,0:0|0:0,0:0:0:0:
12,248,92808,1,0,0:0:0:0:
32,172,93147,1,8,0:0:0:0:
104,140,93486,2,0,B|108:84|60:52,1,100,0|8,0:0|0:0,0:0:0:0:
136,24,94163,6,0,B|180:60|252:32,1,100,0|8,0:0|0:0,0:0:0:0:
284,100,94841,1,0,0:0:0:0:
216,144,95180,1,8,0:0:0:0:
180,216,95519,2,0,B|180:276|244:296,1,100,0|8,0:0|0:0,0:0:0:0:
312,308,96197,1,0,0:0:0:0:
424,256,96875,6,4,B|360:152|436:60,1,200
288,52,98231,2,4,B|200:108|80:52,1,200
52,124,99248,1,0,0:0:0:0:
120,168,99587,6,0,B|84:216|32:200,1,100,0|8,0:0|0:0,0:0:0:0:
44,280,100265,1,0,0:0:0:0:
124,292,100604,1,8,0:0:0:0:
180,348,100943,2,0,P|216:320|272:344,1,100
320,280,101621,1,0,0:0:0:0:
376,332,101960,5,8,0:0:0:0:
440,284,102299,2,0,B|420:236|456:184,1,100,0|8,0:0|0:0,0:0:0:0:
392,140,102977,1,0,0:0:0:0:
440,76,103316,1,8,0:0:0:0:
368,40,103655,2,8,B|312:76|260:32,1,100,0|8,0:0|0:0,0:0:0:0:
236,112,104333,5,0,0:0:0:0:
172,64,104672,1,8,0:0:0:0:
120,120,105011,1,0,0:0:0:0:
44,132,105350,1,12,0:0:0:0:
36,284,105858,6,4,B|64:328|124:316,1,100
180,264,106536,1,4,0:0:0:0:
232,320,106875,1,4,0:0:0:0:
232,320,107045,1,0,0:0:0:0:
328,192,107723,5,0,0:0:0:0:
284,124,108062,1,8,0:0:0:0:
204,136,108401,1,0,0:0:0:0:
180,212,108740,1,8,0:0:0:0:
236,272,109079,1,0,0:0:0:0:
316,268,109418,2,4,B|360:308,4,50
256,192,110435,12,0,111791,0:0:0:0:
