osu file format v12

[General]
AudioFilename: smooooch.mp3
AudioLeadIn: 0
PreviewTime: 12299
Countdown: 0
SampleSet: Soft
StackLeniency: 0.7
Mode: 3
LetterboxInBreaks: 1
SpecialStyle: 0
WidescreenStoryboard: 1

[Editor]
DistanceSpacing: 0.8
BeatDivisor: 4
GridSize: 4
TimelineZoom: 1

[Metadata]
Title:smooooch
TitleUnicode:smooooch
Artist:kors k
ArtistUnicode:kors k
Creator:Franc[e]sco
Version:Heavy
Source:beatmania IIDX 16 EMPRESS
Tags:candy rave
BeatmapID:284786
BeatmapSetID:50092

[Difficulty]
HPDrainRate:7
CircleSize:4
OverallDifficulty:8
ApproachRate:2
SliderMultiplier:1
SliderTickRate:1

[Events]
//Background and Video events
Video,-700,"Senza titolo.avi"
0,0,"nh110504smooooch.jpg",0,0
//Break Periods
//Storyboard Layer 0 (Background)
//Storyboard Layer 1 (Fail)
//Storyboard Layer 2 (Pass)
//Storyboard Layer 3 (Foreground)
//Storyboard Sound Samples
//Background Colour Transformations
3,100,0,0,0

[TimingPoints]
1960.59337189988,338.983050847458,4,2,0,35,1,0
23655,-100,4,2,0,35,0,1
34502,-100,4,2,0,35,0,0
88740,-100,4,2,0,35,0,1
110599,-100,4,2,0,5,0,0

[Colours]
Combo1 : 86,47,40
Combo2 : 40,177,219
Combo3 : 240,101,160
Combo4 : 241,228,123
Combo5 : 229,196,151

[HitObjects]
448,192,1960,5,0,0:0:0:0:
320,192,2130,1,0,0:0:0:0:
192,192,2299,1,0,0:0:0:0:
64,192,2469,1,0,0:0:0:0:
320,192,2638,1,0,0:0:0:0:
192,192,2808,1,0,0:0:0:0:
320,192,2977,1,0,0:0:0:0:
64,192,3147,1,0,0:0:0:0:
448,192,3316,1,0,0:0:0:0:
320,192,3486,1,0,0:0:0:0:
192,192,3655,1,0,0:0:0:0:
64,192,3825,1,0,0:0:0:0:
192,192,3994,1,0,0:0:0:0:
320,192,4163,1,0,0:0:0:0:
448,192,4333,1,0,0:0:0:0:
320,192,4502,1,0,0:0:0:0:
448,192,4672,1,0,0:0:0:0:
320,192,4842,1,0,0:0:0:0:
192,192,5011,1,0,0:0:0:0:
64,192,5181,1,0,0:0:0:0:
320,192,5350,1,0,0:0:0:0:
192,192,5520,1,0,0:0:0:0:
320,192,5689,1,0,0:0:0:0:
64,192,5859,1,0,0:0:0:0:
448,192,6028,1,0,0:0:0:0:
320,192,6198,1,0,0:0:0:0:
192,192,6367,1,0,0:0:0:0:
64,192,6537,1,0,0:0:0:0:
192,192,6706,1,0,0:0:0:0:
320,192,6875,1,0,0:0:0:0:
448,192,7045,1,0,0:0:0:0:
320,192,7214,1,0,0:0:0:0:
448,192,7384,1,0,0:0:0:0:
64,192,7553,1,0,0:0:0:0:
320,192,7723,1,0,0:0:0:0:
64,192,7892,1,0,0:0:0:0:
192,192,8062,1,0,0:0:0:0:
64,192,8231,1,0,0:0:0:0:
192,192,8401,1,0,0:0:0:0:
64,192,8570,1,0,0:0:0:0:
448,192,8740,1,0,0:0:0:0:
64,192,8909,1,0,0:0:0:0:
192,192,9079,1,0,0:0:0:0:
64,192,9248,1,0,0:0:0:0:
320,192,9418,1,0,0:0:0:0:
448,192,9587,1,0,0:0:0:0:
320,192,9757,1,0,0:0:0:0:
448,192,9926,1,0,0:0:0:0:
320,192,10096,1,0,0:0:0:0:
192,192,10265,1,0,0:0:0:0:
64,192,10435,1,0,0:0:0:0:
192,192,10604,1,0,0:0:0:0:
320,192,10774,1,0,0:0:0:0:
192,192,10943,1,0,0:0:0:0:
64,192,11113,1,0,0:0:0:0:
192,192,11282,1,0,0:0:0:0:
448,192,11452,1,0,0:0:0:0:
320,192,11621,1,0,0:0:0:0:
64,192,11791,1,0,0:0:0:0:
192,192,11960,1,0,0:0:0:0:
320,192,12130,1,0,0:0:0:0:
192,192,12299,1,0,0:0:0:0:
320,192,12469,1,0,0:0:0:0:
192,192,12638,1,0,0:0:0:0:
64,192,12808,1,4,0:0:0:0:
320,192,12808,1,4,0:0:0:0:
320,192,13147,1,4,0:0:0:0:
64,192,13147,1,4,0:0:0:0:
448,192,13486,1,0,0:0:0:0:
320,192,13655,1,0,0:0:0:0:
192,192,13825,1,0,0:0:0:0:
64,192,13994,1,0,0:0:0:0:
448,192,14163,1,0,0:0:0:0:
320,192,14333,1,0,0:0:0:0:
64,192,14502,1,0,0:0:0:0:
192,192,14672,1,0,0:0:0:0:
320,192,14841,1,0,0:0:0:0:
192,192,15011,1,0,0:0:0:0:
448,192,15180,1,0,0:0:0:0:
320,192,15350,1,0,0:0:0:0:
192,192,15519,1,4,0:0:0:0:
320,192,15519,1,4,0:0:0:0:
192,192,15689,1,4,0:0:0:0:
320,192,15689,1,4,0:0:0:0:
192,192,15858,1,4,0:0:0:0:
320,192,15858,1,4,0:0:0:0:
448,192,16197,1,0,0:0:0:0:
320,192,16367,1,0,0:0:0:0:
448,192,16536,1,0,0:0:0:0:
64,192,16706,1,0,0:0:0:0:
192,192,16875,1,0,0:0:0:0:
64,192,17045,1,0,0:0:0:0:
448,192,17214,1,0,0:0:0:0:
320,192,17384,1,0,0:0:0:0:
192,192,17553,1,0,0:0:0:0:
320,192,17723,1,0,0:0:0:0:
192,192,17892,1,0,0:0:0:0:
320,192,18062,1,0,0:0:0:0:
64,192,18231,1,4,0:0:0:0:
448,192,18231,1,4,0:0:0:0:
448,192,18570,1,0,0:0:0:0:
320,192,18740,1,0,0:0:0:0:
64,192,18909,1,0,0:0:0:0:
192,192,19079,1,0,0:0:0:0:
64,192,19248,1,0,0:0:0:0:
192,192,19418,1,0,0:0:0:0:
320,192,19587,1,0,0:0:0:0:
448,192,19757,1,0,0:0:0:0:
320,192,19926,1,0,0:0:0:0:
448,192,20096,1,0,0:0:0:0:
192,192,20265,1,0,0:0:0:0:
448,192,20435,1,0,0:0:0:0:
320,192,20604,1,0,0:0:0:0:
448,192,20774,1,0,0:0:0:0:
320,192,20943,1,0,0:0:0:0:
192,192,21028,1,0,0:0:0:0:
320,192,21113,1,0,0:0:0:0:
192,192,21197,1,0,0:0:0:0:
320,192,21282,1,0,0:0:0:0:
192,192,21367,1,0,0:0:0:0:
320,192,21452,1,0,0:0:0:0:
192,192,21536,1,0,0:0:0:0:
448,192,21621,1,0,0:0:0:0:
64,192,21706,1,0,0:0:0:0:
448,192,21791,1,0,0:0:0:0:
64,192,21875,1,0,0:0:0:0:
448,192,21960,1,0,0:0:0:0:
64,192,22045,1,0,0:0:0:0:
448,192,22130,1,0,0:0:0:0:
64,192,22214,1,0,0:0:0:0:
320,192,22299,128,0,22977:0:0:0:0:
192,192,22299,128,0,22977:0:0:0:0:
64,192,22977,128,0,23655:0:0:0:0:
448,192,22977,128,0,23655:0:0:0:0:
192,192,23655,1,0,0:0:0:0:
320,192,23655,1,0,0:0:0:0:
64,192,23825,1,0,0:0:0:0:
448,192,23994,1,8,0:0:0:0:
64,192,23994,1,8,0:0:0:0:
64,192,24163,1,0,0:0:0:0:
192,192,24333,1,0,0:0:0:0:
320,192,24333,1,0,0:0:0:0:
64,192,24502,1,0,0:0:0:0:
448,192,24672,1,8,0:0:0:0:
192,192,24672,1,8,0:0:0:0:
192,192,24841,1,0,0:0:0:0:
64,192,25011,1,0,0:0:0:0:
320,192,25011,1,0,0:0:0:0:
64,192,25180,1,0,0:0:0:0:
320,192,25180,1,0,0:0:0:0:
320,192,25350,1,8,0:0:0:0:
192,192,25350,1,8,0:0:0:0:
448,192,25519,1,0,0:0:0:0:
64,192,25519,1,0,0:0:0:0:
320,192,25689,1,0,0:0:0:0:
192,192,25689,1,0,0:0:0:0:
448,192,25858,1,8,0:0:0:0:
320,192,25943,1,8,0:0:0:0:
448,192,26028,1,8,0:0:0:0:
192,192,26197,1,8,0:0:0:0:
448,192,26367,1,0,0:0:0:0:
64,192,26367,1,0,0:0:0:0:
448,192,26536,1,0,0:0:0:0:
320,192,26706,1,8,0:0:0:0:
192,192,26706,1,8,0:0:0:0:
448,192,26875,1,0,0:0:0:0:
320,192,27045,1,0,0:0:0:0:
64,192,27045,1,0,0:0:0:0:
320,192,27214,1,0,0:0:0:0:
192,192,27214,1,0,0:0:0:0:
320,192,27384,1,8,0:0:0:0:
192,192,27384,1,8,0:0:0:0:
192,192,27553,128,0,27892:0:0:0:0:
448,192,27553,128,0,27892:0:0:0:0:
320,192,27892,1,8,0:0:0:0:
192,192,27977,1,8,0:0:0:0:
320,192,28062,1,8,0:0:0:0:
192,192,28231,1,8,0:0:0:0:
320,192,28231,1,8,0:0:0:0:
64,192,28401,1,8,0:0:0:0:
320,192,28401,1,8,0:0:0:0:
64,192,28570,1,8,0:0:0:0:
448,192,28570,1,8,0:0:0:0:
320,192,28740,1,8,0:0:0:0:
192,192,28740,1,8,0:0:0:0:
320,192,28909,1,0,0:0:0:0:
320,192,29079,1,0,0:0:0:0:
64,192,29079,1,0,0:0:0:0:
320,192,29418,1,8,0:0:0:0:
192,192,29418,1,8,0:0:0:0:
64,192,29587,1,0,0:0:0:0:
320,192,29587,1,0,0:0:0:0:
320,192,29757,128,0,30096:0:0:0:0:
192,192,29757,128,0,30096:0:0:0:0:
64,192,30096,1,8,0:0:0:0:
192,192,30180,1,0,0:0:0:0:
320,192,30265,128,0,30604:0:0:0:0:
192,192,30604,128,0,30943:0:0:0:0:
64,192,30943,1,0,0:0:0:0:
448,192,30943,1,0,0:0:0:0:
320,192,31113,128,0,31791:0:0:0:0:
448,192,31113,128,0,31791:0:0:0:0:
192,192,31791,1,0,0:0:0:0:
192,192,31960,1,0,0:0:0:0:
320,192,31960,1,0,0:0:0:0:
192,192,32130,1,8,0:0:0:0:
448,192,32130,1,8,0:0:0:0:
320,192,32299,1,0,0:0:0:0:
448,192,32299,1,0,0:0:0:0:
64,192,32469,1,0,0:0:0:0:
192,192,32469,1,0,0:0:0:0:
64,192,32638,1,0,0:0:0:0:
320,192,32638,1,0,0:0:0:0:
192,192,32808,1,8,0:0:0:0:
320,192,32808,1,8,0:0:0:0:
64,192,32977,1,0,0:0:0:0:
448,192,32977,1,0,0:0:0:0:
192,192,33147,1,4,0:0:0:0:
320,192,33147,1,4,0:0:0:0:
64,192,33316,1,4,0:0:0:0:
320,192,33316,1,4,0:0:0:0:
192,192,33486,1,12,0:0:0:0:
320,192,33486,1,12,0:0:0:0:
64,192,33655,1,4,0:0:0:0:
320,192,33655,1,4,0:0:0:0:
192,192,33825,1,4,0:0:0:0:
320,192,33825,1,4,0:0:0:0:
64,192,33994,1,0,0:0:0:0:
448,192,33994,1,0,0:0:0:0:
448,192,34163,1,8,0:0:0:0:
448,192,34248,1,8,0:0:0:0:
448,192,34333,1,8,0:0:0:0:
448,192,34418,1,8,0:0:0:0:
448,192,34502,1,0,0:0:0:0:
64,192,34502,1,0,0:0:0:0:
320,192,34672,1,0,0:0:0:0:
192,192,34672,1,0,0:0:0:0:
448,192,34841,1,8,0:0:0:0:
64,192,34841,1,8,0:0:0:0:
320,192,35011,1,0,0:0:0:0:
192,192,35011,1,0,0:0:0:0:
64,192,35350,1,0,0:0:0:0:
192,192,35350,1,0,0:0:0:0:
192,192,35519,1,8,0:0:0:0:
320,192,35519,1,8,0:0:0:0:
320,192,35689,1,0,0:0:0:0:
448,192,35689,1,0,0:0:0:0:
448,192,35858,1,0,0:0:0:0:
64,192,35858,1,0,0:0:0:0:
448,192,36028,1,0,0:0:0:0:
320,192,36028,1,0,0:0:0:0:
448,192,36367,1,0,0:0:0:0:
64,192,36367,1,0,0:0:0:0:
320,192,36536,1,0,0:0:0:0:
320,192,36875,1,8,0:0:0:0:
64,192,36875,1,8,0:0:0:0:
448,192,37045,1,0,0:0:0:0:
64,192,37045,1,0,0:0:0:0:
320,192,37214,1,0,0:0:0:0:
192,192,37214,1,0,0:0:0:0:
320,192,37384,1,0,0:0:0:0:
64,192,37384,1,0,0:0:0:0:
320,192,37553,1,8,0:0:0:0:
320,192,37723,1,0,0:0:0:0:
64,192,37723,1,0,0:0:0:0:
320,192,37892,1,0,0:0:0:0:
192,192,37892,1,0,0:0:0:0:
320,192,38062,1,0,0:0:0:0:
64,192,38062,1,0,0:0:0:0:
64,192,38231,1,8,0:0:0:0:
192,192,38231,1,8,0:0:0:0:
64,192,38401,1,0,0:0:0:0:
448,192,38401,1,0,0:0:0:0:
320,192,38570,1,0,0:0:0:0:
192,192,38570,1,0,0:0:0:0:
320,192,38740,1,0,0:0:0:0:
448,192,38825,1,0,0:0:0:0:
320,192,38909,1,8,0:0:0:0:
192,192,38909,1,8,0:0:0:0:
64,192,39079,1,0,0:0:0:0:
320,192,39079,1,0,0:0:0:0:
320,192,39248,1,0,0:0:0:0:
192,192,39248,1,0,0:0:0:0:
320,192,39418,1,0,0:0:0:0:
192,192,39587,1,8,0:0:0:0:
320,192,39587,1,8,0:0:0:0:
192,192,39757,1,0,0:0:0:0:
448,192,39757,1,0,0:0:0:0:
320,192,39926,1,0,0:0:0:0:
64,192,40096,1,0,0:0:0:0:
320,192,40265,1,8,0:0:0:0:
64,192,40435,1,0,0:0:0:0:
64,192,40774,1,0,0:0:0:0:
192,192,40943,1,8,0:0:0:0:
320,192,41113,1,0,0:0:0:0:
192,192,41282,1,0,0:0:0:0:
320,192,41282,1,0,0:0:0:0:
64,192,41452,1,0,0:0:0:0:
448,192,41452,1,0,0:0:0:0:
192,192,41791,1,0,0:0:0:0:
64,192,41791,1,0,0:0:0:0:
64,192,42130,1,0,0:0:0:0:
448,192,42130,1,0,0:0:0:0:
192,192,42299,1,8,0:0:0:0:
320,192,42299,1,8,0:0:0:0:
64,192,42469,1,0,0:0:0:0:
448,192,42469,1,0,0:0:0:0:
320,192,42638,1,0,0:0:0:0:
192,192,42723,1,0,0:0:0:0:
320,192,42808,1,0,0:0:0:0:
192,192,42892,1,0,0:0:0:0:
320,192,42977,1,8,0:0:0:0:
192,192,43062,1,0,0:0:0:0:
320,192,43147,1,0,0:0:0:0:
192,192,43231,1,0,0:0:0:0:
448,192,43316,1,0,0:0:0:0:
64,192,43401,1,0,0:0:0:0:
448,192,43486,1,0,0:0:0:0:
64,192,43570,1,0,0:0:0:0:
448,192,43655,1,8,0:0:0:0:
64,192,43740,1,0,0:0:0:0:
448,192,43825,1,0,0:0:0:0:
64,192,43909,1,0,0:0:0:0:
320,192,43994,1,0,0:0:0:0:
64,192,44079,1,0,0:0:0:0:
320,192,44163,1,0,0:0:0:0:
64,192,44248,1,0,0:0:0:0:
320,192,44333,1,8,0:0:0:0:
64,192,44418,1,0,0:0:0:0:
320,192,44502,1,0,0:0:0:0:
64,192,44587,1,0,0:0:0:0:
320,192,44672,1,4,0:0:0:0:
448,192,44672,1,4,0:0:0:0:
64,192,44757,1,4,0:0:0:0:
320,192,44841,1,4,0:0:0:0:
448,192,44841,1,4,0:0:0:0:
64,192,44926,1,4,0:0:0:0:
320,192,45011,1,12,0:0:0:0:
448,192,45011,1,12,0:0:0:0:
64,192,45096,1,4,0:0:0:0:
320,192,45180,1,4,0:0:0:0:
448,192,45180,1,4,0:0:0:0:
448,192,45350,1,0,0:0:0:0:
64,192,45350,1,0,0:0:0:0:
64,192,45519,1,0,0:0:0:0:
448,192,45519,1,0,0:0:0:0:
320,192,45689,1,8,0:0:0:0:
448,192,45689,1,8,0:0:0:0:
448,192,45858,1,0,0:0:0:0:
320,192,46028,1,0,0:0:0:0:
448,192,46028,1,0,0:0:0:0:
192,192,46197,1,0,0:0:0:0:
448,192,46197,1,0,0:0:0:0:
192,192,46367,1,8,0:0:0:0:
320,192,46367,1,8,0:0:0:0:
64,192,46536,1,0,0:0:0:0:
320,192,46536,1,0,0:0:0:0:
320,192,46706,1,0,0:0:0:0:
448,192,46706,1,0,0:0:0:0:
320,192,46875,1,0,0:0:0:0:
448,192,46875,1,0,0:0:0:0:
192,192,46960,1,0,0:0:0:0:
64,192,46960,1,0,0:0:0:0:
448,192,47130,1,0,0:0:0:0:
320,192,47130,1,0,0:0:0:0:
192,192,47214,1,0,0:0:0:0:
64,192,47214,1,0,0:0:0:0:
64,192,47384,1,0,0:0:0:0:
448,192,47384,1,0,0:0:0:0:
192,192,47553,1,0,0:0:0:0:
320,192,47553,1,0,0:0:0:0:
192,192,47723,1,8,0:0:0:0:
320,192,47723,1,8,0:0:0:0:
192,192,48062,1,0,0:0:0:0:
64,192,48062,1,0,0:0:0:0:
320,192,48231,1,0,0:0:0:0:
448,192,48231,1,0,0:0:0:0:
192,192,48401,1,8,0:0:0:0:
64,192,48401,1,0,0:0:0:0:
320,192,48570,1,0,0:0:0:0:
448,192,48570,1,0,0:0:0:0:
192,192,48740,1,0,0:0:0:0:
64,192,48740,1,0,0:0:0:0:
448,192,48909,1,0,0:0:0:0:
320,192,48909,1,0,0:0:0:0:
448,192,49079,1,8,0:0:0:0:
320,192,49079,1,8,0:0:0:0:
192,192,49248,1,0,0:0:0:0:
192,192,49333,1,0,0:0:0:0:
448,192,49418,1,0,0:0:0:0:
320,192,49418,1,0,0:0:0:0:
448,192,49587,1,0,0:0:0:0:
320,192,49587,1,0,0:0:0:0:
448,192,49757,1,8,0:0:0:0:
64,192,49757,1,8,0:0:0:0:
192,192,49926,1,0,0:0:0:0:
320,192,49926,1,0,0:0:0:0:
320,192,50096,1,0,0:0:0:0:
448,192,50096,1,0,0:0:0:0:
192,192,50265,1,0,0:0:0:0:
320,192,50265,1,0,0:0:0:0:
192,192,50435,1,8,0:0:0:0:
320,192,50435,1,8,0:0:0:0:
64,192,50774,1,0,0:0:0:0:
192,192,50774,1,0,0:0:0:0:
64,192,50943,1,0,0:0:0:0:
192,192,50943,1,0,0:0:0:0:
448,192,51113,1,8,0:0:0:0:
192,192,51113,1,0,0:0:0:0:
448,192,51282,1,0,0:0:0:0:
192,192,51282,1,0,0:0:0:0:
192,192,51452,1,0,0:0:0:0:
320,192,51621,1,0,0:0:0:0:
448,192,51791,1,0,0:0:0:0:
64,192,51960,1,0,0:0:0:0:
448,192,52130,1,8,0:0:0:0:
448,192,52299,1,8,0:0:0:0:
448,192,52384,1,8,0:0:0:0:
64,192,52553,1,8,0:0:0:0:
64,192,52638,1,8,0:0:0:0:
448,192,52808,1,4,0:0:0:0:
320,192,52808,1,4,0:0:0:0:
64,192,52977,1,4,0:0:0:0:
448,192,52977,1,4,0:0:0:0:
320,192,53147,1,4,0:0:0:0:
192,192,53147,1,4,0:0:0:0:
448,192,53486,1,0,0:0:0:0:
64,192,53486,1,0,0:0:0:0:
320,192,53655,1,0,0:0:0:0:
320,192,53825,1,8,0:0:0:0:
192,192,53825,1,8,0:0:0:0:
448,192,53994,1,0,0:0:0:0:
64,192,53994,1,0,0:0:0:0:
320,192,54163,1,0,0:0:0:0:
64,192,54163,1,0,0:0:0:0:
448,192,54333,1,0,0:0:0:0:
64,192,54333,1,0,0:0:0:0:
320,192,54502,1,8,0:0:0:0:
448,192,54672,1,0,0:0:0:0:
64,192,54672,1,0,0:0:0:0:
448,192,54841,1,0,0:0:0:0:
64,192,54926,1,0,0:0:0:0:
320,192,55011,1,0,0:0:0:0:
192,192,55096,1,0,0:0:0:0:
448,192,55180,1,8,0:0:0:0:
64,192,55265,1,0,0:0:0:0:
192,192,55350,1,0,0:0:0:0:
64,192,55435,1,0,0:0:0:0:
448,192,55519,1,0,0:0:0:0:
192,192,55604,1,0,0:0:0:0:
320,192,55689,1,0,0:0:0:0:
192,192,55774,1,0,0:0:0:0:
448,192,55858,1,8,0:0:0:0:
320,192,55858,1,0,0:0:0:0:
448,192,56028,1,0,0:0:0:0:
192,192,56028,1,0,0:0:0:0:
64,192,56197,1,0,0:0:0:0:
448,192,56197,1,0,0:0:0:0:
192,192,56367,1,0,0:0:0:0:
320,192,56367,1,0,0:0:0:0:
448,192,56536,1,8,0:0:0:0:
64,192,56536,1,8,0:0:0:0:
192,192,56706,1,0,0:0:0:0:
320,192,56706,1,0,0:0:0:0:
192,192,57045,1,0,0:0:0:0:
320,192,57214,1,8,0:0:0:0:
320,192,57384,1,0,0:0:0:0:
192,192,57384,1,0,0:0:0:0:
448,192,57553,1,4,0:0:0:0:
320,192,57553,1,4,0:0:0:0:
448,192,57808,1,4,0:0:0:0:
64,192,57808,1,4,0:0:0:0:
448,192,58062,1,4,0:0:0:0:
320,192,58062,1,4,0:0:0:0:
320,192,58231,1,4,0:0:0:0:
448,192,58231,1,4,0:0:0:0:
320,192,58401,1,4,0:0:0:0:
192,192,58570,1,8,0:0:0:0:
320,192,58570,1,8,0:0:0:0:
448,192,58909,1,0,0:0:0:0:
192,192,58909,1,0,0:0:0:0:
320,192,59079,1,0,0:0:0:0:
192,192,59079,1,0,0:0:0:0:
448,192,59248,1,8,0:0:0:0:
320,192,59418,1,0,0:0:0:0:
64,192,59418,1,0,0:0:0:0:
192,192,59587,1,0,0:0:0:0:
448,192,59757,1,0,0:0:0:0:
320,192,59926,1,8,0:0:0:0:
192,192,60096,1,0,0:0:0:0:
320,192,60096,1,0,0:0:0:0:
320,192,60265,1,0,0:0:0:0:
192,192,60265,1,0,0:0:0:0:
320,192,60435,1,0,0:0:0:0:
320,192,60604,1,8,0:0:0:0:
64,192,60604,1,8,0:0:0:0:
448,192,60774,1,0,0:0:0:0:
448,192,60943,1,0,0:0:0:0:
64,192,61113,1,8,0:0:0:0:
64,192,61197,1,8,0:0:0:0:
448,192,61282,1,8,0:0:0:0:
320,192,61282,1,8,0:0:0:0:
448,192,61452,1,0,0:0:0:0:
448,192,61621,1,0,0:0:0:0:
320,192,61621,1,0,0:0:0:0:
192,192,61791,1,0,0:0:0:0:
64,192,61791,1,0,0:0:0:0:
448,192,61960,1,8,0:0:0:0:
192,192,62130,1,0,0:0:0:0:
64,192,62130,1,0,0:0:0:0:
64,192,62469,1,0,0:0:0:0:
192,192,62469,1,0,0:0:0:0:
448,192,62638,1,8,0:0:0:0:
64,192,62638,1,8,0:0:0:0:
192,192,62808,1,0,0:0:0:0:
320,192,62808,1,0,0:0:0:0:
448,192,62977,1,8,0:0:0:0:
64,192,62977,1,0,0:0:0:0:
320,192,63147,1,8,0:0:0:0:
192,192,63147,1,0,0:0:0:0:
320,192,63231,1,8,0:0:0:0:
192,192,63231,1,0,0:0:0:0:
448,192,63401,1,8,0:0:0:0:
192,192,63401,1,0,0:0:0:0:
448,192,63486,1,8,0:0:0:0:
192,192,63486,1,0,0:0:0:0:
448,192,63655,1,4,0:0:0:0:
64,192,63655,1,4,0:0:0:0:
448,192,63825,1,4,0:0:0:0:
64,192,63825,1,4,0:0:0:0:
64,192,63994,1,4,0:0:0:0:
448,192,63994,1,4,0:0:0:0:
448,192,64333,1,0,0:0:0:0:
64,192,64333,1,0,0:0:0:0:
320,192,64502,1,0,0:0:0:0:
64,192,64502,1,0,0:0:0:0:
320,192,64672,1,0,0:0:0:0:
448,192,64672,1,0,0:0:0:0:
64,192,64841,1,0,0:0:0:0:
192,192,64841,1,0,0:0:0:0:
320,192,65011,1,0,0:0:0:0:
448,192,65011,1,0,0:0:0:0:
192,192,65180,1,0,0:0:0:0:
320,192,65180,1,0,0:0:0:0:
448,192,65350,1,0,0:0:0:0:
64,192,65350,1,0,0:0:0:0:
320,192,65519,1,0,0:0:0:0:
192,192,65519,1,0,0:0:0:0:
448,192,65689,1,0,0:0:0:0:
320,192,65774,1,0,0:0:0:0:
64,192,65858,1,0,0:0:0:0:
192,192,65943,1,0,0:0:0:0:
448,192,66028,1,0,0:0:0:0:
320,192,66113,1,0,0:0:0:0:
448,192,66197,1,0,0:0:0:0:
320,192,66282,1,0,0:0:0:0:
64,192,66367,1,0,0:0:0:0:
192,192,66452,1,0,0:0:0:0:
64,192,66536,1,0,0:0:0:0:
448,192,66621,1,0,0:0:0:0:
320,192,66706,1,0,0:0:0:0:
448,192,66791,1,0,0:0:0:0:
64,192,66875,1,0,0:0:0:0:
192,192,66960,1,0,0:0:0:0:
320,192,67045,1,0,0:0:0:0:
64,192,67214,1,0,0:0:0:0:
192,192,67384,1,0,0:0:0:0:
448,192,67723,1,0,0:0:0:0:
448,192,68062,1,0,0:0:0:0:
320,192,68231,1,0,0:0:0:0:
192,192,68570,1,0,0:0:0:0:
64,192,68740,1,0,0:0:0:0:
192,192,69079,1,0,0:0:0:0:
192,192,69418,1,0,0:0:0:0:
320,192,69587,1,0,0:0:0:0:
320,192,69757,1,0,0:0:0:0:
192,192,69757,1,0,0:0:0:0:
320,192,70096,1,0,0:0:0:0:
64,192,70096,1,0,0:0:0:0:
64,192,70435,1,0,0:0:0:0:
192,192,70435,1,0,0:0:0:0:
64,192,70604,1,0,0:0:0:0:
192,192,70604,1,0,0:0:0:0:
64,192,70943,1,0,0:0:0:0:
448,192,70943,1,0,0:0:0:0:
192,192,71282,1,0,0:0:0:0:
320,192,71452,1,0,0:0:0:0:
192,192,71621,1,0,0:0:0:0:
448,192,71791,1,0,0:0:0:0:
192,192,72130,1,0,0:0:0:0:
320,192,72130,1,0,0:0:0:0:
64,192,72299,1,0,0:0:0:0:
448,192,72299,1,0,0:0:0:0:
192,192,72469,1,0,0:0:0:0:
64,192,72638,1,0,0:0:0:0:
192,192,72808,1,0,0:0:0:0:
448,192,73147,1,0,0:0:0:0:
448,192,73486,1,0,0:0:0:0:
320,192,73655,1,0,0:0:0:0:
64,192,73994,1,0,0:0:0:0:
320,192,74163,1,0,0:0:0:0:
448,192,74163,1,0,0:0:0:0:
64,192,74333,1,0,0:0:0:0:
448,192,74502,1,0,0:0:0:0:
192,192,74502,1,0,0:0:0:0:
64,192,74672,1,0,0:0:0:0:
192,192,74841,1,0,0:0:0:0:
64,192,75011,5,0,0:0:0:0:
448,192,75180,1,0,0:0:0:0:
64,192,75519,1,0,0:0:0:0:
320,192,75858,1,0,0:0:0:0:
448,192,76197,1,0,0:0:0:0:
64,192,76536,128,8,77214:0:0:0:0:
192,192,76536,1,8,0:0:0:0:
192,192,76875,1,0,0:0:0:0:
192,192,77214,128,8,77892:0:0:0:0:
320,192,77214,1,8,0:0:0:0:
320,192,77553,1,0,0:0:0:0:
448,192,77892,128,8,78231:0:0:0:0:
64,192,77892,128,8,78231:0:0:0:0:
320,192,78231,1,8,0:0:0:0:
192,192,78231,1,8,0:0:0:0:
64,192,78401,1,8,0:0:0:0:
192,192,78401,1,8,0:0:0:0:
64,192,78570,128,8,79079:0:0:0:0:
320,192,78570,128,8,79079:0:0:0:0:
192,192,79079,1,8,0:0:0:0:
448,192,79079,1,8,0:0:0:0:
192,192,79418,1,8,0:0:0:0:
320,192,79418,1,8,0:0:0:0:
448,192,79757,1,8,0:0:0:0:
192,192,79757,1,8,0:0:0:0:
64,192,79926,1,8,0:0:0:0:
448,192,79926,1,8,0:0:0:0:
320,192,80096,1,8,0:0:0:0:
192,192,80180,1,8,0:0:0:0:
320,192,80265,1,8,0:0:0:0:
320,192,80435,1,8,0:0:0:0:
192,192,80435,1,8,0:0:0:0:
448,192,80604,1,8,0:0:0:0:
192,192,80604,1,8,0:0:0:0:
64,192,80943,1,8,0:0:0:0:
192,192,80943,1,8,0:0:0:0:
448,192,81282,1,8,0:0:0:0:
320,192,81282,1,8,0:0:0:0:
192,192,81452,1,8,0:0:0:0:
448,192,81452,1,8,0:0:0:0:
192,192,81621,1,8,0:0:0:0:
448,192,81621,1,8,0:0:0:0:
320,192,81791,128,8,82299:0:0:0:0:
448,192,82299,1,8,0:0:0:0:
64,192,82299,1,8,0:0:0:0:
448,192,82469,1,8,0:0:0:0:
320,192,82638,1,8,0:0:0:0:
192,192,82638,1,8,0:0:0:0:
320,192,82808,1,8,0:0:0:0:
64,192,82977,1,8,0:0:0:0:
320,192,82977,1,8,0:0:0:0:
320,192,83147,1,8,0:0:0:0:
192,192,83231,1,8,0:0:0:0:
320,192,83316,1,8,0:0:0:0:
64,192,83316,1,8,0:0:0:0:
320,192,83486,1,8,0:0:0:0:
64,192,83486,1,8,0:0:0:0:
320,192,83655,1,8,0:0:0:0:
192,192,83655,1,8,0:0:0:0:
192,192,83825,1,8,0:0:0:0:
320,192,83825,1,8,0:0:0:0:
448,192,83994,1,8,0:0:0:0:
64,192,83994,1,8,0:0:0:0:
64,192,84163,1,8,0:0:0:0:
448,192,84163,1,8,0:0:0:0:
64,192,84333,1,8,0:0:0:0:
448,192,84333,1,8,0:0:0:0:
64,192,84502,1,8,0:0:0:0:
448,192,84502,1,8,0:0:0:0:
448,192,84672,1,8,0:0:0:0:
192,192,84672,1,8,0:0:0:0:
192,192,84841,1,8,0:0:0:0:
448,192,84841,1,8,0:0:0:0:
320,192,85011,1,8,0:0:0:0:
64,192,85011,1,8,0:0:0:0:
320,192,85180,1,8,0:0:0:0:
64,192,85180,1,8,0:0:0:0:
192,192,85350,1,12,0:0:0:0:
64,192,85350,1,12,0:0:0:0:
320,192,85519,1,12,0:0:0:0:
64,192,85519,1,12,0:0:0:0:
192,192,85689,1,12,0:0:0:0:
64,192,85689,1,12,0:0:0:0:
64,192,85858,1,12,0:0:0:0:
320,192,85858,1,12,0:0:0:0:
448,192,86028,1,4,0:0:0:0:
64,192,86113,1,4,0:0:0:0:
320,192,86197,1,4,0:0:0:0:
64,192,86282,1,4,0:0:0:0:
448,192,86367,1,4,0:0:0:0:
64,192,86452,1,4,0:0:0:0:
320,192,86536,1,4,0:0:0:0:
64,192,86621,1,4,0:0:0:0:
448,192,86706,1,4,0:0:0:0:
64,192,86791,1,4,0:0:0:0:
320,192,86875,1,4,0:0:0:0:
64,192,86960,1,4,0:0:0:0:
448,192,87045,1,4,0:0:0:0:
64,192,87130,1,4,0:0:0:0:
320,192,87214,1,4,0:0:0:0:
64,192,87384,1,2,0:0:0:0:
320,192,87384,1,2,0:0:0:0:
320,192,87723,1,2,0:0:0:0:
64,192,87723,1,2,0:0:0:0:
64,192,88062,1,2,0:0:0:0:
448,192,88062,1,2,0:0:0:0:
192,192,88401,1,2,0:0:0:0:
320,192,88401,1,2,0:0:0:0:
192,192,88570,1,2,0:0:0:0:
320,192,88570,1,2,0:0:0:0:
320,192,88740,1,0,0:0:0:0:
192,192,88740,1,0,0:0:0:0:
448,192,88909,1,0,0:0:0:0:
64,192,89079,1,8,0:0:0:0:
320,192,89079,1,8,0:0:0:0:
448,192,89248,1,0,0:0:0:0:
448,192,89418,1,0,0:0:0:0:
64,192,89418,1,0,0:0:0:0:
448,192,89587,1,0,0:0:0:0:
448,192,89757,1,8,0:0:0:0:
192,192,89757,1,8,0:0:0:0:
448,192,89926,1,0,0:0:0:0:
192,192,89926,1,0,0:0:0:0:
192,192,90096,1,0,0:0:0:0:
320,192,90096,1,0,0:0:0:0:
320,192,90265,1,0,0:0:0:0:
192,192,90265,1,0,0:0:0:0:
448,192,90435,1,8,0:0:0:0:
64,192,90435,1,8,0:0:0:0:
448,192,90604,1,0,0:0:0:0:
64,192,90604,1,0,0:0:0:0:
320,192,90774,1,0,0:0:0:0:
192,192,90774,1,0,0:0:0:0:
448,192,90943,1,8,0:0:0:0:
320,192,91028,1,8,0:0:0:0:
448,192,91113,1,8,0:0:0:0:
320,192,91282,1,8,0:0:0:0:
64,192,91282,1,8,0:0:0:0:
192,192,91452,1,0,0:0:0:0:
64,192,91452,1,0,0:0:0:0:
320,192,91621,1,0,0:0:0:0:
192,192,91791,1,8,0:0:0:0:
64,192,91791,1,8,0:0:0:0:
320,192,91960,1,0,0:0:0:0:
448,192,92130,1,0,0:0:0:0:
64,192,92130,1,0,0:0:0:0:
320,192,92299,1,0,0:0:0:0:
320,192,92469,1,8,0:0:0:0:
448,192,92638,128,0,92977:0:0:0:0:
64,192,92638,128,0,92977:0:0:0:0:
320,192,92977,1,8,0:0:0:0:
192,192,93062,1,8,0:0:0:0:
320,192,93147,1,8,0:0:0:0:
448,192,93316,1,8,0:0:0:0:
320,192,93486,1,8,0:0:0:0:
192,192,93655,1,8,0:0:0:0:
64,192,93825,1,8,0:0:0:0:
64,192,93994,1,8,0:0:0:0:
320,192,93994,1,8,0:0:0:0:
448,192,94163,1,0,0:0:0:0:
64,192,94163,1,0,0:0:0:0:
448,192,94333,1,0,0:0:0:0:
448,192,94502,1,8,0:0:0:0:
64,192,94502,1,8,0:0:0:0:
448,192,94672,1,0,0:0:0:0:
448,192,94841,1,0,0:0:0:0:
64,192,94841,1,0,0:0:0:0:
448,192,95011,1,0,0:0:0:0:
320,192,95180,1,8,0:0:0:0:
192,192,95265,1,0,0:0:0:0:
320,192,95350,128,0,95689:0:0:0:0:
448,192,95689,1,0,0:0:0:0:
64,192,95689,1,0,0:0:0:0:
64,192,96028,1,0,0:0:0:0:
192,192,96028,1,0,0:0:0:0:
64,192,96197,128,0,96875:0:0:0:0:
448,192,96197,128,0,96875:0:0:0:0:
192,192,96875,1,4,0:0:0:0:
320,192,96875,1,4,0:0:0:0:
192,192,97045,1,4,0:0:0:0:
320,192,97045,1,4,0:0:0:0:
192,192,97214,1,12,0:0:0:0:
448,192,97214,1,12,0:0:0:0:
64,192,97384,1,4,0:0:0:0:
448,192,97384,1,4,0:0:0:0:
192,192,97553,1,4,0:0:0:0:
320,192,97553,1,4,0:0:0:0:
64,192,97723,1,4,0:0:0:0:
448,192,97723,1,4,0:0:0:0:
448,192,97892,1,12,0:0:0:0:
320,192,97892,1,12,0:0:0:0:
64,192,98062,1,4,0:0:0:0:
448,192,98062,1,4,0:0:0:0:
448,192,98231,1,4,0:0:0:0:
192,192,98316,1,4,0:0:0:0:
448,192,98401,1,4,0:0:0:0:
192,192,98486,1,4,0:0:0:0:
448,192,98570,1,12,0:0:0:0:
192,192,98655,1,4,0:0:0:0:
448,192,98740,1,4,0:0:0:0:
192,192,98825,1,4,0:0:0:0:
320,192,98909,1,4,0:0:0:0:
192,192,98994,1,4,0:0:0:0:
320,192,99079,1,4,0:0:0:0:
192,192,99163,1,4,0:0:0:0:
320,192,99248,1,12,0:0:0:0:
192,192,99333,1,4,0:0:0:0:
320,192,99418,1,4,0:0:0:0:
192,192,99502,1,4,0:0:0:0:
448,192,99587,1,0,0:0:0:0:
64,192,99587,1,0,0:0:0:0:
448,192,99757,1,0,0:0:0:0:
320,192,99926,1,8,0:0:0:0:
64,192,99926,1,8,0:0:0:0:
448,192,100096,1,0,0:0:0:0:
320,192,100265,1,0,0:0:0:0:
192,192,100265,1,0,0:0:0:0:
320,192,100435,1,0,0:0:0:0:
448,192,100604,1,8,0:0:0:0:
64,192,100604,1,8,0:0:0:0:
192,192,100774,1,0,0:0:0:0:
192,192,100943,1,0,0:0:0:0:
320,192,100943,1,0,0:0:0:0:
320,192,101113,1,0,0:0:0:0:
448,192,101282,1,8,0:0:0:0:
192,192,101282,1,8,0:0:0:0:
320,192,101452,1,0,0:0:0:0:
192,192,101452,1,0,0:0:0:0:
320,192,101621,1,0,0:0:0:0:
64,192,101621,1,0,0:0:0:0:
320,192,101791,1,8,0:0:0:0:
192,192,101875,1,8,0:0:0:0:
320,192,101960,1,8,0:0:0:0:
192,192,102130,1,8,0:0:0:0:
448,192,102299,1,0,0:0:0:0:
64,192,102299,1,0,0:0:0:0:
320,192,102469,1,0,0:0:0:0:
448,192,102638,1,8,0:0:0:0:
192,192,102638,1,8,0:0:0:0:
320,192,102808,1,0,0:0:0:0:
448,192,102977,1,0,0:0:0:0:
192,192,102977,1,0,0:0:0:0:
320,192,103147,1,0,0:0:0:0:
192,192,103147,1,0,0:0:0:0:
320,192,103316,1,8,0:0:0:0:
192,192,103316,1,8,0:0:0:0:
64,192,103486,128,0,103825:0:0:0:0:
448,192,103486,128,0,103825:0:0:0:0:
320,192,103825,1,8,0:0:0:0:
192,192,103909,1,8,0:0:0:0:
320,192,103994,1,8,0:0:0:0:
448,192,104163,1,8,0:0:0:0:
192,192,104163,1,8,0:0:0:0:
448,192,104333,1,8,0:0:0:0:
64,192,104333,1,8,0:0:0:0:
320,192,104502,1,8,0:0:0:0:
192,192,104502,1,8,0:0:0:0:
320,192,104672,1,8,0:0:0:0:
64,192,104672,1,8,0:0:0:0:
64,192,104841,1,8,0:0:0:0:
192,192,105011,1,4,0:0:0:0:
64,192,105011,1,4,0:0:0:0:
192,192,105350,1,12,0:0:0:0:
64,192,105350,1,12,0:0:0:0:
192,192,105519,1,4,0:0:0:0:
64,192,105519,1,4,0:0:0:0:
448,192,105858,1,4,0:0:0:0:
64,192,105858,1,4,0:0:0:0:
448,192,106028,1,12,0:0:0:0:
64,192,106028,1,12,0:0:0:0:
448,192,106197,1,4,0:0:0:0:
64,192,106197,1,4,0:0:0:0:
320,192,106536,1,4,0:0:0:0:
192,192,106536,1,4,0:0:0:0:
448,192,106875,1,4,0:0:0:0:
64,192,106875,1,4,0:0:0:0:
320,192,107045,1,12,0:0:0:0:
192,192,107045,1,12,0:0:0:0:
448,192,107384,1,4,0:0:0:0:
64,192,107469,1,4,0:0:0:0:
448,192,107553,1,4,0:0:0:0:
64,192,107638,1,4,0:0:0:0:
320,192,107723,1,12,0:0:0:0:
448,192,107723,1,12,0:0:0:0:
64,192,107892,1,4,0:0:0:0:
64,192,108062,1,4,0:0:0:0:
448,192,108062,1,4,0:0:0:0:
64,192,108231,1,4,0:0:0:0:
448,192,108231,1,4,0:0:0:0:
64,192,108401,1,12,0:0:0:0:
448,192,108401,1,12,0:0:0:0:
192,192,108570,1,4,0:0:0:0:
320,192,108570,1,4,0:0:0:0:
192,192,108740,1,4,0:0:0:0:
320,192,108740,1,4,0:0:0:0:
192,192,108909,1,4,0:0:0:0:
320,192,108909,1,4,0:0:0:0:
64,192,109079,1,12,0:0:0:0:
320,192,109079,1,12,0:0:0:0:
64,192,109248,1,4,0:0:0:0:
448,192,109248,1,4,0:0:0:0:
64,192,109418,1,4,0:0:0:0:
320,192,109418,1,4,0:0:0:0:
448,192,109587,1,4,0:0:0:0:
64,192,109587,1,4,0:0:0:0:
192,192,109757,128,12,110435:0:0:0:0:
320,192,109757,128,12,110435:0:0:0:0:
64,192,110435,128,12,113147:0:0:0:0:
448,192,110435,128,12,113147:0:0:0:0:
