osu file format v12

[General]
AudioFilename: smooooch.mp3
AudioLeadIn: 0
PreviewTime: 12299
Countdown: 0
SampleSet: Normal
StackLeniency: 0.7
Mode: 0
LetterboxInBreaks: 1
WidescreenStoryboard: 0

[Editor]
DistanceSpacing: 1
BeatDivisor: 4
GridSize: 8
TimelineZoom: 1

[Metadata]
Title:smooooch
TitleUnicode:smooooch
Artist:kors k
ArtistUnicode:kors k
Creator:Franc[e]sco
Version:Hard
Source:beatmania IIDX 16 EMPRESS
Tags:candy rave
BeatmapID:154508
BeatmapSetID:50092

[Difficulty]
HPDrainRate:6
CircleSize:4
OverallDifficulty:6
ApproachRate:7
SliderMultiplier:1.4
SliderTickRate:2

[Events]
//Background and Video events
Video,-700,"Senza titolo.avi"
0,0,"nh110504smooooch.jpg",0,0
//Break Periods
2,45550,54958
2,67245,75636
//Storyboard Layer 0 (Background)
//Storyboard Layer 1 (Fail)
//Storyboard Layer 2 (Pass)
//Storyboard Layer 3 (Foreground)
//Storyboard Sound Samples
//Background Colour Transformations
3,100,0,0,0

[TimingPoints]
1960.59337189988,338.983050847458,4,1,0,50,1,0
23655,-100,4,1,0,50,0,1
34502,-100,4,1,0,50,0,0
76536,-200,4,1,0,50,0,0
77892,-100,4,1,0,50,0,0
88740,-100,4,1,0,50,0,1
110604,-100,4,2,0,5,0,0

[Colours]
Combo1 : 86,47,40
Combo2 : 40,177,219
Combo3 : 240,101,160
Combo4 : 241,228,123
Combo5 : 229,196,151

[HitObjects]
256,192,12808,5,0,0:0:0:0:
256,192,13147,1,4,0:0:0:0:
168,100,15519,5,0,0:0:0:0:
132,156,15689,1,0,0:0:0:0:
124,223,15858,1,4,0:0:0:0:
344,288,18231,5,4,0:0:0:0:
425,227,20943,6,0,B|457:267|505:211,1,70
456,163,21282,2,0,B|414:142|376:175,1,70
352,106,21621,2,0,B|315:78|260:113,1,70
314,166,21960,2,0,B|298:206|250:198,1,70
194,168,22299,5,0,0:0:0:0:
368,300,22977,5,0,0:0:0:0:
124,348,23655,6,0,B|100:304|140:260,1,70
192,312,23994,1,8,0:0:0:0:
264,308,24163,1,0,0:0:0:0:
288,240,24333,2,0,B|308:200|280:160,1,70
344,132,24672,1,8,0:0:0:0:
316,68,24841,1,0,0:0:0:0:
248,48,25011,6,0,P|174:44|152:116,1,140
164,164,25519,1,0,0:0:0:0:
112,212,25689,2,0,B|64:196|80:132,1,70
60,92,26028,1,8,0:0:0:0:
104,40,26197,1,0,0:0:0:0:
172,44,26367,6,0,B|208:48|224:88,1,70
288,60,26706,1,8,0:0:0:0:
351,92,26875,1,0,0:0:0:0:
336,160,27045,2,0,B|384:180|368:236,1,70
412,272,27384,1,8,0:0:0:0:
388,340,27553,1,0,0:0:0:0:
316,320,27723,5,0,0:0:0:0:
244,340,27892,2,8,B|244:304,2,35,0|8|0,0:0|0:0|0:0,0:0:0:0:
174,341,28231,1,0,0:0:0:0:
148,276,28401,2,0,B|172:240|140:212,1,70
72,256,28740,1,8,0:0:0:0:
52,184,28909,6,0,B|19:184,2,35
64,112,29248,1,0,0:0:0:0:
136,88,29418,2,0,B|184:84|192:148,2,70
312,72,30096,2,8,B|312:32,2,35,8|0|0,0:0|0:0|0:0,0:0:0:0:
424,144,30604,1,0,0:0:0:0:
424,276,30943,1,0,0:0:0:0:
373,324,31113,1,0,0:0:0:0:
420,36,31791,6,0,P|456:64|464:104,1,70
395,102,32130,2,0,P|392:144|360:160,1,70,0|0,0:0|0:0,0:0:0:0:
405,219,32469,2,0,P|373:229|320:206,1,70
279,182,32808,2,0,B|240:124,1,70
176,36,33147,1,4,0:0:0:0:
176,105,33316,1,4,0:0:0:0:
108,116,33486,1,4,0:0:0:0:
110,185,33655,1,4,0:0:0:0:
56,230,33825,1,4,0:0:0:0:
99,287,33994,1,4,0:0:0:0:
168,272,34163,2,0,B|168:308,2,35
238,288,34502,5,0,0:0:0:0:
269,225,34672,1,0,0:0:0:0:
339,229,34841,1,0,0:0:0:0:
370,293,35011,1,0,0:0:0:0:
232,364,35350,5,0,0:0:0:0:
162,352,35519,1,0,0:0:0:0:
108,304,35689,1,0,0:0:0:0:
105,232,35858,1,0,0:0:0:0:
132,165,36028,1,0,0:0:0:0:
296,248,36367,1,0,0:0:0:0:
358,214,36536,1,0,0:0:0:0:
444,64,36876,5,0,0:0:0:0:
384,27,37045,1,0,0:0:0:0:
320,56,37214,2,0,B|292:92|332:132,1,70
354,182,37553,1,8,0:0:0:0:
416,144,37723,1,0,0:0:0:0:
416,216,37892,2,0,B|444:256|404:296,1,70
415,352,38231,1,8,0:0:0:0:
346,339,38401,1,0,0:0:0:0:
300,284,38570,6,0,B|260:312|212:264,1,70
236,212,38909,2,0,B|196:188|152:224,1,70
167,282,39248,2,0,B|131:306|79:274,1,70
101,214,39587,2,0,B|61:194|33:214,1,70
23,144,39926,5,0,0:0:0:0:
77,99,40096,1,0,0:0:0:0:
143,119,40265,1,0,0:0:0:0:
156,188,40435,1,0,0:0:0:0:
164,44,40774,5,0,0:0:0:0:
233,43,40943,1,0,0:0:0:0:
272,102,41113,1,0,0:0:0:0:
250,169,41282,1,0,0:0:0:0:
180,176,41452,1,0,0:0:0:0:
64,104,41791,1,0,0:0:0:0:
64,240,42130,5,0,0:0:0:0:
104,298,42299,1,0,0:0:0:0:
145,237,42469,1,0,0:0:0:0:
184,296,42638,2,0,B|224:296,7,35,4|0|0|0|4|0|4|0,0:0|0:0|0:0|0:0|0:0|0:0|0:0|0:0,0:0:0:0:
224,268,43316,2,0,B|264:268,7,35,0|0|0|4|0|0|4|0,0:0|0:0|0:0|0:0|0:0|0:0|0:0|0:0,0:0:0:0:
268,296,43994,2,0,B|308:296,7,35,0|0|4|0|0|0|4|0,0:0|0:0|0:0|0:0|0:0|0:0|0:0|0:0,0:0:0:0:
312,268,44672,2,0,B|352:268,7,35,4|0|4|0|4|0|4|0,0:0|0:0|0:0|0:0|0:0|0:0|0:0|0:0,0:0:0:0:
376,264,45350,5,4,0:0:0:0:
302,63,55858,5,0,0:0:0:0:
302,63,56028,1,0,0:0:0:0:
353,114,56197,6,0,P|368:152|360:192,1,70
293,157,56536,2,0,P|258:176|234:160,1,70
120,92,57045,2,0,P|80:76|56:84,1,70
0,125,57384,1,0,0:0:0:0:
17,192,57553,5,4,0:0:0:0:
76,324,57808,1,4,0:0:0:0:
200,248,58062,1,4,0:0:0:0:
200,248,58231,1,4,0:0:0:0:
144,132,58401,1,4,0:0:0:0:
144,62,58570,1,4,0:0:0:0:
280,44,58909,6,0,B|324:80|292:128|292:132,3,70
424,56,59757,1,0,0:0:0:0:
448,120,59926,1,0,0:0:0:0:
452,188,60096,1,0,0:0:0:0:
348,140,60265,5,4,0:0:0:0:
348,140,60350,1,0,0:0:0:0:
348,140,60435,1,4,0:0:0:0:
320,68,60604,2,0,P|288:88|276:132,1,70
288,188,60943,1,4,0:0:0:0:
220,216,61113,1,4,0:0:0:0:
220,216,61197,1,4,0:0:0:0:
220,216,61282,1,4,0:0:0:0:
128,32,61621,6,0,B|84:56|88:120,3,70
16,216,62469,1,0,0:0:0:0:
72,258,62638,1,0,0:0:0:0:
136,232,62808,1,0,0:0:0:0:
164,167,62977,5,4,0:0:0:0:
221,126,63147,2,4,B|244:163,1,35
258,224,63401,2,4,B|299:222,1,35
360,196,63655,1,4,0:0:0:0:
413,147,63825,1,4,0:0:0:0:
480,171,63994,1,4,0:0:0:0:
256,192,64333,12,4,67045,0:0:0:0:
256,340,76536,6,8,B|192:316|280:240|196:224,1,140
256,340,77892,5,8,0:0:0:0:
368,268,78231,1,8,0:0:0:0:
416,316,78401,1,8,0:0:0:0:
448,256,78570,1,8,0:0:0:0:
372,87,79079,2,8,P|436:103|456:176,1,140
389,156,79587,2,8,P|352:168|311:157,1,70
322,162,79926,1,8,0:0:0:0:
300,96,80096,2,8,B|276:72,2,35
240,132,80435,1,8,0:0:0:0:
180,168,80604,5,8,0:0:0:0:
108,44,80943,1,8,0:0:0:0:
24,152,81282,2,8,P|15:193|32:232,1,70
86,187,81621,2,8,L|162:212,1,70
72,104,82130,6,8,B|48:48,2,35
133,71,82469,1,8,0:0:0:0:
199,92,82638,1,8,0:0:0:0:
225,157,82808,1,8,0:0:0:0:
195,221,82977,1,8,0:0:0:0:
244,344,83316,1,8,0:0:0:0:
344,248,83655,1,8,0:0:0:0:
328,180,83825,1,8,0:0:0:0:
268,216,83994,1,8,0:0:0:0:
180,312,84333,6,8,B|208:280,2,35
44,344,84841,1,8,0:0:0:0:
16,208,85180,1,8,0:0:0:0:
16,208,85350,1,8,0:0:0:0:
160,168,86028,5,4,0:0:0:0:
184,168,86197,1,4,0:0:0:0:
208,168,86367,1,4,0:0:0:0:
232,168,86536,1,4,0:0:0:0:
256,168,86706,1,4,0:0:0:0:
280,168,86875,1,4,0:0:0:0:
304,168,87045,1,4,0:0:0:0:
328,168,87214,1,4,0:0:0:0:
352,168,87384,5,4,0:0:0:0:
260,308,87723,1,0,0:0:0:0:
124,216,88062,1,0,0:0:0:0:
200,84,88400,1,0,0:0:0:0:
200,84,88570,1,0,0:0:0:0:
264,60,88740,6,0,B|308:36|340:72,1,70
400,59,89079,1,8,0:0:0:0:
384,128,89248,1,0,0:0:0:0:
452,132,89418,2,0,B|484:176|440:224,1,70
448,264,89757,1,8,0:0:0:0:
408,320,89926,1,0,0:0:0:0:
345,285,90096,2,0,P|303:335|225:301,1,140
209,254,90604,1,0,0:0:0:0:
252,200,90774,1,0,0:0:0:0:
204,152,90943,6,8,B|200:116,2,35
135,145,91282,1,0,0:0:0:0:
116,212,91452,2,0,B|104:264|176:280,1,70
209,294,91791,1,8,0:0:0:0:
278,281,91960,1,0,0:0:0:0:
312,220,92130,2,0,B|360:200|344:144,1,70
403,124,92469,1,8,0:0:0:0:
376,60,92638,1,0,0:0:0:0:
312,36,92808,1,0,0:0:0:0:
244,44,92977,6,8,B|244:80,2,35
174,43,93316,1,0,0:0:0:0:
148,108,93486,2,0,B|112:128|140:172,1,70
112,232,93825,1,8,0:0:0:0:
64,280,93994,6,0,B|20:308,2,35
256,192,94503,2,0,B|264:240|332:204,2,70
312,312,95181,2,8,B|312:352,2,35
424,240,95689,1,0,0:0:0:0:
424,108,96028,1,0,0:0:0:0:
484,140,96198,1,0,0:0:0:0:
442,349,96876,6,0,B|442:281,1,70
374,192,97215,2,0,B|374:260,1,70
307,348,97554,2,0,B|307:280,1,70
240,192,97893,2,0,B|240:260,1,70
176,346,98232,5,4,0:0:0:0:
156,279,98401,1,4,0:0:0:0:
101,235,98571,1,4,0:0:0:0:
152,184,98740,1,4,0:0:0:0:
132,116,98909,1,4,0:0:0:0:
200,132,99079,1,4,0:0:0:0:
272,132,99248,2,0,B|256:72,2,35
336,96,99587,6,0,B|312:52|352:8,1,70
406,30,99926,1,8,0:0:0:0:
456,80,100095,1,0,0:0:0:0:
472,148,100265,2,0,B|492:188|464:228,1,70
404,192,100604,1,8,0:0:0:0:
376,256,100773,1,0,0:0:0:0:
440,288,100943,6,0,B|448:344|384:352,1,70
340,344,101282,1,8,0:0:0:0:
290,295,101451,1,0,0:0:0:0:
240,344,101621,2,0,B|188:344|188:280,1,70
189,234,101960,1,8,0:0:0:0:
242,185,102129,1,0,0:0:0:0:
228,116,102299,6,0,B|180:84|144:144,1,70
108,163,102638,1,8,0:0:0:0:
109,234,102807,1,0,0:0:0:0:
44,264,102977,2,0,B|16:308|76:340,1,70
112,364,103316,1,8,0:0:0:0:
148,304,103485,1,0,0:0:0:0:
213,280,103655,1,0,0:0:0:0:
280,264,103824,6,8,B|280:228,2,35
329,317,104163,1,0,0:0:0:0:
376,264,104333,2,0,B|400:228|368:200,1,70
318,153,104672,1,8,0:0:0:0:
248,164,104841,6,0,B|215:164,2,35
252,32,105350,2,0,B|284:4|328:40,2,70
140,120,106028,2,8,B|140:80,2,35
236,224,106536,1,0,0:0:0:0:
424,276,106875,1,0,0:0:0:0:
361,305,107045,1,0,0:0:0:0:
320,196,107384,6,0,B|348:168,4,35
276,144,108062,1,4,0:0:0:0:
276,144,108231,1,4,0:0:0:0:
232,272,108570,1,0,0:0:0:0:
165,247,108740,1,0,0:0:0:0:
135,182,108909,1,0,0:0:0:0:
153,113,109079,1,4,0:0:0:0:
211,72,109248,1,4,0:0:0:0:
281,68,109418,1,4,0:0:0:0:
336,112,109587,6,4,B|384:112,10,35
256,192,110604,12,0,111791,0:0:0:0:
