osu file format v12

[General]
AudioFilename: smooooch.mp3
AudioLeadIn: 0
PreviewTime: 12299
Countdown: 0
SampleSet: Soft
StackLeniency: 0.7
Mode: 0
LetterboxInBreaks: 1
WidescreenStoryboard: 0

[Editor]
DistanceSpacing: 0.5
BeatDivisor: 4
GridSize: 4
TimelineZoom: 1

[Metadata]
Title:smooooch
TitleUnicode:smooooch
Artist:kors k
ArtistUnicode:kors k
Creator:Franc[e]sco
Version:Easy
Source:beatmania IIDX 16 EMPRESS
Tags:candy rave
BeatmapID:155191
BeatmapSetID:50092

[Difficulty]
HPDrainRate:3
CircleSize:3
OverallDifficulty:2
ApproachRate:2
SliderMultiplier:1
SliderTickRate:1

[Events]
//Background and Video events
Video,-700,"Senza titolo.avi"
0,0,"nh110504smooooch.jpg",0,0
//Break Periods
2,45550,54637
2,65889,74976
//Storyboard Layer 0 (Background)
//Storyboard Layer 1 (Fail)
//Storyboard Layer 2 (Pass)
//Storyboard Layer 3 (Foreground)
//Storyboard Sound Samples
//Background Colour Transformations
3,100,0,0,0

[TimingPoints]
1960.59337189988,338.983050847458,4,2,0,50,1,0
23655,-100,4,2,0,50,0,1
34502,-100,4,2,0,50,0,0
76536,-200,4,2,0,50,0,0
77892,-100,4,2,0,50,0,0
88740,-100,4,2,0,50,0,1
110435,-100,4,2,0,5,0,0

[Colours]
Combo1 : 86,47,40
Combo2 : 40,177,219
Combo3 : 240,101,160
Combo4 : 241,228,123
Combo5 : 229,196,151

[HitObjects]
60,152,12808,6,0,P|136:112|232:172,1,200,4|0,0:0|0:0,0:0:0:0:
142,215,14163,2,0,P|202:331|360:304,1,300
452,312,15858,6,0,P|440:264|392:220,1,100,4|8,0:0|0:0,0:0:0:0:
432,132,16875,2,0,B|220:128|392:352|164:380|156:308,1,400,0|4,0:0|0:0,0:0:0:0:
152,208,18909,6,0,P|168:96|100:44,1,200
444,56,20943,6,4,B|316:-32|184:160|60:32,1,400
16,124,22977,1,0,0:0:0:0:
52,216,23655,6,0,P|92:292|208:288,1,200
152,208,25011,2,0,P|186:125|298:109,1,200
252,200,26367,6,0,P|220:288|120:304,1,200
32,344,27723,2,0,P|40:248|132:204,1,200
88,112,29079,2,0,P|176:120|220:220,1,200
320,228,30435,5,0,0:0:0:0:
400,168,31113,1,0,0:0:0:0:
396,68,31791,2,0,P|304:32|200:56,1,200
228,152,33147,2,0,P|368:232|220:256,1,400,0|0,0:0|0:0,0:0:0:0:
176,268,34841,5,12,0:0:0:0:
104,200,35519,2,0,P|52:176|44:124,1,100,8|0,0:0|0:0,0:0:0:0:
44,88,36197,1,8,0:0:0:0:
136,52,36875,6,8,P|288:32|424:108,1,300,8|0,0:0|0:0,0:0:0:0:
396,144,38231,2,0,P|444:256|324:208,1,300,8|0,0:0|0:0,0:0:0:0:
228,208,39926,6,0,P|120:248|48:188,1,200,4|0,0:0|0:0,0:0:0:0:
144,152,41282,1,0,0:0:0:0:
140,52,41960,1,0,0:0:0:0:
256,192,42638,12,4,45350,0:0:0:0:
460,60,56197,6,4,B|404:92|440:192|328:228,1,200,4|0,0:0|0:0,0:0:0:0:
292,136,57553,1,4,0:0:0:0:
192,128,58231,1,4,0:0:0:0:
120,200,58909,6,4,B|132:312|316:252|440:160|480:244,1,400,0|4,0:0|0:0,0:0:0:0:
428,324,60943,1,4,0:0:0:0:
340,276,61621,6,0,L|192:112,1,200
120,76,62977,1,4,0:0:0:0:
112,172,63655,1,4,0:0:0:0:
256,192,64333,12,4,65689,0:0:0:0:
52,76,76536,6,8,P|104:68|128:108,1,100
224,72,77892,6,8,P|264:164|360:176,1,200
324,84,79248,2,8,P|400:88|456:192,1,200
372,244,80604,2,8,P|268:252|196:196,1,200
96,184,81960,2,8,P|164:100|256:116,1,200
348,116,83316,6,8,L|348:324,1,200
256,276,84672,1,8,0:0:0:0:
172,332,85350,1,8,0:0:0:0:
84,284,86028,6,8,P|104:236|76:192,1,100
108,152,86706,2,8,P|176:196|288:160,1,200
284,116,87723,1,0,0:0:0:0:
312,76,88062,1,0,0:0:0:0:
360,68,88401,1,0,0:0:0:0:
404,92,88740,6,0,L|464:292,1,200
364,304,90096,2,0,P|272:348|188:304,1,200
144,328,91113,1,8,0:0:0:0:
108,292,91452,2,0,P|136:192|72:112,1,200
164,56,92808,2,0,B|168:133|294:110|276:226,1,200
228,292,94163,6,0,P|72:224|64:92,1,300,0|0,0:0|0:0,0:0:0:0:
104,92,95519,1,0,0:0:0:0:
152,112,95858,2,0,P|240:72|328:128,1,200,8|8,0:0|0:0,0:0:0:0:
324,168,96875,5,4,0:0:0:0:
324,220,97214,1,12,0:0:0:0:
324,272,97553,1,4,0:0:0:0:
256,192,98231,12,4,99587,0:0:0:0:
336,128,100943,2,0,B|364:232|464:304,1,200
360,340,102299,1,0,0:0:0:0:
316,316,102638,1,8,0:0:0:0:
268,332,102977,1,0,0:0:0:0:
176,292,103655,2,0,B|204:196|172:92,1,200
264,56,105011,6,0,B|292:140|284:272,1,200
192,288,106367,1,0,0:0:0:0:
152,196,107045,1,4,0:0:0:0:
64,148,107723,5,4,0:0:0:0:
64,200,108062,1,12,0:0:0:0:
64,248,108401,1,4,0:0:0:0:
256,192,109079,12,0,111791,0:0:0:0:
