osu file format v9

[General]
AudioFilename: 1-10 Wuv U.mp3
AudioLeadIn: 2000
PreviewTime: 66607
Countdown: 1
SampleSet: Soft
StackLeniency: 0.7
Mode: 0
LetterboxInBreaks: 1

[Editor]
Bookmarks: 42998
DistanceSpacing: 1
BeatDivisor: 2
GridSize: 8

[Metadata]
Title:Wuv U
Artist:kors k
Creator:Nakagawa-Kanon
Version:Easy
Source:REFLEC BEAT
Tags:Muya Firce777 dksslqj CANDY RAVE

[Difficulty]
HPDrainRate:2
CircleSize:3
OverallDifficulty:1
ApproachRate:3
SliderMultiplier:0.8
SliderTickRate:1

[Events]
//Background and Video events
Video,-1700,"BGA.avi"
0,0,"BBBBGGGG.jpg"
//Break Periods
2,45478,49387
//Storyboard Layer 0 (Background)
//Storyboard Layer 1 (Fail)
//Storyboard Layer 2 (Pass)
//Storyboard Layer 3 (Foreground)
//Storyboard Sound Samples
//Background Colour Transformations
3,100,163,162,255

[TimingPoints]
885,346.820809248555,4,1,0,70,1,0
6347,-100,4,2,0,70,0,0
6780,-100,4,1,0,70,0,0
9121,-100,4,1,0,30,0,0
10595,-100,4,1,0,70,0,0
22734,-100,4,2,0,70,0,0
22821,-100,4,1,0,70,0,0
38254,-100,4,2,0,5,0,0
38341,-100,4,1,0,70,0,0
45364,-100,4,2,0,70,0,0
53515,-100,4,1,0,30,0,0
55509,-100,4,1,0,70,0,0
67474,-100,4,1,0,70,0,1
89671,-100,4,1,0,70,0,0
89757,-100,4,2,0,5,0,0

[Colours]
Combo1 : 242,225,72
Combo2 : 239,71,214
Combo3 : 105,198,248

[HitObjects]
256,192,885,1,0
256,192,2272,1,0
128,336,3659,6,2,B|168:256|256:224|344:256|384:336,1,320
256,40,6434,6,0,B|256:136,1,80,2|0
112,192,7474,1,0
256,256,8168,1,0
400,192,8861,1,0
384,112,9208,6,2,B|344:32|256:0|168:32|128:112,1,320,2|4
336,352,11983,5,4
176,352,12676,1,8
176,192,13370,1,0
336,192,14064,1,8
480,264,14757,6,0,B|515:192|515:192|480:120,1,160,0|8
336,48,16145,2,0,B|301:120|301:120|336:192,1,160,0|8
176,192,17532,6,0,B|210:263|210:263|175:335,1,160,0|8
31,263,18919,2,0,B|-3:191|-3:191|31:119,1,160,0|8
184,64,20306,6,4,B|216:96|256:104|296:96|328:64,3,160
408,64,22734,1,4
408,144,23081,6,0,B|408:336,1,160,4|0
344,352,24121,1,8
264,352,24468,2,2,B|240:264|144:232|56:288,1,240
24,216,25856,6,0,B|-8:136|24:56,1,160,0|2
176,24,27243,2,0,B|206:100|174:180,1,160,0|0
256,320,28630,6,0,B|440:304,1,160
464,240,29671,1,8
384,216,30017,2,2,B|248:256|184:96,1,240
120,72,31405,6,0,B|40:120|32:216,1,160,0|2
56,360,32792,2,2,B|136:312|144:216,1,160
256,344,34179,6,0,B|364:336,1,80,0|12
264,200,35220,1,8
344,192,35567,2,0,B|400:144|432:48,2,160,0|4|4
224,296,37648,6,0,B|56:280,1,160,4|4
48,200,38688,2,0,B|40:120,1,80,8|2
192,72,39728,5,4
312,96,40249,1,4
376,192,40769,1,4
312,288,41289,1,4
192,312,41809,1,4
88,192,42503,6,0,B|256:192,1,160,4|4
256,192,43890,12,4,45278
256,192,50827,5,2
256,192,52214,1,2
256,192,53601,12,0,56376
360,288,57763,5,0
40,336,59150,6,0,B|-8:272|16:168,2,160
168,240,61231,1,8
296,336,61925,5,0
424,240,62619,2,0,B|440:144,1,80,4|0
448,80,63312,5,4
288,80,64006,2,0,B|301:158,1,80,4|0
312,240,64700,6,0,B|216:256,1,80,4|0
192,320,65393,2,0,B|96:304,1,80,4|0
80,232,66087,1,4
336,40,67474,6,0,B|392:128,1,80,4|8
256,208,68515,1,10
133,107,69208,2,0,B|176:40,1,80,8|0
256,56,69902,1,10
256,136,70249,6,0,B|256:312,1,160
336,320,71289,1,10
416,344,71636,2,2,B|512:328|504:208,1,160,2|10
504,152,72676,1,10
424,152,73023,6,0,B|256:152,1,160
168,280,74411,2,0,B|80:264|80:160,1,160
192,48,75798,6,0,B|280:48,1,80,0|8
344,80,76491,2,0,B|432:80,1,80,0|10
464,152,77185,2,0,B|464:240|424:224|424:320,1,160,4|10
272,248,78572,6,0,B|248:304|168:304|144:248,1,160,4|0
208,200,79613,1,10
208,120,79960,2,0,B|232:64|312:64|336:120,1,160
336,200,81000,1,10
272,248,81347,6,0,B|280:352|392:368,2,160
272,168,83081,1,8
272,88,83428,2,10,B|184:88,1,80
120,128,84121,6,0,B|64:192|88:296,1,160,4|0
168,288,85162,1,10
208,360,85509,2,0,B|384:340,1,160,4|0
448,332,86549,1,10
448,252,86896,5,4
448,132,87416,1,4
344,192,87937,1,4
240,252,88457,1,4
240,132,88977,2,4,B|144:132,1,80
80,132,89671,1,4
