osu file format v13

[General]
AudioFilename: 1-10 Wuv U.mp3
AudioLeadIn: 0
PreviewTime: -1
Countdown: 0
SampleSet: None
StackLeniency: 0.7
Mode: 3
LetterboxInBreaks: 0
SpecialStyle: 0
WidescreenStoryboard: 1

[Editor]
DistanceSpacing: 0.5
BeatDivisor: 4
GridSize: 4
TimelineZoom: 1

[Metadata]
Title:Wuv U
TitleUnicode:Wuv U
Artist:kors k
ArtistUnicode:kors k
Creator:Level 51
Version:Another
Source:REFLEC BEAT
Tags:
BeatmapID:487993
BeatmapSetID:204378

[Difficulty]
HPDrainRate:8.4
CircleSize:4
OverallDifficulty:9
ApproachRate:10
SliderMultiplier:1.4
SliderTickRate:1

[Events]
//Background and Video events
0,0,"BBBBGGGG.jpg",0,0
//Break Periods
//Storyboard Layer 0 (Background)
//Storyboard Layer 1 (Fail)
//Storyboard Layer 2 (Pass)
//Storyboard Layer 3 (Foreground)
//Storyboard Sound Samples
//Background Colour Transformations
3,100,163,162,255

[TimingPoints]
885,346.820809248555,4,1,0,6,1,0
10595,-33.3333333333333,4,1,0,6,0,0
10769,-133.333333333333,4,1,0,6,0,0
11116,-100,4,1,0,6,0,0
21694,-66.6666666666667,4,1,0,6,0,0
21867,-133.333333333333,4,1,0,6,0,0
22041,-66.6666666666667,4,1,0,6,0,0
22214,-133.333333333333,4,1,0,6,0,0
22387,-66.6666666666667,4,1,0,6,0,0
22561,-133.333333333333,4,1,0,6,0,0
22734,-100,4,1,0,6,0,0
24468,-66.6666666666667,4,1,0,6,0,0
24555,-133.333333333333,4,1,0,6,0,0
24642,-66.6666666666667,4,1,0,6,0,0
24728,-133.333333333333,4,1,0,6,0,0
24815,-66.6666666666667,4,1,0,6,0,0
24902,-133.333333333333,4,1,0,6,0,0
24989,-66.6666666666667,4,1,0,6,0,0
25075,-133.333333333333,4,1,0,6,0,0
25162,-100,4,1,0,6,0,0
30017,-66.6666666666667,4,1,0,6,0,0
30104,-133.333333333333,4,1,0,6,0,0
30191,-66.6666666666667,4,1,0,6,0,0
30278,-133.333333333333,4,1,0,6,0,0
30364,-66.6666666666667,4,1,0,6,0,0
30451,-133.333333333333,4,1,0,6,0,0
30538,-66.6666666666667,4,1,0,6,0,0
30624,-133.333333333333,4,1,0,6,0,0
30711,-100,4,1,0,6,0,0
35567,-66.6666666666667,4,1,0,6,0,0
35653,-133.333333333333,4,1,0,6,0,0
35740,-66.6666666666667,4,1,0,6,0,0
35827,-133.333333333333,4,1,0,6,0,0
35913,-66.6666666666667,4,1,0,6,0,0
36000,-133.333333333333,4,1,0,6,0,0
36087,-66.6666666666667,4,1,0,6,0,0
36174,-133.333333333333,4,1,0,6,0,0
36260,-66.6666666666667,4,1,0,6,0,0
36347,-100,4,1,0,6,0,0
44931,-133.333333333333,4,1,0,6,0,0
50827,-100,4,1,0,6,0,0
66607,-100,4,1,0,6,0,1
77532,-100,4,1,0,6,0,0
77705,-100,4,1,0,6,0,1
89671,-100,4,1,0,6,0,0

[HitObjects]
64,192,422,5,0,0:0:0:0:
192,192,538,1,0,0:0:0:0:
320,192,595,1,0,0:0:0:0:
320,192,769,1,0,0:0:0:0:
448,192,885,1,0,0:0:0:0:
320,192,971,1,0,0:0:0:0:
192,192,1058,1,0,0:0:0:0:
320,192,1145,1,0,0:0:0:0:
448,192,1231,1,0,0:0:0:0:
192,192,1231,1,0,0:0:0:0:
64,192,1231,1,0,0:0:0:0:
320,192,1405,1,0,0:0:0:0:
64,192,1578,1,0,0:0:0:0:
448,192,1578,1,0,0:0:0:0:
192,192,1752,1,0,0:0:0:0:
320,192,1752,1,0,0:0:0:0:
448,192,1925,128,0,2272:0:0:0:0:
64,192,1925,1,0,0:0:0:0:
192,192,2272,1,0,0:0:0:0:
64,192,2445,1,0,0:0:0:0:
448,192,2445,128,0,2489:0:0:0:0:
192,192,2619,1,0,0:0:0:0:
320,192,2619,128,0,2662:0:0:0:0:
448,192,2792,1,0,0:0:0:0:
192,192,2792,128,0,2835:0:0:0:0:
64,192,2965,1,0,0:0:0:0:
320,192,2965,128,0,3009:0:0:0:0:
192,192,3139,1,0,0:0:0:0:
448,192,3139,128,0,3182:0:0:0:0:
320,192,3312,1,0,0:0:0:0:
64,192,3312,128,0,3356:0:0:0:0:
192,192,3486,1,0,0:0:0:0:
320,192,3486,128,0,3529:0:0:0:0:
448,192,3659,1,0,0:0:0:0:
64,192,3659,1,0,0:0:0:0:
192,192,3659,1,0,0:0:0:0:
320,192,3832,1,0,0:0:0:0:
448,192,4006,1,0,0:0:0:0:
192,192,4006,1,0,0:0:0:0:
64,192,4179,1,0,0:0:0:0:
192,192,4353,1,0,0:0:0:0:
320,192,4353,1,0,0:0:0:0:
64,192,4526,1,0,0:0:0:0:
448,192,4526,1,0,0:0:0:0:
320,192,4700,128,0,5046:0:0:0:0:
192,192,4700,1,0,0:0:0:0:
320,192,5220,128,0,5263:0:0:0:0:
64,192,5220,1,0,0:0:0:0:
192,192,5393,1,0,0:0:0:0:
320,192,5393,128,0,5437:0:0:0:0:
320,192,5567,1,0,0:0:0:0:
448,192,5567,128,0,5610:0:0:0:0:
192,192,5740,1,0,0:0:0:0:
448,192,5740,128,0,5783:0:0:0:0:
192,192,5913,1,0,0:0:0:0:
320,192,5913,128,0,5957:0:0:0:0:
320,192,6087,1,0,0:0:0:0:
64,192,6087,128,0,6130:0:0:0:0:
192,192,6260,1,0,0:0:0:0:
64,192,6260,128,0,6304:0:0:0:0:
64,192,6434,1,0,0:0:0:0:
448,192,6434,1,0,0:0:0:0:
320,192,6520,1,0,0:0:0:0:
192,192,6607,1,0,0:0:0:0:
320,192,6694,1,0,0:0:0:0:
64,192,6780,1,0,0:0:0:0:
448,192,6780,1,0,0:0:0:0:
192,192,6780,1,0,0:0:0:0:
320,192,6954,1,0,0:0:0:0:
448,192,7127,1,0,0:0:0:0:
192,192,7127,1,0,0:0:0:0:
64,192,7301,1,0,0:0:0:0:
320,192,7301,1,0,0:0:0:0:
192,192,7474,128,0,7821:0:0:0:0:
448,192,7474,1,0,0:0:0:0:
64,192,7821,1,0,0:0:0:0:
320,192,7821,128,0,7864:0:0:0:0:
192,192,7994,1,0,0:0:0:0:
320,192,7994,128,0,8038:0:0:0:0:
320,192,8168,1,0,0:0:0:0:
448,192,8168,128,0,8211:0:0:0:0:
448,192,8341,1,0,0:0:0:0:
192,192,8341,128,0,8385:0:0:0:0:
320,192,8515,1,0,0:0:0:0:
64,192,8515,128,0,8558:0:0:0:0:
192,192,8688,1,0,0:0:0:0:
448,192,8688,128,0,8731:0:0:0:0:
320,192,8861,1,0,0:0:0:0:
192,192,8861,128,0,8905:0:0:0:0:
192,192,9035,1,0,0:0:0:0:
320,192,9035,128,0,9078:0:0:0:0:
64,192,9208,1,0,0:0:0:0:
448,192,9209,1,0,0:0:0:0:
320,192,9296,1,0,0:0:0:0:
192,192,9382,1,0,0:0:0:0:
64,192,9469,1,0,0:0:0:0:
192,192,9555,1,0,0:0:0:0:
320,192,9641,1,0,0:0:0:0:
448,192,9728,1,0,0:0:0:0:
320,192,9815,1,0,0:0:0:0:
192,192,9902,1,0,0:0:0:0:
64,192,9989,1,0,0:0:0:0:
192,192,10075,1,0,0:0:0:0:
320,192,10162,1,0,0:0:0:0:
448,192,10249,1,0,0:0:0:0:
64,192,10249,1,0,0:0:0:0:
192,192,10335,1,0,0:0:0:0:
320,192,10422,1,0,0:0:0:0:
448,192,10509,1,0,0:0:0:0:
64,192,10595,1,0,0:0:0:0:
192,192,10595,1,0,0:0:0:0:
320,192,10595,1,0,0:0:0:0:
192,192,11116,1,0,0:0:0:0:
448,192,11116,1,0,0:0:0:0:
320,192,11202,1,0,0:0:0:0:
192,192,11289,1,0,0:0:0:0:
448,192,11289,1,0,0:0:0:0:
64,192,11463,1,0,0:0:0:0:
448,192,11463,1,0,0:0:0:0:
192,192,11636,1,0,0:0:0:0:
320,192,11636,1,0,0:0:0:0:
64,192,11809,1,0,0:0:0:0:
320,192,11809,1,0,0:0:0:0:
64,192,11983,1,0,0:0:0:0:
448,192,11983,1,0,0:0:0:0:
192,192,12156,1,0,0:0:0:0:
320,192,12156,1,0,0:0:0:0:
64,192,12330,1,0,0:0:0:0:
448,192,12330,1,0,0:0:0:0:
192,192,12503,1,0,0:0:0:0:
448,192,12503,1,0,0:0:0:0:
64,192,12676,128,0,13197:0:0:0:0:
320,192,12676,128,0,13197:0:0:0:0:
192,192,12676,1,0,0:0:0:0:
448,192,12763,1,0,0:0:0:0:
192,192,12850,1,0,0:0:0:0:
448,192,13023,1,0,0:0:0:0:
448,192,13197,1,0,0:0:0:0:
192,192,13197,1,0,0:0:0:0:
64,192,13370,1,0,0:0:0:0:
320,192,13370,1,0,0:0:0:0:
192,192,13543,1,0,0:0:0:0:
448,192,13543,1,0,0:0:0:0:
64,192,13630,1,0,0:0:0:0:
320,192,13630,1,0,0:0:0:0:
192,192,13717,1,0,0:0:0:0:
448,192,13717,1,0,0:0:0:0:
320,192,13890,1,0,0:0:0:0:
448,192,13890,1,0,0:0:0:0:
192,192,14064,1,0,0:0:0:0:
64,192,14064,128,0,14757:0:0:0:0:
320,192,14150,1,0,0:0:0:0:
448,192,14237,1,0,0:0:0:0:
192,192,14411,1,0,0:0:0:0:
320,192,14411,1,0,0:0:0:0:
448,192,14584,1,0,0:0:0:0:
192,192,14757,1,0,0:0:0:0:
320,192,14757,1,0,0:0:0:0:
192,192,14931,1,0,0:0:0:0:
320,192,14931,1,0,0:0:0:0:
192,192,15104,1,0,0:0:0:0:
320,192,15104,1,0,0:0:0:0:
64,192,15278,1,0,0:0:0:0:
320,192,15278,1,0,0:0:0:0:
192,192,15451,1,0,0:0:0:0:
448,192,15451,1,0,0:0:0:0:
192,192,15624,1,0,0:0:0:0:
448,192,15624,1,0,0:0:0:0:
64,192,15798,1,0,0:0:0:0:
320,192,15798,1,0,0:0:0:0:
192,192,15971,1,0,0:0:0:0:
320,192,15971,128,0,16318:0:0:0:0:
64,192,16145,1,0,0:0:0:0:
192,192,16318,1,0,0:0:0:0:
448,192,16318,128,0,16491:0:0:0:0:
64,192,16405,1,0,0:0:0:0:
320,192,16491,128,0,16665:0:0:0:0:
192,192,16491,1,0,0:0:0:0:
448,192,16665,128,0,16838:0:0:0:0:
64,192,16665,1,0,0:0:0:0:
320,192,16838,128,0,17532:0:0:0:0:
192,192,16838,1,0,0:0:0:0:
448,192,17012,1,0,0:0:0:0:
64,192,17012,1,0,0:0:0:0:
448,192,17185,1,0,0:0:0:0:
192,192,17185,1,0,0:0:0:0:
448,192,17358,1,0,0:0:0:0:
64,192,17358,1,0,0:0:0:0:
448,192,17532,1,0,0:0:0:0:
192,192,17532,1,0,0:0:0:0:
448,192,17705,1,0,0:0:0:0:
192,192,17705,1,0,0:0:0:0:
192,192,17879,1,0,0:0:0:0:
448,192,17879,1,0,0:0:0:0:
320,192,18052,1,0,0:0:0:0:
448,192,18052,1,0,0:0:0:0:
192,192,18226,128,0,18746:0:0:0:0:
64,192,18226,128,0,18746:0:0:0:0:
320,192,18226,1,0,0:0:0:0:
448,192,18312,1,0,0:0:0:0:
320,192,18399,1,0,0:0:0:0:
448,192,18572,1,0,0:0:0:0:
320,192,18746,1,0,0:0:0:0:
64,192,18919,1,0,0:0:0:0:
448,192,18919,1,0,0:0:0:0:
192,192,19093,1,0,0:0:0:0:
320,192,19093,1,0,0:0:0:0:
64,192,19179,1,0,0:0:0:0:
448,192,19179,1,0,0:0:0:0:
192,192,19266,1,0,0:0:0:0:
320,192,19266,1,0,0:0:0:0:
320,192,19439,1,0,0:0:0:0:
448,192,19439,1,0,0:0:0:0:
64,192,19613,128,0,20306:0:0:0:0:
192,192,19613,1,0,0:0:0:0:
448,192,19700,1,0,0:0:0:0:
320,192,19786,1,0,0:0:0:0:
192,192,19960,1,0,0:0:0:0:
320,192,19960,1,0,0:0:0:0:
448,192,20133,1,0,0:0:0:0:
320,192,20306,1,0,0:0:0:0:
192,192,20480,1,0,0:0:0:0:
320,192,20480,1,0,0:0:0:0:
192,192,20653,1,0,0:0:0:0:
448,192,20653,1,0,0:0:0:0:
64,192,20827,1,0,0:0:0:0:
320,192,20827,1,0,0:0:0:0:
64,192,21000,1,0,0:0:0:0:
448,192,21000,1,0,0:0:0:0:
320,192,21174,1,0,0:0:0:0:
192,192,21174,1,0,0:0:0:0:
192,192,21347,1,0,0:0:0:0:
448,192,21347,1,0,0:0:0:0:
64,192,21520,1,0,0:0:0:0:
320,192,21520,1,0,0:0:0:0:
320,192,21694,128,0,22041:0:0:0:0:
192,192,21694,128,0,22041:0:0:0:0:
64,192,22041,128,0,22387:0:0:0:0:
448,192,22041,128,0,22387:0:0:0:0:
192,192,22387,128,0,22734:0:0:0:0:
320,192,22387,128,0,22734:0:0:0:0:
64,192,22734,1,0,0:0:0:0:
448,192,22734,1,0,0:0:0:0:
448,192,22908,1,0,0:0:0:0:
320,192,22994,1,0,0:0:0:0:
64,192,23081,1,0,0:0:0:0:
192,192,23081,1,0,0:0:0:0:
320,192,23254,1,0,0:0:0:0:
448,192,23254,1,0,0:0:0:0:
64,192,23428,1,0,0:0:0:0:
192,192,23428,1,0,0:0:0:0:
320,192,23601,1,0,0:0:0:0:
448,192,23601,1,0,0:0:0:0:
64,192,23775,1,0,0:0:0:0:
192,192,23775,1,0,0:0:0:0:
320,192,23948,1,0,0:0:0:0:
448,192,23948,1,0,0:0:0:0:
64,192,24121,1,0,0:0:0:0:
192,192,24121,1,0,0:0:0:0:
320,192,24295,1,0,0:0:0:0:
448,192,24295,1,0,0:0:0:0:
192,192,24468,1,0,0:0:0:0:
448,192,24468,1,0,0:0:0:0:
448,192,24642,1,0,0:0:0:0:
192,192,24642,1,0,0:0:0:0:
192,192,24815,1,0,0:0:0:0:
448,192,24815,1,0,0:0:0:0:
192,192,24989,1,0,0:0:0:0:
448,192,24989,1,0,0:0:0:0:
448,192,25162,1,0,0:0:0:0:
192,192,25162,1,0,0:0:0:0:
64,192,25335,1,0,0:0:0:0:
320,192,25335,1,0,0:0:0:0:
192,192,25509,1,0,0:0:0:0:
320,192,25509,1,0,0:0:0:0:
64,192,25682,1,0,0:0:0:0:
448,192,25682,1,0,0:0:0:0:
320,192,25856,1,0,0:0:0:0:
64,192,25856,1,0,0:0:0:0:
192,192,26029,1,0,0:0:0:0:
448,192,26029,1,0,0:0:0:0:
64,192,26202,1,0,0:0:0:0:
448,192,26202,1,0,0:0:0:0:
448,192,26376,1,0,0:0:0:0:
192,192,26376,1,0,0:0:0:0:
320,192,26549,1,0,0:0:0:0:
448,192,26636,1,0,0:0:0:0:
320,192,26723,1,0,0:0:0:0:
448,192,26809,1,0,0:0:0:0:
64,192,26896,1,0,0:0:0:0:
192,192,26983,1,0,0:0:0:0:
320,192,27069,1,0,0:0:0:0:
448,192,27156,1,0,0:0:0:0:
192,192,27156,1,0,0:0:0:0:
64,192,27243,1,0,0:0:0:0:
320,192,27243,1,0,0:0:0:0:
192,192,27503,1,0,0:0:0:0:
64,192,27590,1,0,0:0:0:0:
320,192,27590,1,0,0:0:0:0:
192,192,27850,1,0,0:0:0:0:
64,192,27937,1,0,0:0:0:0:
320,192,27937,1,0,0:0:0:0:
192,192,28110,1,0,0:0:0:0:
448,192,28110,1,0,0:0:0:0:
320,192,28283,1,0,0:0:0:0:
192,192,28370,1,0,0:0:0:0:
320,192,28457,1,0,0:0:0:0:
192,192,28543,1,0,0:0:0:0:
64,192,28630,1,0,0:0:0:0:
320,192,28630,1,0,0:0:0:0:
448,192,28804,1,0,0:0:0:0:
192,192,28804,1,0,0:0:0:0:
64,192,28977,1,0,0:0:0:0:
320,192,28977,1,0,0:0:0:0:
192,192,29150,1,0,0:0:0:0:
448,192,29150,1,0,0:0:0:0:
64,192,29324,1,0,0:0:0:0:
320,192,29324,1,0,0:0:0:0:
192,192,29497,1,0,0:0:0:0:
448,192,29497,1,0,0:0:0:0:
64,192,29671,1,0,0:0:0:0:
320,192,29671,1,0,0:0:0:0:
192,192,29844,1,0,0:0:0:0:
448,192,29844,1,0,0:0:0:0:
64,192,30017,1,0,0:0:0:0:
192,192,30017,1,0,0:0:0:0:
64,192,30191,1,0,0:0:0:0:
192,192,30191,1,0,0:0:0:0:
64,192,30364,1,0,0:0:0:0:
192,192,30364,1,0,0:0:0:0:
64,192,30538,1,0,0:0:0:0:
192,192,30538,1,0,0:0:0:0:
64,192,30711,1,0,0:0:0:0:
192,192,30711,1,0,0:0:0:0:
320,192,30885,1,0,0:0:0:0:
448,192,30885,1,0,0:0:0:0:
64,192,31058,1,0,0:0:0:0:
320,192,31058,1,0,0:0:0:0:
192,192,31231,1,0,0:0:0:0:
448,192,31231,1,0,0:0:0:0:
64,192,31405,1,0,0:0:0:0:
448,192,31405,1,0,0:0:0:0:
192,192,31578,1,0,0:0:0:0:
320,192,31578,1,0,0:0:0:0:
64,192,31752,1,0,0:0:0:0:
448,192,31752,1,0,0:0:0:0:
192,192,31925,1,0,0:0:0:0:
320,192,31925,1,0,0:0:0:0:
320,192,32098,1,0,0:0:0:0:
448,192,32185,1,0,0:0:0:0:
320,192,32272,1,0,0:0:0:0:
448,192,32358,1,0,0:0:0:0:
64,192,32445,1,0,0:0:0:0:
192,192,32532,1,0,0:0:0:0:
320,192,32619,1,0,0:0:0:0:
64,192,32705,1,0,0:0:0:0:
448,192,32705,1,0,0:0:0:0:
192,192,32792,1,0,0:0:0:0:
320,192,32792,1,0,0:0:0:0:
64,192,32879,1,0,0:0:0:0:
448,192,32879,1,0,0:0:0:0:
192,192,33139,1,0,0:0:0:0:
320,192,33139,1,0,0:0:0:0:
64,192,33226,1,0,0:0:0:0:
448,192,33226,1,0,0:0:0:0:
192,192,33312,1,0,0:0:0:0:
320,192,33312,1,0,0:0:0:0:
64,192,33486,1,0,0:0:0:0:
192,192,33572,1,0,0:0:0:0:
320,192,33659,1,0,0:0:0:0:
448,192,33746,1,0,0:0:0:0:
320,192,33832,1,0,0:0:0:0:
64,192,33832,1,0,0:0:0:0:
448,192,33919,1,0,0:0:0:0:
192,192,33919,1,0,0:0:0:0:
320,192,34006,1,0,0:0:0:0:
64,192,34006,1,0,0:0:0:0:
448,192,34093,1,0,0:0:0:0:
192,192,34093,1,0,0:0:0:0:
320,192,34179,1,0,0:0:0:0:
64,192,34179,1,0,0:0:0:0:
448,192,34353,1,0,0:0:0:0:
320,192,34439,1,0,0:0:0:0:
64,192,34526,1,0,0:0:0:0:
192,192,34526,1,0,0:0:0:0:
320,192,34700,1,0,0:0:0:0:
448,192,34700,1,0,0:0:0:0:
64,192,34873,1,0,0:0:0:0:
192,192,34873,1,0,0:0:0:0:
320,192,35046,1,0,0:0:0:0:
448,192,35046,1,0,0:0:0:0:
64,192,35220,1,0,0:0:0:0:
192,192,35220,1,0,0:0:0:0:
320,192,35393,1,0,0:0:0:0:
448,192,35393,1,0,0:0:0:0:
64,192,35567,1,0,0:0:0:0:
192,192,35567,1,0,0:0:0:0:
448,192,35740,1,0,0:0:0:0:
192,192,35740,1,0,0:0:0:0:
64,192,35913,1,0,0:0:0:0:
192,192,35913,1,0,0:0:0:0:
192,192,36087,1,0,0:0:0:0:
448,192,36087,1,0,0:0:0:0:
64,192,36260,1,0,0:0:0:0:
192,192,36260,1,0,0:0:0:0:
192,192,36434,1,0,0:0:0:0:
448,192,36434,1,0,0:0:0:0:
64,192,36607,1,0,0:0:0:0:
320,192,36607,1,0,0:0:0:0:
448,192,36780,1,0,0:0:0:0:
192,192,36780,1,0,0:0:0:0:
64,192,36780,1,0,0:0:0:0:
320,192,36867,1,0,0:0:0:0:
192,192,36954,1,0,0:0:0:0:
448,192,36954,1,0,0:0:0:0:
64,192,36954,1,0,0:0:0:0:
320,192,37127,1,0,0:0:0:0:
192,192,37127,1,0,0:0:0:0:
64,192,37301,1,0,0:0:0:0:
320,192,37301,1,0,0:0:0:0:
192,192,37474,1,0,0:0:0:0:
320,192,37474,1,0,0:0:0:0:
192,192,37648,1,0,0:0:0:0:
448,192,37734,1,0,0:0:0:0:
192,192,37821,1,0,0:0:0:0:
448,192,37908,1,0,0:0:0:0:
64,192,37994,1,0,0:0:0:0:
320,192,37994,1,0,0:0:0:0:
192,192,38168,1,0,0:0:0:0:
448,192,38168,1,0,0:0:0:0:
64,192,38341,1,0,0:0:0:0:
192,192,38341,1,0,0:0:0:0:
320,192,38341,1,0,0:0:0:0:
448,192,38341,1,0,0:0:0:0:
192,192,38515,1,0,0:0:0:0:
320,192,38515,1,0,0:0:0:0:
192,192,38688,1,0,0:0:0:0:
448,192,38688,1,0,0:0:0:0:
64,192,38688,1,0,0:0:0:0:
320,192,38688,1,0,0:0:0:0:
192,192,38861,1,0,0:0:0:0:
320,192,38861,1,0,0:0:0:0:
192,192,39035,1,0,0:0:0:0:
320,192,39121,1,0,0:0:0:0:
192,192,39208,1,0,0:0:0:0:
320,192,39295,1,0,0:0:0:0:
192,192,39382,1,0,0:0:0:0:
320,192,39468,1,0,0:0:0:0:
192,192,39555,1,0,0:0:0:0:
320,192,39642,1,0,0:0:0:0:
64,192,39728,1,0,0:0:0:0:
192,192,39728,1,0,0:0:0:0:
448,192,39728,1,0,0:0:0:0:
192,192,39902,1,0,0:0:0:0:
320,192,39902,1,0,0:0:0:0:
64,192,40249,1,0,0:0:0:0:
192,192,40249,1,0,0:0:0:0:
448,192,40249,1,0,0:0:0:0:
192,192,40422,1,0,0:0:0:0:
320,192,40422,1,0,0:0:0:0:
64,192,40769,1,0,0:0:0:0:
192,192,40769,1,0,0:0:0:0:
448,192,40769,1,0,0:0:0:0:
320,192,40942,1,0,0:0:0:0:
448,192,40942,1,0,0:0:0:0:
64,192,41289,1,0,0:0:0:0:
192,192,41289,1,0,0:0:0:0:
448,192,41289,1,0,0:0:0:0:
192,192,41463,1,0,0:0:0:0:
320,192,41463,1,0,0:0:0:0:
448,192,41809,1,0,0:0:0:0:
320,192,41896,1,0,0:0:0:0:
192,192,41983,1,0,0:0:0:0:
64,192,42069,1,0,0:0:0:0:
192,192,42156,1,0,0:0:0:0:
320,192,42156,1,0,0:0:0:0:
192,192,42330,1,0,0:0:0:0:
320,192,42330,1,0,0:0:0:0:
64,192,42503,1,0,0:0:0:0:
448,192,42503,1,0,0:0:0:0:
192,192,42676,1,0,0:0:0:0:
320,192,42676,1,0,0:0:0:0:
64,192,42850,1,0,0:0:0:0:
320,192,42850,1,0,0:0:0:0:
192,192,43023,1,0,0:0:0:0:
448,192,43023,1,0,0:0:0:0:
64,192,43197,1,0,0:0:0:0:
448,192,43197,1,0,0:0:0:0:
192,192,43370,1,0,0:0:0:0:
320,192,43370,1,0,0:0:0:0:
192,192,43543,1,0,0:0:0:0:
448,192,43543,1,0,0:0:0:0:
64,192,43717,1,0,0:0:0:0:
320,192,43717,1,0,0:0:0:0:
192,192,43890,1,0,0:0:0:0:
64,192,43890,128,0,45278:0:0:0:0:
448,192,44064,1,0,0:0:0:0:
192,192,44237,1,0,0:0:0:0:
448,192,44411,1,0,0:0:0:0:
192,192,44584,1,0,0:0:0:0:
448,192,44757,1,0,0:0:0:0:
192,192,44844,1,0,0:0:0:0:
448,192,44931,128,0,45278:0:0:0:0:
192,192,45278,128,0,45624:0:0:0:0:
320,192,45624,1,0,0:0:0:0:
320,192,45798,1,0,0:0:0:0:
448,192,45885,1,0,0:0:0:0:
448,192,46058,1,0,0:0:0:0:
320,192,46145,1,0,0:0:0:0:
64,192,46318,1,0,0:0:0:0:
320,192,46491,1,0,0:0:0:0:
64,192,46665,128,0,47012:0:0:0:0:
