osu file format v9

[General]
AudioFilename: The Wind of Gold.mp3
AudioLeadIn: 2000
PreviewTime: -1
Countdown: 1
SampleSet: Normal
StackLeniency: 0.7
Mode: 0
LetterboxInBreaks: 1
CountdownOffset: 1

[Editor]
Bookmarks: 1849,26202
DistanceSpacing: 1
BeatDivisor: 4
GridSize: 4

[Metadata]
Title:The Wind of Gold
Artist:kors k
Creator:Black Lotus
Version:Extreme
Source:jubeat
Tags:jubeat

[Difficulty]
HPDrainRate:7
CircleSize:5
OverallDifficulty:7
ApproachRate:9
SliderMultiplier:1.7
SliderTickRate:1

[Events]
//Background and Video events
0,0,"gold.jpg"
//Break Periods
2,34343,36366
2,39989,42013
//Storyboard Layer 0 (Background)
//Storyboard Layer 1 (Fail)
//Storyboard Layer 2 (Pass)
//Storyboard Layer 3 (Foreground)
//Storyboard Sound Samples
//Background Colour Transformations
3,100,163,162,255

[TimingPoints]
261,352.941176470588,4,1,0,100,1,0
261,-200,4,1,0,20,0,0
6084,-100,4,1,0,30,0,0
6613,-100,4,1,0,40,0,0
7672,-100,4,1,0,50,0,0
8731,-100,4,1,0,60,0,0
11555,-100,4,1,0,40,0,0
28496,-100,4,1,0,45,0,0
29025,-100,4,1,0,50,0,0
29551,-100,4,1,0,65,0,0
30790,-80,4,1,0,62,0,0
31143,-100,4,1,0,70,0,0
33790,-100,4,1,0,50,0,0
34143,-100,4,1,0,15,0,0
42613,-100,4,1,0,22,0,0
45437,-100,4,1,0,45,0,0
50202,-100,4,1,0,50,0,0
50378,-100,4,1,0,52,0,0
50555,-100,4,1,0,55,0,0
50731,-100,4,1,0,58,0,0
50908,-100,4,1,0,60,0,1
51084,-100,4,1,0,65,0,1
53908,-100,4,1,0,70,0,1
55319,-100,4,1,0,60,0,1
56731,-100,4,1,0,65,0,1
78966,-80,4,1,0,55,0,0
90437,-80,4,1,0,62,0,0
96172,-80,4,1,0,65,0,0
99084,-80,4,1,0,68,0,0
99437,-80,4,1,0,70,0,0
99790,-80,4,1,0,75,0,0
100143,-80,4,1,0,78,0,0
100496,-80,4,1,0,40,0,0
100760,-80,4,1,0,30,0,0
101025,-80,4,1,0,20,0,0
101290,-80,4,1,0,15,0,0
101555,-80,4,1,0,10,0,0

[Colours]
Combo1 : 255,128,0
Combo2 : 255,255,0

[HitObjects]
172,104,261,1,0
172,104,613,1,0
340,104,966,1,0
340,104,1319,1,0
405,155,1672,2,0,B|404:153|424:193|407:238,1,85
106,237,2378,2,0,B|89:192|109:152|108:154,1,85
256,72,3084,5,0
324,116,3260,1,0
300,192,3437,1,0
212,192,3613,1,0
188,116,3790,1,0
329,34,4143,6,0,B|359:34|359:34|410:55,1,85
407,191,4849,2,0,B|455:213|455:213|488:212,1,85
182,34,5555,2,0,B|149:34|149:34|101:13,1,85
70,92,6084,1,0
45,173,6260,1,0
79,250,6437,1,0
153,291,6613,5,0
237,300,6790,1,0
237,300,6966,2,0,B|286:282|298:230,1,85
331,164,7319,2,0,B|376:129|421:133|421:133|422:131,1,85
477,182,7672,5,0
477,182,7849,2,0,B|489:227|468:271,2,85
446,102,8378,2,0,B|422:59|358:44,1,85
295,43,8731,5,0
274,49,8819,1,0
255,60,8908,1,0
237,72,8996,1,0
222,92,9084,5,0
208,113,9172,1,0
199,136,9260,1,0
195,161,9349,1,0
196,190,9437,5,0
202,219,9525,1,0
220,243,9613,1,0
240,264,9702,1,0
271,276,9790,5,0
304,273,9878,1,0
334,258,9966,1,0
355,231,10055,1,0
376,194,10143,5,0
414,211,10231,1,0
433,248,10319,1,0
428,290,10407,5,0
398,321,10496,2,0,B|362:351|306:350,1,85
235,339,10849,2,0,B|262:342,8,21.25
88,256,11555,5,0
56,176,11731,1,0
56,136,11819,1,0
88,112,11908,1,0
168,144,12084,2,0,B|200:104|256:112,1,85
304,168,12437,1,0
312,160,12525,1,0
320,152,12613,1,0
320,152,12966,5,0
384,96,13143,1,0
400,88,13231,2,0,B|448:96|480:152,1,85
440,192,13496,1,0
340,268,13672,1,0
320,152,13849,1,0
320,152,14025,2,0,B|280:120|200:136|176:192,1,170
296,240,14643,5,0
288,248,14731,1,0
360,296,14908,2,0,B|344:336|296:360|240:352,1,127.5
200,320,15260,1,0
296,240,15437,1,0
456,208,15790,6,0,B|416:192|392:144,1,85
376,88,16055,2,0,B|336:64|272:72,1,85
280,72,16319,1,0
264,72,16408,1,0
248,72,16496,1,0
232,72,16584,1,0
176,136,16760,1,0
176,136,16849,6,0,B|136:152|104:240|120:288,1,170
248,288,17466,1,0
256,280,17555,1,0
304,208,17731,1,0
280,288,17908,1,0
336,224,18084,1,0
328,208,18172,1,0
320,192,18260,1,0
320,192,18613,6,0,B|340:156|400:136|448:152,1,127.5
384,76,18966,2,0,B|484:48,2,85
300,104,19408,2,0,B|272:88|208:88|176:112,1,127.5
176,112,20025,5,0
76,188,20290,1,0
76,188,20378,1,0
176,112,20555,1,0
112,292,20819,1,0
112,292,20908,1,0
176,112,21084,1,0
176,112,21437,5,0
252,76,21613,1,0
288,100,21701,1,0
332,96,21790,1,0
392,152,21966,2,0,B|412:140,4,21.25
368,232,22319,2,0,B|328:200|248:216|224:272,1,170
140,288,22849,5,0
140,288,22937,2,0,B|104:260|96:200,1,85
100,152,23202,2,0,B|84:104|44:84,2,85
48,84,23731,1,0
48,84,24260,6,0,B|92:64|148:80,1,85
180,116,24525,1,0
288,180,24790,1,0
96,156,25055,1,0
348,144,25319,1,0
348,144,25672,6,0,B|384:208|348:272,1,127.5
156,144,26202,2,0,B|120:212|156:272,1,127.5
256,192,26731,1,0
160,52,27084,2,0,B|48:128,1,127.5
352,52,27613,2,0,B|464:128,1,127.5
256,80,28143,1,0
92,124,28496,5,0
92,124,28760,1,0
92,124,29025,2,0,B|136:104|220:144|236:196,1,170
312,156,29555,1,0
324,152,29643,1,0
336,148,29731,2,0,B|360:140,4,21.25
372,224,30084,1,0
384,216,30172,1,0
456,264,30349,1,0
456,252,30437,1,0
452,168,30613,5,0
384,84,30790,2,0,B|336:92|336:92|296:56|296:56|188:76|188:76,1,212.5
156,156,31319,5,0
160,184,31408,1,0
92,236,31584,1,0
100,248,31672,1,0
156,312,31849,2,0,B|176:336|196:336,1,42.5
236,264,32113,2,0,B|260:280|284:272,1,42.5
348,320,32378,1,0
412,264,32555,2,0,B|440:288,3,28.3333333333333
404,160,32996,1,0
312,72,33260,1,0
232,96,33437,5,0
204,152,33525,1,0
176,208,33613,1,0
144,264,33702,1,0
116,320,33790,1,0
116,320,34143,1,0
116,320,36966,5,0
40,208,37319,5,0
80,264,37496,1,0
80,264,38555,1,0
164,264,38731,2,0,B|208:244|260:272,1,85
324,300,39084,2,0,B|356:328|464:328|488:300,2,170
396,64,42613,5,0
472,176,42966,5,0
432,120,43143,1,0
432,120,44555,2,0,B|388:132|344:204|344:256,1,170
276,308,45084,1,0
256,304,45172,1,0
236,300,45260,1,0
216,296,45349,1,0
196,292,45437,1,0
196,292,45790,5,0
128,240,45966,1,0
124,220,46055,1,0
120,200,46143,2,0,B|108:148|140:60|188:40|188:40,1,170
240,108,46849,6,0,B|256:176|320:200,1,127.5
380,224,47202,2,0,B|424:240|456:292,1,85
444,340,47466,1,0
316,328,47643,2,0,B|300:260|236:236,1,127.5
236,236,48260,6,0,B|280:144|372:136,1,170
444,168,48790,1,0
452,160,48878,1,0
432,76,49055,1,0
440,56,49143,1,0
343,25,49319,1,0
324,108,49496,1,0
260,52,49672,5,0
176,72,49849,1,0
188,92,49937,2,0,B|240:168|240:168,1,85
248,180,50202,1,0
104,92,50378,1,0
188,240,50555,1,0
24,112,50731,1,0
112,296,50908,1,0
192,328,51084,5,0
272,352,51260,1,0
440,320,51437,1,0
360,292,51613,1,0
192,312,51790,6,0,B|272:340,1,85
440,308,52143,2,0,B|344:276,1,85
292,232,52496,2,0,B|340:160,1,85
452,100,52849,2,0,B|400:180,1,85
284,208,53202,2,0,B|340:128,1,85
448,80,53555,2,0,B|380:180,1,85
308,64,53908,5,0
288,68,53996,1,0
268,80,54084,1,0
252,96,54172,1,0
240,120,54260,5,0
236,144,54349,1,0
244,168,54437,1,0
260,184,54525,1,0
280,204,54613,5,0
300,228,54702,1,0
308,256,54790,1,0
300,284,54878,1,0
272,304,54966,5,0
240,288,55055,1,0
208,288,55143,1,0
176,304,55231,1,0
140,328,55319,6,0,B|92:316|92:316|92:316,1,42.5
44,256,55496,2,0,B|96:244|96:244|96:244,1,42.5
140,188,55672,2,0,B|100:188|40:96|52:52,1,170
64,40,56069,2,0,B|48:20,7,21.25
64,40,56731,6,0,B|104:68|168:56,1,85
212,112,57084,2,0,B|300:68|372:124|372:124,1,170
360,188,57525,1,0
192,216,57702,1,0
192,216,57790,1,0
192,216,58143,6,0,B|240:304|240:304,1,85
192,216,58496,1,0
120,172,58672,1,0
76,88,58849,1,0
64,120,58937,2,0,B|32:208,1,85
24,232,59202,1,0
28,220,59555,6,0,B|8:264|40:312,2,85
152,132,60084,2,0,B|240:120,1,85
104,240,60349,2,0,B|116:152,1,85
220,252,60613,2,0,B|133:270,1,85
136,356,60966,6,0,B|92:348|64:300,1,85
40,228,61319,2,0,B|40:172|104:112|144:104,1,170
216,60,61849,1,0
204,144,62025,1,0
264,32,62202,1,0
388,56,62378,6,0,B|472:72|472:72,2,85
340,128,62908,1,0
328,132,62996,1,0
316,136,63084,1,0
432,188,63260,1,0
452,192,63349,1,0
472,196,63437,1,0
364,260,63613,5,0
252,320,63790,1,0
376,208,63966,1,0
376,208,64143,2,0,B|308:204|256:248|256:248,1,127.5
252,312,64496,1,0
368,260,64672,1,0
232,188,64849,1,0
136,272,65025,1,0
300,220,65202,1,0
388,76,65555,6,0,B|320:76|272:148,1,127.5
256,196,65908,1,0
400,148,66084,1,0
280,100,66260,1,0
128,176,66437,1,0
128,176,66790,5,0
128,176,66966,2,0,B|126:147|126:147|33:217|33:217|33:217,1,127.5
32,220,67319,1,0
16,236,67408,1,0
56,308,67584,2,0,B|80:336|120:328,1,42.5
248,256,68025,2,0,B|304:212|366:215,1,127.5
428,228,68378,2,0,B|448:156|418:104,1,127.5
376,56,68731,1,0
376,56,68819,1,0
376,56,69084,1,0
264,256,69437,6,0,B|208:212|145:215,1,127.5
84,228,69790,2,0,B|64:156|93:104,1,127.5
136,56,70143,1,0
136,56,70231,1,0
136,56,70496,1,0
300,96,70849,5,0
304,84,70937,1,0
308,72,71025,1,0
316,200,71202,1,0
332,184,71290,1,0
348,168,71378,1,0
352,296,71555,1,0
376,276,71643,2,0,B|456:308,1,85
472,284,71908,1,0
472,284,72084,1,0
472,284,72437,6,0,B|412:320|348:284,1,127.5
288,288,72790,2,0,B|196:288,1,85
192,300,73055,1,0
180,312,73143,1,0
68,256,73319,1,0
144,152,73496,1,0
48,68,73672,6,0,B|100:24|168:28,1,127.5
168,92,74025,1,0
92,192,74202,1,0
92,192,74378,1,0
180,284,74555,1,0
224,288,74643,1,0
256,316,74731,1,0
256,316,75084,6,0,B|300:332|340:316,1,85
244,232,75437,2,0,B|300:185|312:127,1,127.5
328,64,75790,1,0
212,112,75966,1,0
324,20,76143,1,0
436,80,76319,1,0
468,108,76408,1,0
480,148,76496,1,0
256,192,76672,12,0,78966
448,72,79319,6,0,B|372:116|292:72|292:72,1,159.375
224,76,79672,2,0,B|168:76|120:112,1,106.25
60,196,80025,1,0
52,220,80113,1,0
44,244,80202,1,0
36,116,80378,1,0
128,64,80731,5,0
152,52,80819,1,0
176,40,80908,1,0
36,116,81084,1,0
44,124,81172,2,0,B|92:144|148:128,1,106.25
216,116,81437,1,0
308,64,81613,1,0
344,64,81702,1,0
376,84,81790,1,0
464,276,82143,5,0
360,252,82319,1,0
336,264,82408,1,0
312,276,82496,2,0,B|212:240,1,106.25
188,248,82760,2,0,B|132:256|84:224,1,106.25
40,172,83025,1,0
168,116,83202,6,0,B|120:100|120:100|56:100,2,106.25
244,188,83731,2,0,B|300:208|300:208|360:208,1,106.25
424,136,84084,2,0,B|368:116|368:116|308:116,1,106.25
272,324,84437,2,0,B|328:344|328:344|388:344,1,106.25
444,264,84790,2,0,B|388:244|388:244|328:244,1,106.25
236,244,85143,5,0
232,260,85231,1,0
152,200,85408,1,0
132,216,85496,1,0
116,124,85672,1,0
80,132,85760,1,0
44,144,85849,1,0
252,100,86025,1,0
252,100,86378,6,0,B|308:116|308:116|368:104,2,106.25
184,120,86819,2,0,B|128:176|128:176|100:252,1,159.375
184,320,87260,1,0
228,316,87349,1,0
264,336,87437,1,0
264,336,87790,5,0
420,300,88055,2,0,B|432:224|432:224|392:148,1,159.375
268,56,88584,2,0,B|256:132|256:132|296:208,1,159.375
294,204,89202,1,0
164,296,89466,2,0,B|219:303|219:303|316:268,1,159.375
294,204,89819,2,0,B|237:189,1,53.125
180,159,89996,2,0,B|163:116|163:116|52:71,1,159.375
58,73,90613,6,0,B|44:126,1,53.125
108,150,90790,2,0,B|127:201,1,53.125
194,187,90966,1,0
194,187,91143,2,0,B|236:226|236:226|285:237|285:237,1,106.25
323,116,91496,1,0
428,108,91672,1,0
463,117,91760,1,0
486,145,91849,1,0
436,238,92025,6,0,B|390:264|334:260,1,106.25
264,267,92290,2,0,B|211:251|159:271,1,106.25
41,198,92643,1,0
27,220,92731,1,0
82,129,92908,1,0
172,284,93084,1,0
153,251,93172,1,0
136,219,93260,1,0
91,122,93437,5,0
186,76,93613,1,0
211,83,93702,1,0
273,168,93878,2,0,B|331:136,1,53.125
417,184,94143,1,0
434,145,94231,1,0
452,106,94319,1,0
433,210,94496,5,0
358,285,94672,2,0,B|303:264,1,53.125
260,316,94849,2,0,B|206:291|206:291|99:301,1,159.375
40,277,95202,2,0,B|22:241|22:241|31:177,1,106.25
25,160,95466,1,0
19,144,95555,1,0
139,77,95731,1,0
139,77,95908,2,0,B|196:75|196:75|246:98,1,106.25
373,59,96260,6,0,B|401:104,1,53.125
335,127,96437,2,0,B|333:187,1,53.125
265,170,96613,2,0,B|238:219|238:219|240:275,1,106.25
336,368,96966,2,0,B|363:319|363:319|361:263,1,106.25
349,257,97231,1,0
336,247,97319,1,0
244,302,97496,5,0
221,315,97584,1,0
199,329,97672,2,0,B|116:320|116:320|54:277,1,159.375
78,211,98025,2,0,B|94:157|58:110,1,106.25
165,22,98378,2,0,B|216:54|268:39|268:39,1,106.25
391,101,98731,1,0
404,123,98819,1,0
417,146,98908,1,0
401,250,99084,6,0,B|367:301,3,53.125
353,313,99437,6,0,B|286:334,3,53.125
276,336,99790,6,0,B|220:325,3,53.125
197,328,100143,6,0,B|156:291,3,53.125
155,265,100496,5,0
129,107,100760,1,0
272,35,101025,1,0
384,148,101290,1,0
312,289,101555,5,0
301,287,101643,5,0
290,284,101731,5,0
279,282,101819,5,0
268,279,101908,5,0
