osu file format v9

[General]
AudioFilename: The Wind of Gold.mp3
AudioLeadIn: 3000
PreviewTime: -1
Countdown: 1
SampleSet: Normal
StackLeniency: 0.7
Mode: 0
LetterboxInBreaks: 1

[Editor]
DistanceSpacing: 1
BeatDivisor: 4
GridSize: 8

[Metadata]
Title:The Wind of Gold
Artist:kors k
Creator:Black Lotus
Version:1491
Source:
Tags:

[Difficulty]
HPDrainRate:7
CircleSize:4
OverallDifficulty:6
ApproachRate:8
SliderMultiplier:1.4
SliderTickRate:1

[Events]
//Background and Video events
0,0,"gold.jpg"
//Break Periods
2,34343,36216
2,37695,37805
2,39990,41863
2,43343,43805
//Storyboard Layer 0 (Background)
//Storyboard Layer 1 (Fail)
//Storyboard Layer 2 (Pass)
//Storyboard Layer 3 (Foreground)
//Storyboard Sound Samples
//Background Colour Transformations
3,100,163,162,255

[TimingPoints]
261,352.941176470588,4,1,0,45,1,0
8908,-100,4,1,0,50,0,0
9172,-100,4,1,0,55,0,0
9525,-100,4,1,0,60,0,0
9790,-100,4,1,0,65,0,0
10143,-100,4,1,0,70,0,0
11555,-100,4,1,0,75,0,1
11908,-66.6666666666667,4,1,0,75,0,1
22672,-66.6666666666667,4,1,0,40,0,1
28496,-66.6666666666667,4,1,0,50,0,1
28760,-66.6666666666667,4,1,0,60,0,1
29025,-66.6666666666667,4,1,0,70,0,1
29378,-66.6666666666667,4,1,0,80,0,1
29555,-66.6666666666667,4,1,0,60,0,1
29908,-66.6666666666667,4,1,0,40,0,1
30172,-66.6666666666667,4,1,0,60,0,1
30437,-66.6666666666667,4,1,0,80,0,1
30790,-66.6666666666667,4,1,0,100,0,1
34143,-66.6666666666667,4,1,0,100,0,0
36966,-100,4,1,0,100,0,0
45790,-100,4,1,0,40,0,0
46496,-100,4,1,0,45,0,0
46849,-100,4,1,0,50,0,0
47555,-100,4,1,0,55,0,0
47908,-100,4,1,0,60,0,0
48260,-100,4,1,0,65,0,0
48613,-100,4,1,0,70,0,0
48966,-100,4,1,0,75,0,0
63613,-200,4,1,0,100,0,0
65290,-100,4,1,0,100,0,0
68025,-50,4,1,0,100,0,0
68466,-100,4,1,0,100,0,1
79143,-100,4,1,0,100,0,0

[Colours]
Combo1 : 255,150,0
Combo2 : 237,7,41
Combo3 : 5,5,240
Combo4 : 14,231,231

[HitObjects]
440,56,261,2,0,B|464:96|440:136,1,70
446,122,613,2,0,B|424:160|384:160,1,70
280,32,1319,1,0
280,32,1672,1,0
184,96,1849,1,0
184,96,2202,1,0
40,336,3084,6,0,B|96:288,1,70
93,290,3613,1,0
264,288,4143,2,0,B|352:296|400:240,1,140
296,192,4849,2,0,B|224:160|160:216,1,140
165,211,5555,5,0
112,184,5731,1,0
64,152,5908,1,0
40,104,6084,1,0
40,48,6261,1,0
40,104,6437,6,0,B|16:144|64:152,1,70
64,152,6790,2,0,B|120:136|112:208,1,70
112,184,7143,2,0,B|128:232|176:208,1,70
216,192,7496,1,0
216,88,7672,1,0
320,88,7849,1,0
320,192,8025,1,0
392,192,8202,1,0
392,264,8378,1,0
320,264,8555,2,0,B|240:296,1,70
224,296,8819,5,0
192,296,8908,1,0
160,288,8996,1,0
128,272,9084,1,0
96,248,9172,5,0
80,216,9261,1,0
72,184,9349,1,0
80,152,9437,1,0
96,120,9525,5,0
120,96,9613,1,0
152,80,9702,1,0
184,72,9790,1,0
216,72,9878,5,0
248,88,9966,1,0
272,112,10055,1,0
304,120,10143,1,0
336,112,10231,5,0
360,88,10319,2,0,B|360:48,2,35
408,296,10849,2,0,B|440:320,4,35
200,248,11555,5,0
200,248,11819,1,0
200,248,11908,2,0,B|56:80,1,210.000008010865
63,88,12437,1,0
63,88,12613,1,0
271,61,12966,5,0
271,61,13143,1,0
271,61,13231,1,0
271,61,13319,1,0
374,79,13496,1,0
374,79,13672,1,0
374,79,13761,1,0
374,79,13849,1,0
367,183,14025,2,0,B|433:172|461:124,2,105.000004005432
261,190,14555,5,0
220,180,14643,1,0
224,221,14731,1,0
239,303,14908,2,0,B|171:302|143:249,1,105.000004005432
148,258,15261,2,0,B|115:212|131:147,1,105.000004005432
282,90,15790,6,0,B|325:45|392:52,1,105.000004005432
392,51,16055,1,0
407,53,16143,1,0
351,115,16319,2,0,B|319:167|242:169,1,105.000004005432
248,168,16584,1,0
232,167,16672,1,0
133,130,16849,1,0
48,191,17025,1,0
39,85,17202,1,0
48,191,17378,5,0
48,191,17466,1,0
48,191,17555,1,0
151,204,17731,2,0,B|172:150|236:149,1,105.000004005432
242,232,18084,2,0,B|277:280|240:334,1,105.000004005432
164,298,18437,2,0,B|104:305|81:241,1,105.000004005432
188,246,18790,1,0
188,246,18878,1,0
188,246,18966,1,0
319,158,19143,5,0
318,159,19319,2,0,B|369:120,2,52.5000020027161
448,64,19672,1,0
136,80,20025,2,0,B|72:96|64:160,1,105.000004005432
65,149,20290,1,0
65,149,20378,1,0
208,216,20555,1,0
56,256,20731,2,0,B|0:272,2,52.5000020027161
208,216,21084,1,0
472,40,21437,6,0,B|512:112|512:112|472:192,2,157.500006008148
400,112,22143,2,0,B|280:112,1,105.000004005432
280,112,22408,1,0
264,112,22496,1,0
176,56,22672,6,0,B|208:104|184:184,1,105.000004005432
96,112,23025,2,0,B|72:168|112:224,1,105.000004005432
192,280,23378,1,0
280,336,23555,1,0
256,232,23731,1,0
280,336,23908,1,0
336,248,24084,1,0
408,176,24261,5,0
320,120,24437,1,0
304,112,24525,1,0
288,104,24613,2,0,B|192:56,1,105.000004005432
128,136,24966,5,0
117,147,25055,1,0
106,158,25143,1,0
106,158,25319,1,0
312,192,25672,1,0
208,192,25849,1,0
192,192,25937,1,0
176,192,26025,1,0
232,280,26202,5,0
336,280,26378,1,0
352,280,26466,1,0
368,280,26555,1,0
432,192,26731,1,0
224,144,27084,5,0
168,56,27261,2,0,B|104:56,2,52.5000020027161
224,144,27613,1,0
280,56,27790,2,0,B|336:56,2,52.5000020027161
224,144,28143,1,0
88,304,28496,2,0,B|80:230,1,52.5000020027161
64,72,28761,1,0
64,72,28849,1,0
280,168,29025,1,0
456,288,29378,1,0
456,288,29555,6,0,B|208:256,1,210.000008010865
400,80,30172,1,0
400,80,30260,1,0
168,56,30437,1,0
168,56,30613,1,0
168,56,30702,1,0
168,56,30790,2,0,B|104:152,1,105.000004005432
80,192,31143,5,0
128,288,31319,1,0
192,200,31496,1,0
192,200,31584,1,0
288,72,31849,1,0
368,208,32113,1,0
272,336,32378,1,0
112,208,32731,5,0
42,66,32996,1,0
42,66,33084,1,0
24,169,33260,1,0
178,137,33525,1,0
178,137,33613,1,0
135,52,33790,1,0
98,129,34143,1,0
120,288,36966,6,0,B|80:280|72:232,3,70
392,96,38555,6,0,B|432:104|440:152,3,70
304,96,39437,1,0
248,224,39790,1,0
456,256,42613,6,0,B|424:304|392:312,1,70
344,328,42966,1,0
272,328,43143,1,0
96,80,44555,5,0
96,224,44908,1,0
96,152,45084,2,0,B|136:152|168:192,1,70
176,208,45349,1,0
184,240,45437,1,0
312,304,45790,2,0,B|352:304,3,35
376,288,46143,2,0,B|400:264,3,35
416,232,46496,5,0
416,200,46584,1,0
408,168,46672,1,0
384,144,46760,1,0
352,128,46849,6,0,B|312:104,3,35
288,104,47202,1,0
256,104,47290,1,0
224,112,47378,1,0
200,136,47466,1,0
184,168,47555,6,0,B|176:192|152:208,1,35
136,216,47731,2,0,B|120:232|96:224,1,35
72,224,47908,2,0,B|32:208,3,35
64,160,48260,2,0,B|32:128,3,35
80,104,48613,2,0,B|64:64,3,35
120,64,48966,2,0,B|128:16,3,35
176,48,49319,5,0
232,48,49496,1,0
288,64,49672,1,0
312,80,49760,1,0
328,104,49849,1,0
336,128,49937,1,0
336,152,50025,1,0
264,136,50202,6,0,B|224:120|176:136,3,70
195,130,50908,1,0
195,130,51084,1,0
80,208,51437,2,0,B|40:192,4,35
112,272,51966,1,0
176,304,52143,1,0
248,312,52319,1,0
248,312,52408,1,0
248,312,52496,1,0
216,176,52849,5,0
200,104,53025,1,0
232,104,53113,1,0
264,112,53202,1,0
280,144,53290,1,0
288,176,53378,1,0
216,176,53555,2,0,B|168:240,3,70
128,288,54260,5,0
80,240,54437,1,0
56,216,54525,1,0
48,184,54613,1,0
56,152,54702,1,0
72,120,54790,1,0
120,64,54966,1,0
216,32,55143,6,0,B|272:40|304:64,1,70
283,51,55408,1,0
283,51,55496,1,0
283,51,55584,1,0
283,51,55672,1,0
400,128,56025,2,0,B|432:160,4,35
312,240,56731,6,0,B|264:312,1,70
273,298,57084,2,0,B|192:312,1,70
192,312,57349,1,0
181,313,57437,1,0
170,315,57525,1,0
159,317,57613,1,0
148,319,57702,1,0
137,321,57790,1,0
137,321,57966,2,0,B|85:325|50:283,1,70
104,168,58496,5,0
123,99,58672,1,0
143,70,58760,1,0
173,53,58849,1,0
207,46,58937,1,0
241,49,59025,1,0
273,60,59113,1,0
308,59,59202,1,0
374,37,59378,1,0
449,110,59555,1,0
449,110,59908,5,0
385,193,60084,1,0
416,216,60172,1,0
432,248,60260,1,0
424,280,60349,1,0
392,304,60437,1,0
360,304,60525,1,0
336,280,60613,1,0
288,184,60790,1,0
184,160,60966,2,0,B|155:141,2,35
178,268,61319,5,0
178,268,61408,1,0
178,268,61496,2,0,B|97:232,1,70
64,144,61849,1,0
160,96,62025,1,0
208,192,62202,1,0
112,240,62378,2,0,B|92:326,1,70
200,328,62731,1,0
200,328,62908,5,0
232,328,62996,1,0
264,328,63084,1,0
296,328,63172,2,0,B|336:288,3,35
384,216,63613,2,0,B|384:248,2,17.5
376,80,63966,2,0,B|400:64,2,17.5
256,144,64319,2,0,B|232:128,6,17.5
256,144,65025,1,0
256,144,65202,1,0
48,328,65555,5,0
80,264,65731,1,0
112,256,65819,1,0
136,232,65908,1,0
152,200,65996,1,0
160,168,66084,1,0
184,144,66172,1,0
216,128,66260,1,0
296,56,66437,5,0
296,56,66613,1,0
312,160,66790,1,0
312,160,66966,1,0
416,152,67143,2,0,B|448:200|432:240,1,70
392,248,67408,2,0,B|392:288|432:320,1,70
472,320,67672,1,0
472,320,67849,1,0
360,344,68025,6,0,B|96:224,1,280
80,128,68555,5,0
112,112,68643,1,0
120,80,68731,1,0
96,56,68819,1,0
64,56,68908,1,0
40,80,68996,1,0
48,112,69084,1,0
80,173,69260,1,0
77,243,69437,1,0
148,122,69790,5,0
216,178,69966,1,0
246,195,70055,1,0
278,181,70143,1,0
291,148,70231,1,0
269,120,70319,1,0
233,117,70408,1,0
209,142,70496,1,0
305,181,70672,2,0,B|394:215,1,70
266,300,71202,5,0
290,234,71378,1,0
318,214,71466,1,0
353,214,71555,1,0
380,235,71643,1,0
384,269,71731,1,0
369,300,71819,1,0
336,313,71908,1,0
267,300,72084,2,0,B|204:342,1,70
163,285,72437,5,0
128,286,72525,1,0
93,285,72613,1,0
57,286,72702,1,0
59,251,72790,1,0
60,216,72878,1,0
64,181,72966,1,0
116,227,73143,2,0,B|191:167,1,70
171,184,73496,2,0,B|241:132,1,70
227,143,73849,2,0,B|294:92,1,70
224,64,74202,5,0
192,56,74290,1,0
160,64,74378,1,0
136,88,74466,1,0
128,120,74555,1,0
136,152,74643,1,0
128,184,74731,1,0
104,248,74908,2,0,B|96:272|128:296,2,35
312,208,75437,6,0,B|280:168|296:120,1,70
288,112,75702,1,0
296,88,75790,1,0
320,64,75878,1,0
352,48,75966,1,0
384,48,76055,1,0
416,64,76143,1,0
472,112,76319,1,0
472,112,76496,1,0
448,248,76849,5,0
448,248,77025,1,0
416,256,77113,1,0
384,264,77202,1,0
352,272,77290,1,0
320,280,77378,1,0
288,288,77466,1,0
256,296,77555,1,0
256,296,77731,5,0
256,296,77908,1,0
184,296,78084,1,0
128,336,78260,1,0
80,280,78437,1,0
136,240,78613,5,0
257,169,78790,1,0
181,51,78966,1,0
60,122,79143,1,0
24,256,79319,6,0,B|40:208|88:184,1,70
63,199,79672,1,0
64,200,79849,2,0,B|96:168|136:160|176:168|216:192,1,140
384,96,80731,5,0
328,56,80908,1,0
312,88,80996,1,0
320,120,81084,1,0
384,96,81260,1,0
400,168,81437,1,0
368,168,81525,1,0
336,152,81613,1,0
384,96,81790,1,0
275,350,82143,5,0
337,322,82320,1,0
318,292,82408,1,0
286,283,82496,1,0
275,350,82672,1,0
204,328,82849,1,0
220,300,82937,1,0
251,285,83025,1,0
276,350,83202,1,0
108,129,83555,5,0
102,197,83732,1,0
137,195,83820,1,0
161,172,83908,1,0
108,129,84084,1,0
163,79,84261,1,0
179,107,84349,1,0
181,142,84437,1,0
108,129,84614,1,0
248,144,84966,6,0,B|208:88,1,70
280,88,85319,2,0,B|376:80,1,70
312,144,85672,2,0,B|280:240,1,70
104,104,86378,5,0
168,80,86555,1,0
192,104,86643,1,0
168,128,86731,1,0
104,104,86908,1,0
40,80,87084,1,0
16,104,87172,1,0
40,128,87260,1,0
104,104,87437,1,0
104,248,87790,5,0
72,184,87966,1,0
104,160,88055,1,0
128,184,88143,1,0
104,248,88319,1,0
72,312,88496,1,0
104,336,88584,1,0
128,312,88672,1,0
157,248,88849,5,0
226,248,89025,1,0
296,248,89202,1,0
299,317,89378,1,0
333,312,89466,1,0
356,285,89555,1,0
416,250,89731,1,0
355,214,89908,1,0
331,188,89996,1,0
296,180,90084,1,0
297,249,90260,1,0
412,169,90613,5,0
412,98,90790,1,0
377,98,90878,1,0
342,99,90966,1,0
342,28,91143,1,0
272,29,91319,1,0
272,64,91408,1,0
273,98,91496,1,0
203,100,91672,1,0
182,290,92025,5,0
120,256,92202,2,0,B|64:248,2,35
181,290,92555,1,0
181,220,92731,2,0,B|181:180,2,35
241,256,93084,2,0,B|298:295|298:295|378:278|378:278|345:221|345:221|422:199|422:199|403:137|403:137,1,350
312,112,94143,5,0
312,112,94231,1,0
312,112,94319,1,0
312,112,94496,2,0,B|160:96,1,140
104,80,95025,2,0,B|128:32,2,35
72,144,95378,1,0
40,208,95555,2,0,B|24:240,2,35
168,264,95908,5,0
168,264,96084,1,0
184,192,96260,1,0
208,168,96349,1,0
240,160,96437,1,0
272,152,96525,1,0
296,128,96613,1,0
272,64,96790,6,0,B|360:40,1,70
392,176,97143,2,0,B|304:200,1,70
376,328,97496,2,0,B|456:304,1,70
472,168,97849,5,0
472,136,97937,1,0
456,104,98025,1,0
400,64,98202,1,0
328,48,98378,1,0
328,48,98466,1,0
328,48,98555,1,0
256,40,98731,6,0,B|208:40|168:72,2,70
272,72,99172,1,0
288,104,99260,1,0
288,136,99349,1,0
280,168,99437,1,0
256,200,99525,6,0,B|288:232,2,35
232,224,99790,5,0
200,232,99878,1,0
168,224,99966,1,0
136,200,100055,1,0
104,192,100143,1,0
72,208,100231,1,0
56,240,100319,1,0
64,272,100408,1,0
88,296,100496,1,0
184,336,100760,5,0
280,296,101025,1,0
360,232,101290,1,0
376,128,101555,1,0
376,128,101643,1,0
376,128,101731,1,0
376,128,101819,1,0
376,128,101908,1,0
