osu file format v5

[General]
AudioFilename: kors k - SigSig.mp3
AudioLeadIn: 0
PreviewTime: 28034
Countdown: 0
SampleSet: Soft
StackLeniency: 0.7
Mode: 0
LetterboxInBreaks: 1

[Metadata]
Title:SigSig
Artist:kors k
Creator:silasw
Version:Normal
Source:
Tags:beatmania, IIDX

[Difficulty]
HPDrainRate:3
CircleSize:4
OverallDifficulty:4
SliderMultiplier:1.2
SliderTickRate:1

[Events]
//Background and Video events
0,0,"g2arts_sigsig.jpg"
1,-500,"beatmania IIDX 12 HAPPY SKY - SigSig.AVI"
//Break Periods
2,44801,54678
2,98432,102946
//Storyboard Layer 0 (Background)
//Storyboard Layer 1 (Failing)
//Storyboard Layer 2 (Passing)
//Storyboard Layer 3 (Foreground)
//Storyboard Sound Samples
//Background Colour Transformations
3,100,163,162,255

[TimingPoints]
1040,335.195530726257,4,1,0,100,1
104280,335.195530726257,4,2,0,100,0

[HitObjects]
376,192,11766,1,0
336,312,13777,6,0,B|200:312,1,120
120,312,14447,1,0
248,96,15621,5,0
248,96,15788,1,0
416,272,17129,5,0
88,184,18302,5,0
120,216,18470,1,0
152,248,18637,1,0
448,184,19810,5,0
256,184,20481,1,0
88,88,21151,1,0
88,184,21486,1,0
88,280,21822,1,0
184,280,22157,1,0
280,280,22492,1,0
456,56,23833,5,0
392,128,24168,1,0
456,192,24503,1,2
392,264,24838,1,2
200,264,25509,5,2
104,264,25844,1,2
104,72,26514,5,0
176,136,26850,1,0
240,72,27185,1,2
312,136,27520,1,2
400,304,28190,6,0,B|248:304,1,120
88,312,29196,5,0
152,240,29531,1,0
88,176,29866,1,2
152,104,30202,1,2
344,104,30872,5,2
344,200,31207,1,2
168,272,31877,5,0
240,336,32213,1,0
304,272,32548,1,2
376,336,32883,1,2
192,184,33721,5,0
144,184,33889,2,0,B|144:256,1,60
264,320,34559,6,0,B|392:271|360:104,1,240
264,128,35565,1,0
248,320,37241,6,0,B|120:271|152:104,1,240
240,128,38246,1,0
440,192,39252,6,0,B|386:109|312:152,1,120
336,232,39922,2,0,B|190:261|141:133,1,240,0|0
104,48,40928,1,0
384,80,42604,5,0
288,80,42939,1,0
192,80,43274,1,0
96,80,43609,1,0
96,176,43945,1,2
288,176,44615,1,6
152,80,56012,6,0,B|77:194|168:320,4,240
248,80,59028,1,0
344,80,59364,1,0
344,176,59699,1,0
344,272,60034,1,0
248,272,60369,1,0
152,272,60704,1,0
328,336,61375,5,0
232,336,61710,1,0
136,336,62045,1,0
40,336,62380,1,0
40,240,62715,1,0
136,240,63051,1,0
232,240,63386,1,0
232,144,63721,1,0
328,144,64056,1,0
152,56,64727,6,2,B|304:56,1,120,2|0
368,56,65397,1,2
464,56,65732,1,2
464,152,66067,1,2
296,248,66738,6,0,B|192:328|72:224,3,240
200,80,69419,2,0,B|336:80|424:240,1,240
232,296,70760,5,0
160,224,71095,1,0
96,296,71431,1,0
64,152,71933,5,0
64,152,72101,1,0
288,72,72939,5,0
384,72,73274,1,0
384,72,73442,1,0
160,320,74615,5,0
160,320,74783,1,0
304,320,75285,1,0
304,320,75453,1,0
456,200,76123,2,2,B|456:376,2,120
320,336,77464,5,0
296,248,77799,1,0
264,280,77967,1,0
232,312,78134,1,0
216,216,78470,1,0
216,120,78805,1,0
312,120,79140,1,0
408,120,79475,1,0
224,56,80146,5,0
248,144,80481,1,0
280,112,80648,1,0
312,80,80816,1,0
328,176,81151,1,0
328,272,81486,1,0
232,272,81822,1,0
136,272,82157,1,0
320,328,82827,5,0
344,240,83162,1,0
376,272,83330,1,0
408,304,83498,1,0
424,208,83833,1,0
424,112,84168,1,0
328,112,84503,1,0
232,112,84838,1,0
136,112,85174,1,0
40,112,85509,1,0
88,192,85844,6,2,B|34:311|281:205|168:352,1,240
272,344,86850,1,0
368,344,87185,1,0
368,248,87520,1,0
320,336,88190,5,0
320,240,88526,1,0
272,240,88693,1,0
224,240,88861,1,0
224,144,89196,1,0
144,200,89531,1,0
64,144,89866,1,0
144,96,90202,1,0
144,288,90872,5,0
144,192,91207,1,0
192,192,91375,1,0
240,192,91542,1,0
240,96,91877,1,0
320,152,92213,1,0
400,96,92548,1,0
320,48,92883,1,0
312,240,93553,5,2
96,336,94391,1,2
96,240,94727,1,2
96,192,94894,1,2
368,88,95900,5,2
288,144,96235,1,2
184,304,96905,6,0,B|96:288|72:192,2,120,0|0|2
280,304,97911,1,2
376,304,98246,1,2
104,96,104280,5,0
248,96,104783,1,0
248,96,104950,1,0
320,160,105285,1,0
320,256,105621,1,0
248,192,105956,1,0
152,192,106291,1,0
152,240,106458,1,0
152,288,106626,1,0
248,288,106961,1,0
440,296,107632,5,0
440,104,108302,1,0
344,104,108637,1,0
248,104,108972,1,0
104,232,109643,6,2,B|144:344|256:320|232:224|104:176|24:144|-80:80|64:16|128:120|128:192,1,480
184,88,111319,1,0
256,152,111654,1,0
328,88,111989,1,0
388,161,112324,6,2,B|384:120|448:16|592:80|488:144|408:176|280:224|256:320|368:344|408:232,1,480,0|0
472,312,114000,5,0
384,344,114336,1,0
288,344,114671,1,0
200,312,115006,6,0,B|56:256|200:104,1,240
360,48,116347,2,0,B|504:104|360:256,1,240
200,312,117688,2,0,B|56:256|200:104,1,240
368,64,119028,6,0,B|256:56|256:136,1,150
256,200,119699,1,0
