osu file format v9

[General]
AudioFilename: SigSig.mp3
AudioLeadIn: 0
PreviewTime: 76787
Countdown: 0
SampleSet: Soft
StackLeniency: 0.6
Mode: 0
LetterboxInBreaks: 1

[Editor]
DistanceSpacing: 1
BeatDivisor: 4
GridSize: 8

[Metadata]
Title:SigSig
Artist:kors k
Creator:DeeN
Version:Hyper
Source:beatmania IIDX
Tags:lzy MAYA kors k's daughters Sprosive a408746369

[Difficulty]
HPDrainRate:5
CircleSize:4
OverallDifficulty:6
ApproachRate:8
SliderMultiplier:1.5
SliderTickRate:0.5

[Events]
//Background and Video events
0,0,"BG.png"
//Break Periods
//Storyboard Layer 0 (Background)
//Storyboard Layer 1 (Fail)
//Storyboard Layer 2 (Pass)
//Storyboard Layer 3 (Foreground)
//Storyboard Sound Samples
//Background Colour Transformations
3,100,163,162,255

[TimingPoints]
9763,335.195530726257,4,2,0,78,1,0
11019,-100,4,1,0,80,0,0
11187,-100,4,2,0,80,0,0
22081,-100,4,2,0,60,0,0
22416,-100,4,2,0,40,0,0
22751,-100,4,2,0,80,0,0
23087,-100,4,1,0,80,0,0
33142,-200,4,1,0,80,0,0
33980,-100,4,1,0,80,0,0
43869,-200,4,1,0,80,0,0
44623,-100,4,1,0,80,0,1
53003,-100,4,1,0,80,0,0
55265,-100,4,2,0,71,0,0
60461,-100,4,1,0,70,0,0
60796,-100,4,2,0,70,0,0
65321,-200,4,1,0,49,0,0
65992,-200,4,1,0,70,0,0
66159,-100,4,1,0,80,0,0
76718,-200,4,1,0,80,0,0
79148,-100,4,1,0,80,0,0
86774,-200,4,1,0,80,0,0
87528,-100,4,1,0,78,0,1
98254,-100,4,2,0,80,0,0

[Colours]
Combo1 : 122,241,109
Combo2 : 62,234,230
Combo3 : 251,136,227
Combo4 : 247,208,79
SliderBorder : 0,0,0

[HitObjects]
256,192,9763,12,0,10768
256,304,11103,5,0
256,152,11438,2,0,B|256:88|336:112|336:112,1,75
456,128,11941,1,0
456,200,12109,1,0
456,272,12276,1,0
384,272,12444,2,0,B|304:272|304:272,1,75
248,192,12947,5,0
176,192,13114,2,0,B|120:192|120:192,2,37.5,2|0|0
176,120,13450,1,0
248,120,13617,2,0,B|296:120|296:120,2,37.5
464,104,14455,6,0,B|416:16|336:56|336:56,1,150
232,88,14958,1,0
176,184,15126,1,4
304,336,15628,5,0
368,296,15796,1,0
432,256,15964,1,0
464,192,16131,2,0,B|464:152,2,37.5,0|0|0
464,192,16466,1,4
40,240,17137,6,0,B|152:240|152:136|152:136,1,150
248,104,17640,1,4
304,200,17807,1,4
360,296,17975,1,0
384,56,18980,5,0
272,56,19148,1,4
160,192,19483,6,0,B|240:264|240:264,1,75
215,242,19818,1,4
352,80,20154,5,0
256,312,20489,5,4
184,256,20656,1,0
144,176,20824,1,4
144,176,20992,1,0
184,96,21159,1,4
256,40,21327,1,0
320,104,21494,2,0,B|320:184,1,75,4|0
408,184,21830,2,0,B|408:232|408:232,8,37.5,4|0|0|0|4|0|0|0|4
320,104,22835,1,4
128,120,23170,5,0
192,88,23338,2,0,B|240:40|264:104|264:104,1,75,0|8
272,160,23673,2,0,B|272:240|272:240,2,75,0|0|0
272,160,24176,1,8
272,312,24511,1,4
80,200,24846,5,8
120,264,25014,1,0
184,224,25181,1,0
144,160,25349,1,0
80,200,25517,2,0,B|-8:200|-8:200,1,75,8|0
80,200,25852,2,0,B|80:112|80:112,1,75
80,125,26187,2,0,B|175:125|175:125,1,75,8|0
232,128,26522,1,0
304,152,26690,1,0
376,128,26857,1,8
304,0,27193,5,4
304,152,27528,2,0,B|304:232|304:232,1,75,8|0
232,216,27863,1,0
168,176,28031,1,0
96,160,28198,2,0,B|96:216|96:216,4,37.5,8|0|0|0|4
216,72,28869,6,0,B|224:128|288:104|288:104,1,75,8|0
336,72,29204,2,0,B|392:88|360:144|360:144,1,75,0|0
312,184,29539,2,0,B|224:184|224:184,1,75,8|0
216,256,29874,2,0,B|296:256|296:256,1,75
368,256,30209,1,8
424,200,30377,1,8
440,128,30545,1,0
392,72,30712,1,8
320,72,30880,6,0,B|272:72|272:72,2,37.5
296,144,31215,1,0
352,192,31383,1,8
336,264,31550,2,0,B|304:288|232:256|232:256,1,75
192,248,31885,1,8
192,176,32053,1,8
128,136,32221,2,2,B|32:160|16:32|16:32,2,150,2|2|4
128,136,33059,1,0
200,24,33226,6,0,B|232:96|240:-8|296:104|304:-24|320:64|320:64,1,150,8|4
376,160,34064,6,0,B|376:240|376:240|384:240,1,75,0|8
304,208,34399,1,0
232,208,34567,2,0,B|144:208|144:208,1,75
184,280,34902,1,8
408,280,35237,1,4
416,56,35573,6,0,B|328:56|328:56,1,75,8|0
264,56,35908,2,0,B|264:144|264:144,1,75
192,136,36243,2,0,B|96:136|96:136,2,75,8|0|0
192,208,36746,2,0,B|192:296|192:296,2,75,0|8|0
192,136,37249,1,8
264,136,37416,1,0
336,136,37584,5,8
328,360,37919,1,4
120,320,38254,5,8
168,264,38422,1,0
120,208,38589,1,8
168,152,38757,1,0
232,112,38925,2,0,B|280:144|280:144,4,37.5,8|0|0|0|0
176,56,39427,6,0,B|96:56|96:56,2,75,0|8|0
232,112,39930,2,0,B|264:208|264:208,1,75
288,288,40265,5,8
288,64,40600,1,0
64,56,40936,6,0,B|64:136|64:136,1,75,8|0
64,208,41271,2,0,B|144:208|144:208,1,75,8|0
192,152,41606,5,8
256,192,41774,2,0,B|256:240|256:240,2,37.5,0|0|8
328,192,42109,2,0,B|328:240|328:240,2,37.5,4|0|8
400,184,42444,2,0,B|464:240|464:240,1,75,0|8
448,312,42779,2,0,B|376:352|376:352,1,75,0|0
304,352,43114,1,8
240,312,43282,6,0,B|160:368|72:288|72:288,1,150,8|0
160,256,43785,1,0
232,232,43952,2,0,B|224:128|352:128,1,150,2|4
232,56,44790,6,0,B|152:56|152:56,1,75,0|0
80,96,45126,2,0,B|168:96|168:96,1,75
232,144,45461,2,0,B|152:144|152:144,1,75
80,192,45796,2,0,B|168:192|168:192,1,75
232,240,46131,2,0,B|144:240|144:240,2,75
152,280,46634,1,4
152,56,46969,1,4
464,104,47304,6,0,B|464:192|464:192,1,75
424,256,47640,2,0,B|424:176|424:176,1,75
376,104,47975,2,0,B|376:192|376:192,1,75
328,256,48310,2,0,B|328:168|328:168,1,75,0|0
328,72,48645,1,4
120,144,48980,1,8
184,360,49316,1,4
392,272,49651,1,8
192,128,49986,6,0,B|272:192|272:192,1,75,8|0
160,192,50321,2,0,B|168:272|168:272,1,75,8|0
88,224,50656,2,8,B|48:288|48:288,1,75
136,288,50992,2,0,B|200:328|200:328,1,75,0|8
208,240,51327,1,8
272,176,51494,1,8
184,160,51662,2,0,B|128:40|240:24|240:24,1,150,8|8
440,32,52332,1,8
352,240,52668,5,4
256,288,52835,1,8
152,240,53003,1,4
120,128,53170,1,8
216,64,53338,2,0,B|304:64|304:64,1,75,8|0
368,144,53673,2,0,B|432:200|432:200,1,75,8|4
408,280,54008,6,0,B|408:336|408:336,2,37.5,4|0|0
416,216,54344,2,0,B|456:216|456:216,2,37.5,4|0|0
352,200,54679,2,0,B|352:136|352:136,2,37.5,4|0|0
344,264,55014,2,0,B|296:264|296:264,2,37.5,4|0|0
256,136,55349,5,4
219,143,55517,1,0
187,163,55684,1,0
161,190,55852,1,0
137,219,56019,5,4
122,253,56187,1,0
114,289,56355,1,0
120,325,56522,1,0
152,344,56690,6,0,B|248:344|248:344,1,75,4|0
252,318,57025,2,0,B|260:238|260:238,1,75
255,205,57360,2,0,B|319:213|359:157|407:213|407:213,1,150,4|0
400,206,57863,1,0
392,256,58031,6,0,B|432:296|464:272|464:272,1,75,0|0
472,240,58366,2,0,B|496:208|472:168|472:168,1,75,0|0
472,128,58701,2,0,B|456:80|384:96|384:96,1,75,0|0
376,104,59036,2,0,B|320:144|280:96|280:96,1,75,0|0
288,144,59371,2,0,B|280:240|280:240,1,75,4|0
280,256,59707,2,0,B|368:304|368:304,1,75,4|0
384,296,60042,2,4,B|456:256|448:160|448:160,1,150
440,136,60545,2,0,B|392:96|392:96,2,37.5
296,184,61047,5,4
296,256,61215,1,0
296,328,61383,1,0
120,192,61718,1,4
272,24,62053,1,0
440,168,62388,1,4
296,336,62723,2,0,B|208:392|160:296|160:296,2,150,0|4|0
264,192,63729,5,4
192,176,63897,1,0
168,104,64064,1,4
176,96,64148,1,0
184,88,64232,1,0
192,80,64316,1,0
200,72,64399,1,4
272,56,64567,1,4
272,56,64735,1,4
456,192,65070,1,4
272,328,65405,2,0,B|184:352|128:288|128:288,1,150,4|8
224,176,66411,6,0,B|176:112,1,75,4|0
256,104,66746,2,0,B|352:104|352:104,1,75,0|0
296,168,67081,2,0,B|280:248|280:248,1,75
208,256,67416,1,0
208,32,67751,1,4
64,216,68087,5,4
64,328,68254,1,4
384,64,68589,1,8
272,64,68757,1,4
144,248,69092,6,0,B|142:254|158:174,1,75,0|0
193,110,69427,2,0,B|214:110|118:110,1,75
41,122,69762,2,0,B|86:182,1,75,0|0
144,248,70098,1,4
256,56,70433,1,8
368,248,70768,1,4
72,200,71438,5,0
152,72,71774,1,8
152,72,71941,1,0
280,152,72276,1,0
200,280,72612,1,0
200,280,72779,1,8
344,56,73114,5,4
344,208,73450,2,0,B|344:128,1,75,8|0
272,112,73785,2,0,B|216:56|216:56,1,75
176,120,74120,2,0,B|104:160,1,75,8|0
136,224,74455,2,0,B|184:280,1,75
256,200,74790,2,0,B|256:248|256:248,8,37.5,8|0|0|0|0|0|0|0|8
256,40,75796,5,0
256,104,76131,1,8
256,168,76466,1,0
331,72,76802,6,0,B|344:72|256:72,1,75,2|0
376,267,77472,6,0,B|376:280|376:184,1,75,0|0
181,312,78142,6,0,B|168:312|256:312,1,75,0|0
136,117,78813,6,0,B|136:104|136:192,1,75,0|2
288,184,79483,5,8
416,112,79818,2,0,B|420:159|352:141|356:143,1,75
400,208,80154,2,0,B|396:206|464:224|464:152,1,75,8|0
312,112,80489,1,0
88,104,80824,1,8
88,328,81159,1,0
312,328,81494,2,0,B|312:232|312:232,3,75,8|8|8|8
312,112,82165,5,8
160,112,82500,2,0,B|160:200|160:200,1,75
232,168,82835,2,0,B|304:192|304:192,1,75,8|0
312,112,83170,2,0,B|392:88|392:88,1,75
384,168,83506,1,8
240,336,83841,1,0
88,168,84176,1,8
272,40,84511,1,0
432,168,84846,6,0,B|408:224|344:208|344:208,1,75,8|0
304,240,85181,1,8
232,264,85349,1,0
160,296,85517,2,0,B|112:264|112:264,2,37.5,8|0|0
224,336,85852,1,8
296,368,86019,1,0
360,328,86187,1,8
368,104,86522,1,8
144,112,86857,2,0,B|144:232|144:232,1,112.5,8|4
256,112,87528,6,0,B|336:112|336:112,1,75,4|0
408,184,87863,2,0,B|328:184|328:184,1,75,0|0
256,256,88198,2,0,B|336:256|336:256,1,75,4|0
408,328,88533,2,0,B|320:328|320:328,1,75,0|0
320,224,88869,2,0,B|320:144|320:144,1,75,4|0
232,200,89204,2,0,B|232:288|232:288,1,75,4|0
136,232,89539,2,0,B|96:168,1,75,0|0
48,80,89874,6,8,B|112:80|112:80,2,37.5,0|0|0
176,296,90209,6,0,B|240:344|240:344,1,75,4|0
296,256,90545,2,0,B|300:259|236:211,1,75,0|0
336,176,90880,2,0,B|399:223|395:220,1,75,4|0
408,112,91215,2,0,B|412:115|348:67,1,75,0|0
296,160,91550,2,0,B|200:161,1,75,0|0
235,248,91885,2,0,B|248:248|320:248,1,75,0|0
408,256,92221,6,0,B|408:304|408:304,2,37.5,0|0|0
408,152,92556,2,0,B|408:88|408:88,2,37.5,0|0|0
312,192,92891,5,0
144,72,93226,1,0
88,120,93394,1,0
72,192,93561,2,0,B|128:216|160:176|160:176,1,75
192,248,93897,2,0,B|120:264|80:352|80:352,1,150,0|4
312,344,94567,1,0
312,120,94902,1,0
88,120,95237,1,4
304,56,95573,6,0,B|376:128|376:128,1,75,8|0
296,152,95908,2,0,B|208:152|208:152,1,75,8|0
256,216,96243,2,0,B|256:280|256:280,2,37.5,8|0|0
256,144,96578,2,0,B|256:80|256:80,2,37.5,8|0|0
152,296,96913,6,0,B|64:336|64:336,1,75,8|0
360,296,97249,2,0,B|448:336|448:336,1,75,8|0
256,192,97584,2,0,B|256:128|256:128,7,37.5,8|0|0|0|0|0|0|0
256,192,98254,1,4
440,88,98589,5,4
440,160,98757,1,0
440,232,98925,1,0
320,320,99260,2,0,B|160:320|160:320,1,150,0|4
152,96,99930,1,0
168,320,100265,1,0
232,280,100433,1,4
280,224,100600,1,0
336,176,100768,2,0,B|424:176|424:176,1,75,0|4
72,256,101271,5,0
136,216,101438,1,0
120,144,101606,1,0
248,64,101941,1,4
360,160,102276,2,0,B|344:256|448:280,2,150,0|0|4
296,120,103114,1,2
224,128,103282,1,0
176,184,103450,1,2
200,256,103617,5,4
424,256,103952,1,0
416,32,104288,1,4
192,32,104623,1,0
192,256,104958,1,0
264,256,105126,1,0
336,256,105293,1,4
368,112,105628,2,0,B|352:24|240:40|240:40,1,150,0|4
256,192,106299,6,0,B|256:240|256:240,2,37.5,2|0|0
232,48,106802,2,0,B|312:80|312:80,1,75,0|4
144,240,107472,2,0,B|96:304|96:304,1,75
144,240,107975,1,4
256,136,108310,6,0,B|256:80|256:80,6,37.5
256,136,108980,5,4
320,72,109148,1,0
400,104,109316,1,0
424,192,109483,1,0
392,272,109651,5,4
304,280,109818,1,0
240,216,109986,1,0
240,128,110154,1,0
264,320,110321,6,0,B|296:232|296:232,1,75,4|0
352,184,110656,2,0,B|424:136|424:136,1,75
376,64,110992,2,0,B|288:64|288:64,1,75,0|0
208,80,111327,2,0,B|152:136|152:136,1,75,0|4
128,216,111662,6,0,B|88:256|88:256,2,37.5,4|0|0
216,240,111997,2,0,B|216:296|216:296,2,37.5,8|0|0
304,216,112332,6,0,B|344:256|344:256,2,37.5,4|0|0
304,128,112668,2,0,B|352:104|352:104,2,37.5,8|0|0
208,112,113003,6,0,B|208:48|208:48,2,37.5,4|0|0
128,152,113338,2,0,B|48:120|48:120,1,75,8|4
48,216,113673,5,0
136,248,113841,1,0
224,232,114008,1,8
296,176,114176,1,4
384,208,114344,6,0,B|336:272|472:296|400:344|400:344,1,150,4|0
384,120,115014,1,0
160,120,115349,1,2
128,208,115684,6,0,B|176:272|40:296|112:344|112:344,1,150,4|0
128,120,116355,1,0
352,120,116690,1,2
256,304,117025,6,0,B|168:304|168:304,1,75,4|0
208,232,117360,2,0,B|208:144|208:144,1,75,4|0
272,192,117695,2,0,B|360:192|360:192,1,75,4|0
328,264,118031,2,8,B|328:352|328:352,1,75,4|0
256,192,118366,12,4,119707
