osu file format v9

[General]
AudioFilename: SigSig.mp3
AudioLeadIn: 0
PreviewTime: 76787
Countdown: 0
SampleSet: Soft
StackLeniency: 0.6
Mode: 0
LetterboxInBreaks: 1

[Editor]
DistanceSpacing: 2
BeatDivisor: 4
GridSize: 16

[Metadata]
Title:SigSig
Artist:kors k
Creator:DeeN
Version:Another
Source:beatmania IIDX
Tags:lzy MAYA kors k's daughters Sprosive a408746369

[Difficulty]
HPDrainRate:6
CircleSize:4
OverallDifficulty:7
ApproachRate:8
SliderMultiplier:1.5
SliderTickRate:0.5

[Events]
//Background and Video events
0,0,"BG.png"
//Break Periods
//Storyboard Layer 0 (Background)
//Storyboard Layer 1 (Fail)
//Storyboard Layer 2 (Pass)
//Storyboard Layer 3 (Foreground)
//Storyboard Sound Samples
//Background Colour Transformations
3,100,163,162,255

[TimingPoints]
9763,335.195530726257,4,1,0,66,1,0
11103,-100,4,2,0,81,0,0
12947,-100,4,1,0,66,0,0
13952,-100,4,2,0,80,0,0
14707,-100,4,1,0,66,0,0
15293,-100,4,2,0,82,0,0
16215,-100,4,1,0,66,0,0
16634,-100,4,2,0,83,0,0
17556,-100,4,1,0,66,0,0
21746,-100,4,1,0,51,0,0
76047,-200,4,1,0,76,0,0
77221,-100,4,1,0,68,0,0
98087,-100,4,2,0,100,0,0
107472,-100,4,2,0,24,0,0
107891,-100,4,2,0,49,0,0
108226,-100,4,2,0,75,0,0
108561,-100,4,2,0,100,0,0

[Colours]
Combo1 : 0,255,0
Combo2 : 0,0,255
Combo3 : 255,128,0
Combo4 : 255,255,0
SliderBorder : 0,0,0

[HitObjects]
256,192,9763,12,0,11103
256,48,11438,5,2
400,192,11774,1,0
256,336,12109,1,2
112,192,12444,1,0
256,336,12779,1,2
256,192,13114,1,0
256,176,13198,1,0
256,160,13282,1,0
256,144,13366,1,0
256,128,13450,1,0
336,64,13617,1,0
176,64,13785,1,4
64,192,14120,5,2
160,192,14288,2,0,L|240:192,2,75
240,320,14790,1,0
320,192,14958,1,0
240,64,15126,1,4
64,192,15461,5,2
128,112,15628,2,0,L|192:32,2,75
64,192,16131,1,2
160,192,16299,2,0,L|208:192,2,37.5,0|0|4
464,192,16802,5,2
383,152,16969,2,0,L|287:152,1,75
383,232,17304,2,0,L|303:232,1,75,0|2
240,64,17640,1,0
160,192,17807,1,0
240,320,17975,1,4
400,48,18980,5,4
256,48,19148,1,4
112,336,19651,5,4
256,336,19818,1,4
256,192,20321,5,0
352,208,20489,2,0,L|352:112,1,75
208,80,20824,2,0,L|288:80,1,75
160,240,21159,2,0,L|160:144,1,75
304,288,21494,2,0,L|208:288,1,75
256,192,21830,2,0,L|256:160,9,18.75,0|0|0|0|0|0|0|0|0|4
64,64,22500,1,0
448,64,22835,1,0
256,320,23170,5,0
256,48,23506,2,0,L|256:128,1,75,8|0
256,224,23841,2,0,L|256:304,1,75,0|0
336,256,24176,2,0,L|336:352,1,75,8|0
176,256,24511,2,0,L|176:352,1,75
400,208,24846,1,0
256,144,25014,1,0
112,208,25181,1,0
448,336,25517,6,0,L|384:272,2,75,8|0|0
64,48,26187,2,0,L|128:112,1,75,8|0
128,192,26522,1,0
224,192,26690,1,0
224,96,26857,1,8
224,192,27025,1,0
224,288,27193,2,0,L|304:288,1,75
384,288,27528,2,0,L|384:208,1,75,8|0
384,64,27863,1,0
240,64,28031,1,0
240,208,28198,1,8
96,208,28366,2,0,L|48:208,2,37.5,8|8|8
96,352,28701,5,0
176,304,28869,2,0,L|256:304,1,75,8|0
384,240,29204,2,0,L|288:240,1,75
176,176,29539,2,0,L|272:176,1,75,8|0
112,240,29874,2,0,L|16:240,1,75
176,304,30209,2,0,L|256:304,1,75,8|0
400,304,30545,1,0
48,304,30880,6,0,L|48:224,2,75,8|0|0
432,48,31550,2,0,L|432:144,1,75,8|0
432,208,31885,1,0
336,208,32053,1,0
336,112,32221,2,0,L|256:112,2,75,8|0|0
224,208,32723,1,0
224,352,32891,1,8
80,352,33059,1,0
80,208,33226,1,0
224,208,33394,1,0
224,64,33561,1,8
80,64,33729,1,8
80,64,33813,1,8
80,64,33897,1,0
448,320,34232,6,0,L|448:240,1,75,8|0
448,64,34567,2,0,L|448:160,1,75
352,192,34902,2,0,L|256:192,1,75,8|0
192,192,35237,2,0,L|96:192,1,75
32,192,35573,1,8
112,144,35740,1,0
192,192,35908,1,0
272,240,36075,1,0
352,192,36243,1,8
448,144,36411,1,0
432,48,36578,6,0,L|352:48,1,75
368,144,36913,2,0,L|288:144,1,75,8|0
320,240,37249,2,0,L|224:240,1,75
272,336,37584,2,0,L|192:336,1,75,8|0
48,336,37919,6,0,L|144:336,1,75
96,240,38254,2,0,L|176:240,1,75,8|0
144,144,38589,2,0,L|240:144,1,75
192,48,38925,2,0,L|288:48,2,75,8|8|0
256,192,39595,5,8
416,272,39930,1,0
464,192,40098,1,0
416,112,40265,1,8
176,80,40600,1,0
128,192,40768,1,0
176,304,40936,1,8
416,336,41271,1,0
448,192,41438,1,0
416,48,41606,1,8
256,112,41941,5,0
336,192,42109,1,0
256,272,42276,1,8
176,192,42444,1,0
256,64,42612,5,0
384,192,42779,1,0
256,320,42947,1,8
128,192,43114,1,0
256,192,43282,12,0,44288
416,192,44623,5,0
160,192,44958,2,0,L|80:192,1,75,8|0
112,272,45293,2,0,L|16:272,1,75
112,112,45628,2,0,L|32:112,2,75,8|0|0
256,48,46131,1,0
256,192,46299,1,8
256,336,46466,1,0
256,192,46634,1,2
0,192,46969,1,2
384,112,47304,6,0,L|384:16,1,75
384,192,47640,1,8
80,272,47975,2,0,L|80:352,1,75
80,192,48310,1,8
256,32,48645,6,0,L|256:128,1,75
256,192,48980,2,0,L|256:288,1,75,8|0
400,272,49316,1,2
256,352,49483,1,0
112,272,49651,1,2
256,192,49818,1,0
256,192,49902,1,0
256,192,49986,5,0
368,96,50154,2,0,L|448:32,1,75,0|8
368,288,50489,2,0,L|448:352,2,75
256,192,50992,1,8
144,288,51159,2,0,L|64:352,1,75
144,96,51494,2,0,L|64:32,2,75,0|8|0
32,192,51997,1,2
480,192,52332,1,2
112,192,52668,5,0
112,192,52835,1,2
256,32,53170,1,2
304,336,53506,1,2
352,32,53841,1,2
400,336,54176,1,2
448,32,54511,1,2
448,192,54679,5,0
432,192,54762,1,0
416,192,54846,1,0
400,192,54930,1,0
384,192,55014,1,0
368,192,55098,1,0
352,192,55181,1,0
336,192,55265,1,0
320,192,55349,1,0
112,192,55684,5,0
128,192,56355,1,0
144,192,57025,1,0
160,192,57695,1,0
416,304,58031,5,0
416,272,58198,1,0
416,240,58366,1,0
416,208,58533,1,0
304,96,58701,5,0
304,144,58869,1,0
304,192,59036,1,0
304,240,59204,1,0
176,320,59371,5,0
176,240,59539,1,0
176,160,59707,1,0
176,80,59874,1,0
32,48,60042,5,0
32,144,60209,1,0
32,240,60377,1,0
32,336,60545,1,4
176,192,60712,5,4
368,192,61047,2,2,L|368:96,1,75
368,272,61383,1,0
64,272,61718,2,2,L|64:96,2,150
352,192,62723,2,2,L|192:192,1,150
448,112,63394,6,0,L|448:272,1,150
320,192,63897,1,0
176,256,64064,1,0
32,192,64232,1,0
32,192,64316,1,0
32,192,64399,1,0
176,128,64567,1,0
320,192,64735,2,0,B|272:224|272:224|224:224|224:224|176:192|176:192|128:160|128:160|80:160|80:160|32:192,1,300,0|0
256,144,66075,5,0
368,80,66243,2,0,L|336:48|288:48,1,75,0|8
240,176,66578,2,0,L|272:208|320:208,1,75
384,96,66913,2,0,L|352:64|304:64,1,75,0|8
224,160,67249,2,0,L|256:192|304:192,1,75
400,112,67584,2,0,L|368:80|320:80,1,75,0|8
208,144,67919,2,0,L|240:176|288:176,1,75
272,48,68254,1,8
368,176,68422,1,0
272,304,68589,1,8
128,336,68757,6,0,L|128:176,1,150,0|8
256,192,69260,1,0
384,48,69427,2,0,L|384:208,1,150,0|8
112,304,70098,6,2,L|80:288|135:253,1,75
240,80,70433,6,2,L|256:48|291:103,1,75
398,266,70768,6,2,L|432:288|400:304,1,75
256,192,71103,5,0
256,192,71271,1,0
256,192,71438,1,4
256,192,72276,5,0
256,192,72612,1,0
256,192,72779,1,4
64,48,73952,5,4
64,192,74120,1,4
448,336,74623,5,4
448,192,74790,1,4
256,192,75293,5,0
176,96,75461,2,2,L|224:96|256:128,1,75
352,288,75796,2,2,L|304:288|272:256,1,75
256,192,76131,5,0
256,192,76215,1,0
256,192,76299,1,0
256,192,76383,1,0
256,192,76466,1,0
256,192,76550,1,0
256,192,76634,1,0
256,192,76718,1,0
256,192,76802,6,0,L|336:192,1,75,0|8
416,192,77304,1,0
416,288,77472,1,0
320,288,77640,1,0
224,288,77807,2,0,L|128:288,1,75,8|0
144,192,78142,1,0
96,112,78310,1,0
144,32,78478,1,8
192,112,78645,2,0,L|272:112,1,75
416,96,78980,1,8
480,272,79148,1,8
304,336,79316,1,8
336,208,79483,5,0
256,160,79651,2,0,L|176:112,2,75,0|8|0
336,208,80154,1,0
256,256,80321,2,0,L|176:320,2,75,0|8|0
336,208,80824,1,0
432,208,80992,2,0,L|512:208,2,75,0|8|0
336,208,81494,1,0
240,48,81662,1,8
160,208,81830,1,8
240,368,81997,1,8
256,192,82165,12,8,83170
256,192,83506,12,8,84511
256,192,84846,5,0
112,96,85181,1,8
80,176,85349,1,0
112,256,85517,1,8
352,288,85852,1,8
400,176,86019,1,0
352,64,86187,1,2
256,192,86522,5,2
256,192,86857,1,0
256,192,86941,1,0
256,192,87025,1,0
256,192,87109,1,0
256,192,87193,1,0
256,192,87276,1,0
256,192,87360,1,0
256,192,87444,1,0
256,192,87528,1,4
432,160,87863,6,0,L|432:80,1,75,8|0
432,240,88198,1,0
336,240,88366,2,0,L|336:336,1,75,0|8
336,160,88701,1,0
336,64,88869,2,0,L|240:64,1,75
112,96,89204,1,8
80,240,89371,1,0
208,304,89539,1,0
352,304,89707,1,8
384,160,89874,1,8
256,96,90042,1,8
112,96,90209,6,0,L|112:192,1,75
176,304,90545,2,0,L|176:224,1,75,8|0
256,96,90880,2,0,L|256:192,1,75
352,304,91215,2,0,L|352:224,1,75,8|0
128,192,91550,6,2,L|208:192,1,75
384,192,91885,2,2,L|288:192,2,75
336,80,92388,1,8
224,192,92556,1,8
336,304,92723,1,8
448,192,92891,5,0
352,192,93059,1,0
256,192,93226,1,8
160,192,93394,1,0
64,192,93561,1,0
112,112,93729,2,0,L|112:16,2,75,0|8|0
112,272,94232,2,0,L|112:352,2,75,0|0|8
160,192,94735,1,0
256,192,94902,6,0,L|336:192,1,75
304,272,95237,2,0,L|384:272,1,75,8|0
304,112,95573,2,2,L|384:112,2,75
304,272,96243,2,2,L|224:272,2,75
256,192,96913,12,0,97919
112,80,98254,6,0,L|112:176,1,75
208,128,98589,2,0,L|208:208,1,75,2|0
352,320,98925,2,0,L|352:240,1,75
448,288,99260,2,0,L|448:192,1,75,2|0
416,64,99595,6,0,L|320:64,1,75
352,160,99930,2,0,L|272:160,1,75,2|0
112,224,100265,2,0,L|208:224,1,75
48,320,100600,2,2,L|128:320,1,75
256,272,100936,5,0
352,192,101103,1,0
256,112,101271,1,2
160,192,101438,1,0
256,272,101606,5,0
336,192,101774,1,0
256,96,101941,1,2
176,192,102109,1,0
256,272,102276,5,0
320,176,102444,1,0
256,80,102612,1,2
192,176,102779,1,0
256,272,102947,5,2
288,160,103114,1,2
256,48,103282,1,2
224,160,103450,1,2
256,272,103617,6,0,L|256:352,2,75,0|0|2
256,112,104288,2,0,L|256:32,2,75,0|0|2
336,192,104958,2,0,L|416:192,2,75,0|0|2
176,192,105628,2,0,L|96:192,2,75,0|0|2
256,192,106299,12,0,107304
256,112,107640,6,0,L|256:64,2,37.5
176,192,107975,2,0,L|128:208,2,37.5
336,192,108310,2,0,L|384:224,2,37.5
256,272,108645,2,0,L|256:320,2,37.5
256,192,108980,5,0
256,48,109316,1,2
432,112,109651,1,0
432,208,109818,1,0
432,304,109986,1,2
288,208,110321,2,0,L|192:208,2,75,0|0|2
128,304,110992,1,0
128,208,111159,1,0
128,112,111327,1,2
288,208,111662,6,0,L|368:208,2,75,0|0|2
112,208,112332,2,0,L|32:208,2,75,0|0|2
224,144,113003,5,0
224,32,113170,1,0
336,32,113338,1,2
336,144,113506,1,0
288,112,113673,5,0
400,112,113841,1,0
400,224,114008,1,2
288,224,114176,1,2
144,256,114344,6,0,L|144:80,1,150
432,160,115014,2,0,L|432:320,1,150
224,96,115684,2,0,B|304:128|320:64|384:112,3,150
144,288,117025,5,2
368,112,117695,1,2
256,192,118366,12,4,119707
