osu file format v14

[General]
AudioFilename: Our_Faith.mp3
AudioLeadIn: 0
PreviewTime: -1
Countdown: 0
SampleSet: None
StackLeniency: 0.6
Mode: 0
LetterboxInBreaks: 1
WidescreenStoryboard: 0

[Editor]
Bookmarks: 7574,10317,11002,33631
DistanceSpacing: 0.7
BeatDivisor: 4
GridSize: 4
TimelineZoom: 1

[Metadata]
Title:Our Faith
TitleUnicode:Our Faith
Artist:kors k
ArtistUnicode:kors k
Creator:Kiiwa
Version:wa
Source:
Tags:
BeatmapID:733400
BeatmapSetID:331003

[Difficulty]
HPDrainRate:4
CircleSize:4.5
OverallDifficulty:8
ApproachRate:9.5
SliderMultiplier:1.6
SliderTickRate:1

[Events]
//Background and Video events
0,0,"bg.jpg",0,0
//Break Periods
//Storyboard Layer 0 (Background)
//Storyboard Layer 1 (Fail)
//Storyboard Layer 2 (Pass)
//Storyboard Layer 3 (Foreground)
//Storyboard Sound Samples

[TimingPoints]
717,342.857142857143,4,1,0,72,1,0
888,-100,4,1,0,54,0,0
10317,-200,4,1,0,54,0,0
10659,-100,4,1,0,54,0,0
11345,-50,4,1,0,54,0,0
11688,-100,4,1,0,66,0,1
21288,-200,4,1,0,66,0,1
22317,-100,4,1,0,66,0,1
22659,-100,4,2,0,66,0,0

[Colours]
Combo1 : 64,64,64
Combo2 : 241,248,5
Combo3 : 238,17,55
Combo4 : 29,237,237
Combo5 : 112,24,231
Combo6 : 215,215,215

[HitObjects]
26,297,716,69,4,0:0:0:0:
59,225,888,5,0,2:0:0:0:
122,175,1059,69,0,0:0:0:0:
200,157,1231,5,0,2:0:0:0:
278,175,1402,69,0,0:0:0:0:
341,224,1574,5,0,2:0:0:0:
377,295,1745,69,0,0:0:0:0:
376,376,1917,5,0,2:0:0:0:
155,361,2088,69,0,0:0:0:0:
126,287,2260,5,0,2:0:0:0:
130,208,2431,69,0,0:0:0:0:
157,134,2602,5,0,2:0:0:0:
215,80,2774,69,0,0:0:0:0:
292,64,2945,5,0,2:0:0:0:
369,82,3117,69,0,0:0:0:0:
426,134,3288,5,0,2:0:0:0:
455,366,3459,69,0,0:0:0:0:
377,380,3631,5,0,2:0:0:0:
301,358,3802,69,0,1:0:0:0:
246,300,3974,5,0,2:0:0:0:
223,225,4145,69,0,1:0:0:0:
168,167,4317,5,0,2:0:0:0:
92,145,4488,69,0,1:0:0:0:
14,159,4660,5,0,2:0:0:0:
71,364,4831,69,0,0:0:0:0:
148,370,5002,5,0,2:0:0:0:
223,348,5174,69,0,0:0:0:0:
279,293,5345,5,0,2:0:0:0:
306,219,5517,69,0,0:0:0:0:
308,140,5688,5,0,2:0:0:0:
295,62,5859,69,0,0:0:0:0:
244,1,6031,5,0,2:0:0:0:
492,189,6202,69,0,0:0:0:0:
499,274,6374,1,0,2:0:0:0:
314,165,6545,5,0,0:0:0:0:
321,250,6717,1,0,2:0:0:0:
479,26,6888,69,0,0:0:0:0:
486,111,7060,1,0,2:0:0:0:
301,2,7231,5,0,0:0:0:0:
308,87,7403,1,0,2:0:0:0:
71,82,7574,69,0,0:0:0:0:
31,256,7745,1,0,0:0:0:0:
51,168,7917,1,0,0:0:0:0:
11,342,8088,1,0,0:0:0:0:
218,370,8259,5,0,0:0:0:0:
395,308,8431,1,0,0:0:0:0:
313,358,8602,1,0,0:0:0:0:
441,223,8774,1,0,0:0:0:0:
412,61,8945,69,0,0:0:0:0:
389,38,9030,1,0,0:0:0:0:
361,24,9116,1,0,0:0:0:0:
329,23,9202,1,0,0:0:0:0:
299,33,9287,1,0,0:0:0:0:
274,54,9373,1,0,0:0:0:0:
260,82,9459,1,0,0:0:0:0:
256,113,9545,1,0,0:0:0:0:
252,145,9630,1,0,0:0:0:0:
237,173,9716,1,0,0:0:0:0:
213,194,9802,1,0,0:0:0:0:
183,204,9887,1,0,0:0:0:0:
151,202,9973,1,0,0:0:0:0:
122,189,10059,1,0,0:0:0:0:
100,166,10144,1,0,0:0:0:0:
170,115,10317,6,0,L|172:59,1,40,6|2,0:0|0:0,0:0:0:0:
175,6,10574,1,0,0:0:0:0:
100,166,10659,53,2,0:0:0:0:
25,179,10745,1,0,0:0:0:0:
75,239,10831,1,2,0:0:0:0:
0,252,10917,1,0,0:0:0:0:
170,357,11002,69,2,0:0:0:0:
257,367,11088,1,2,0:0:0:0:
340,340,11174,1,2,0:0:0:0:
389,266,11259,1,0,0:0:0:0:
389,177,11345,6,0,L|398:4,1,160,2|0,0:0|2:0,0:0:0:0:
496,67,11602,21,0,0:0:0:0:
356,93,11688,6,0,B|277:76|277:76|186:120,1,160,6|8,0:0|0:0,0:0:0:0:
120,22,12202,1,2,0:0:0:0:
124,65,12288,1,2,0:0:0:0:
54,127,12374,6,0,B|133:144|133:144|205:110,1,160,2|8,0:0|0:0,0:0:0:0:
8,293,12888,1,2,0:0:0:0:
60,206,13059,70,0,L|52:108,1,80,2|0,0:0|0:0,0:0:0:0:
198,30,13402,2,0,L|204:109,1,80,10|0,0:0|0:0,0:0:0:0:
156,373,13745,5,2,0:0:0:0:
156,373,14088,1,10,0:0:0:0:
156,373,14259,1,2,0:0:0:0:
431,368,14431,70,0,P|459:299|410:225,1,160,2|8,0:0|0:0,0:0:0:0:
512,166,14945,1,2,0:0:0:0:
479,165,15031,1,2,0:0:0:0:
430,91,15117,6,0,P|389:157|417:229,1,160,2|8,0:0|0:0,0:0:0:0:
235,35,15802,2,0,L|75:30,2,160,2|8|2,0:0|0:0|0:0,0:0:0:0:
198,107,16659,1,2,0:0:0:0:
50,139,16831,69,10,0:0:0:0:
13,211,17002,1,2,0:0:0:0:
137,352,17174,6,0,B|192:297|192:297|156:215,1,160,2|8,0:0|0:0,0:0:0:0:
386,329,17688,1,2,0:0:0:0:
362,326,17774,1,2,0:0:0:0:
324,253,17859,70,0,B|269:308|269:308|305:390,1,160,2|8,0:0|0:0,0:0:0:0:
485,179,18374,1,2,0:0:0:0:
328,165,18545,6,0,L|325:79,1,80,2|0,0:0|0:0,0:0:0:0:
325,85,18888,2,0,L|322:-1,1,80,10|0,0:0|0:0,0:0:0:0:
322,5,19231,69,2,0:0:0:0:
328,165,19402,1,10,0:0:0:0:
325,85,19574,5,2,0:0:0:0:
330,244,19745,1,10,0:0:0:0:
463,351,19917,69,2,0:0:0:0:
330,379,20088,1,0,0:0:0:0:
198,346,20259,1,8,0:0:0:0:
128,228,20431,2,0,L|140:159,2,40,2|2|2,0:0|0:0|0:0,0:0:0:0:
20,211,20774,5,0,0:0:0:0:
15,175,20859,1,0,0:0:0:0:
10,139,20945,2,0,L|1:70,1,40,10|0,0:0|0:0,0:0:0:0:
172,79,21117,70,0,P|173:99|168:119,1,40
48,30,21288,54,0,P|102:15|167:124,1,200,2|0,0:0|2:0,0:0:0:0:
168,119,22317,54,0,L|230:114,1,40
323,80,22488,6,0,L|384:74,1,40
437,98,22659,5,6,0:0:0:0:
445,181,23345,1,2,0:0:0:0:
454,264,24031,1,2,0:0:0:0:
372,244,24717,1,2,0:0:0:0:
290,225,25402,1,2,0:0:0:0:
56,246,26431,5,2,0:0:0:0:
41,324,26774,1,2,0:0:0:0:
369,42,27803,1,2,0:0:0:0:
354,120,27974,1,2,0:0:0:0:
437,98,28145,69,6,0:0:0:0:
445,181,28831,1,2,0:0:0:0:
454,264,29517,1,2,0:0:0:0:
372,244,30203,1,2,0:0:0:0:
290,225,30888,1,2,0:0:0:0:
135,145,31231,5,2,0:0:0:0:
57,167,31574,1,2,0:0:0:0:
57,167,32088,1,2,0:0:0:0:
106,321,32431,1,2,0:0:0:0:
28,343,32602,1,2,0:0:0:0:
256,192,32774,12,6,33631,0:0:0:0:
