osu file format v13

[General]
AudioFilename: Monkey Business [DDR 2013] Clean Audio.mp3
AudioLeadIn: 0
PreviewTime: -1
Countdown: 1
SampleSet: Normal
StackLeniency: 0.7
Mode: 0
LetterboxInBreaks: 1
WidescreenStoryboard: 0

[Editor]
Bookmarks: 13563,25563,37563,49563,61563,73563,79563,91563,103563
DistanceSpacing: 0.6
BeatDivisor: 4
GridSize: 4
TimelineZoom: 2.5

[Metadata]
Title:Monkey Business
TitleUnicode:Monkey Business
Artist:kors k
ArtistUnicode:kors k
Creator:Akali
Version:seXXXtra [AR 9,7]
Source:DDR 2013
Tags:
BeatmapID:462785
BeatmapSetID:194949

[Difficulty]
HPDrainRate:6
CircleSize:4.2
OverallDifficulty:7.5
ApproachRate:9.7
SliderMultiplier:3
SliderTickRate:1

[Events]
//Background and Video events
0,0,"lord_savior_gaben_by_zomerak-d7cddco.jpg",0,0
//Break Periods
//Storyboard Layer 0 (Background)
//Storyboard Layer 1 (Fail)
//Storyboard Layer 2 (Pass)
//Storyboard Layer 3 (Foreground)
//Storyboard Sound Samples
//Background Colour Transformations
3,100,163,162,255

[TimingPoints]
1563,375,4,1,0,100,1,0
2125,-133.333333333333,4,1,0,100,0,0
13563,-100,4,1,0,100,0,0
20688,-76.9230769230769,4,1,0,100,0,0
21063,-100,4,1,0,100,0,0
24063,-142.857142857143,4,1,0,100,0,0
24438,-117.647058823529,4,1,0,100,0,0
24813,-100,4,1,0,100,0,0
35688,-125,4,1,0,100,0,0
36063,-142.857142857143,4,1,0,100,0,0
36438,-166.666666666667,4,1,0,100,0,0
43563,-125,4,1,0,100,0,0
49188,-58.8235294117647,4,1,0,100,0,0
49563,-100,4,1,0,100,0,0
63063,-166.666666666667,4,1,0,100,0,0
63625,-100,4,1,0,100,0,0
66063,-76.9230769230769,4,1,0,100,0,0
67563,-100,4,1,0,100,0,0
74406,-166.666666666667,4,1,0,100,0,0
76563,-125,4,1,0,100,0,0
78906,-100,4,1,0,100,0,0
79563,-76.9230769230769,4,1,0,100,0,1
89969,-90.9090909090909,4,1,0,100,0,1
90250,-111.111111111111,4,1,0,100,0,1
90531,-142.857142857143,4,1,0,100,0,1
90813,-200,4,1,0,100,0,1
91375,-76.9230769230769,4,1,0,100,0,1
103563,-100,4,1,0,100,0,1
108250,-133.333333333333,4,1,0,100,0,1
109563,-100,4,1,0,100,0,1
111063,-76.9230769230769,4,1,0,100,0,1

[HitObjects]
115,97,1563,6,0,L|100:280,1,150,4|0,0:0|0:0,0:0:0:0:
150,120,2125,6,0,L|138:258,1,112.500004291535,4|0,0:0|0:0,0:0:0:0:
189,144,2688,5,4,0:0:0:0:
411,234,4000,5,2,0:0:0:0:
441,248,4094,1,0,0:0:0:0:
346,274,4188,1,2,0:0:0:0:
327,245,4281,1,0,0:0:0:0:
390,339,4375,5,4,0:0:0:0:
369,307,4750,5,4,0:0:0:0:
346,274,5313,5,4,0:0:0:0:
125,341,7000,6,0,B|78:378|78:378|-4:383,2,112.500004291535,0|0|0,0:0|0:0|0:0,0:0:0:0:
168,232,7563,6,0,L|158:82,1,112.500004291535,12|0,0:0|0:0,0:0:0:0:
352,222,7938,2,0,B|364:281|364:281|352:342,1,112.500004291535,8|0,0:0|0:0,0:0:0:0:
159,182,8313,6,0,L|226:47,1,112.500004291535,8|0,0:0|0:0,0:0:0:0:
324,265,8688,2,0,B|305:323|305:323|264:369,1,112.500004291535,8|0,0:0|0:0,0:0:0:0:
177,135,9063,6,0,L|302:52,1,112.500004291535,8|0,0:0|0:0,0:0:0:0:
278,290,9438,2,0,B|232:330|232:330|174:350,1,112.500004291535,8|0,0:0|0:0,0:0:0:0:
121,89,9813,1,8,0:0:0:0:
139,249,10000,5,2,0:0:0:0:
143,282,10094,1,0,0:0:0:0:
91,192,10188,1,0,0:0:0:0:
100,159,10282,1,8,0:0:0:0:
64,274,10375,1,2,0:0:0:0:
27,382,10563,5,8,0:0:0:0:
20,209,10750,1,8,0:0:0:0:
213,254,10938,1,8,0:0:0:0:
230,109,11125,1,8,0:0:0:0:
354,221,11313,5,8,0:0:0:0:
379,242,11407,1,0,0:0:0:0:
404,263,11500,1,0,0:0:0:0:
429,284,11594,1,0,0:0:0:0:
362,321,11688,5,8,0:0:0:0:
337,300,11782,1,0,0:0:0:0:
312,279,11875,1,0,0:0:0:0:
287,258,11969,1,0,0:0:0:0:
247,320,12063,5,0,0:0:0:0:
0,65,12813,6,0,L|129:45,1,112.500004291535
73,89,13094,1,0,0:0:0:0:
61,144,13188,1,0,0:0:0:0:
87,193,13281,1,0,0:0:0:0:
130,228,13375,1,0,0:0:0:0:
186,231,13469,1,0,0:0:0:0:
228,204,13563,6,0,B|250:280|250:280|235:366,1,150
453,149,13938,2,0,L|440:-24,1,150,8|0,0:0|0:0,0:0:0:0:
248,137,14313,1,0,0:0:0:0:
228,204,14406,2,0,B|200:276|200:276|123:302,1,150
60,325,14688,2,0,B|133:298|133:298|222:351,1,150,8|0,0:0|0:0,0:0:0:0:
268,65,15063,6,0,L|74:82,1,150
194,334,15438,2,0,L|388:351,1,150,8|0,0:0|0:0,0:0:0:0:
228,204,15813,1,0,0:0:0:0:
177,258,15906,1,0,0:0:0:0:
452,110,16094,1,0,0:0:0:0:
383,79,16188,2,0,B|361:124|405:172|405:172|405:254,1,150,8|0,0:0|0:0,0:0:0:0:
154,185,16563,6,0,B|91:226|91:226|59:339,1,150
250,276,16938,1,8,0:0:0:0:
130,116,17125,1,0,0:0:0:0:
197,329,17313,1,0,0:0:0:0:
268,348,17406,1,0,0:0:0:0:
321,295,17500,1,0,0:0:0:0:
342,144,17688,2,0,P|263:113|184:149,1,150,8|0,0:0|0:0,0:0:0:0:
388,220,18063,6,0,L|377:57,1,150
466,140,18344,1,0,0:0:0:0:
470,219,18438,2,0,B|472:261|428:290|428:290|476:377,1,150,8|0,0:0|0:0,0:0:0:0:
250,276,18813,1,0,0:0:0:0:
195,328,18907,1,2,0:0:0:0:
104,166,19094,1,0,0:0:0:0:
119,92,19188,1,8,0:0:0:0:
340,143,19375,1,0,0:0:0:0:
349,217,19469,1,0,0:0:0:0:
360,291,19563,6,0,L|236:390,1,150,4|0,0:0|0:0,0:0:0:0:
22,195,19938,2,0,L|53:15,1,150,8|0,0:0|0:0,0:0:0:0:
277,185,20313,2,0,B|317:190|317:190|381:156,1,75
173,47,20500,2,0,B|135:62|135:62|97:124,1,75
142,226,20688,6,0,B|166:266|213:251|213:251|226:227|281:216|306:231|322:304,1,194.999991073609,8|0,0:0|0:0,0:0:0:0:
196,353,21063,6,0,P|97:322|52:262,1,150
358,202,21438,2,0,B|380:275|380:275|372:375,1,150
209,203,21813,1,0,0:0:0:0:
165,142,21906,2,0,P|139:182|190:277,1,150
252,269,22188,2,0,P|208:336|136:334,1,150,8|0,0:0|0:0,0:0:0:0:
130,78,22563,6,0,L|333:94,1,150
55,71,22938,1,8,0:0:0:0:
354,98,23125,1,0,0:0:0:0:
159,275,23313,1,0,0:0:0:0:
122,208,23406,1,0,0:0:0:0:
87,141,23500,1,0,0:0:0:0:
291,149,23688,2,0,P|268:224|265:136,1,225
265,128,24063,6,0,L|416:110,1,104.999996795654
265,230,24438,6,0,L|431:208,1,127.50000243187
266,334,24813,6,0,L|459:306,1,150
154,112,25188,1,2,0:0:0:0:
96,159,25281,1,0,0:0:0:0:
88,233,25375,1,2,0:0:0:0:
121,300,25469,1,0,0:0:0:0:
183,341,25563,6,0,L|284:331,2,75,0|0|0,0:0|0:0|0:0,0:0:0:0:
168,184,25938,1,8,0:0:0:0:
236,213,26031,1,0,0:0:0:0:
309,198,26125,1,0,0:0:0:0:
354,138,26219,1,0,0:0:0:0:
343,63,26313,2,0,B|417:78|417:78|500:161,1,150
379,321,26688,2,0,L|368:247,1,75,8|0,0:0|0:0,0:0:0:0:
235,214,26875,2,0,L|223:288,1,75,8|0,0:0|0:0,0:0:0:0:
93,205,27063,5,0,0:0:0:0:
66,135,27156,1,0,0:0:0:0:
84,62,27250,1,0,0:0:0:0:
279,129,27438,1,0,0:0:0:0:
309,198,27531,1,0,0:0:0:0:
288,270,27625,2,0,P|232:297|202:277,1,75
334,75,27813,2,0,L|436:67,1,75
434,190,28000,1,0,0:0:0:0:
426,264,28094,1,0,0:0:0:0:
388,329,28188,2,0,B|325:368|325:368|224:370,1,150,8|0,0:0|0:0,0:0:0:0:
176,184,28563,6,0,L|188:87,2,75,0|0|0,0:0|0:0|0:0,0:0:0:0:
108,307,28938,1,0,0:0:0:0:
52,257,29031,1,0,0:0:0:0:
33,184,29125,1,0,0:0:0:0:
54,112,29219,1,0,0:0:0:0:
113,65,29313,2,0,B|188:57|188:57|282:93,1,150
328,247,29688,2,0,B|330:286|330:286|291:351,1,75
178,184,29875,2,0,B|186:145|186:145|240:93,1,75
373,188,30063,6,0,B|375:293|375:293|418:367,1,150
448,276,30344,1,0,0:0:0:0:
447,201,30438,2,0,L|446:113,1,75,8|0,0:0|0:0,0:0:0:0:
284,308,30625,2,0,L|306:384,1,75
237,186,30813,1,0,0:0:0:0:
216,114,30906,1,0,0:0:0:0:
84,265,31094,1,0,0:0:0:0:
157,283,31187,1,0,0:0:0:0:
216,113,31375,1,0,0:0:0:0:
150,73,31469,1,0,0:0:0:0:
75,83,31563,6,0,L|-7:138,2,75,4|0|0,0:0|0:0|0:0,0:0:0:0:
262,175,31938,1,8,0:0:0:0:
324,214,32031,1,0,0:0:0:0:
399,214,32125,1,0,0:0:0:0:
456,165,32219,1,0,0:0:0:0:
466,91,32313,2,0,B|496:163|496:163|489:284,1,150
314,326,32688,2,0,L|236:354,1,75
191,200,32875,2,0,L|262:175,1,75
42,235,33063,5,0,0:0:0:0:
2,297,33156,1,0,0:0:0:0:
9,371,33250,1,0,0:0:0:0:
190,201,33438,5,0,0:0:0:0:
230,139,33531,1,0,0:0:0:0:
223,65,33625,2,0,L|144:49,1,75
117,220,33813,2,0,B|120:260|120:260|159:317,1,75
300,169,34000,1,0,0:0:0:0:
292,94,34094,1,0,0:0:0:0:
284,22,34188,1,8,0:0:0:0:
321,326,34375,1,0,0:0:0:0:
300,169,34563,6,0,L|292:79,2,75,4|0|0,0:0|0:0|0:0,0:0:0:0:
132,333,34938,1,0,0:0:0:0:
122,258,35031,1,0,0:0:0:0:
112,183,35125,1,0,0:0:0:0:
103,108,35219,1,0,0:0:0:0:
96,33,35313,2,0,B|45:90|45:90|35:187,1,150
362,216,35688,6,0,B|402:261|402:261|410:339,1,120,8|0,0:0|0:0,0:0:0:0:
185,211,36063,6,0,L|208:82,1,104.999996795654
351,143,36438,6,0,L|340:39,1,89.9999972534181,0|0,0:0|0:0,0:0:0:0:
253,245,36813,5,2,0:0:0:0:
250,267,36906,1,0,0:0:0:0:
314,319,37000,1,2,0:0:0:0:
322,339,37093,1,0,0:0:0:0:
403,355,37188,1,2,0:0:0:0:
421,368,37281,1,0,0:0:0:0:
421,285,37375,1,2,0:0:0:0:
398,282,37468,1,0,0:0:0:0:
443,213,37563,6,0,P|459:160|445:101,1,89.9999972534181
136,346,37938,1,0,0:0:0:0:
444,196,38313,6,0,P|455:142|436:84,1,89.9999972534181
149,355,38688,1,0,0:0:0:0:
443,180,39063,6,0,P|450:125|426:69,1,89.9999972534181
164,364,39438,1,0,0:0:0:0:
442,163,39813,6,0,P|443:108|415:55,1,89.9999972534181
179,371,40188,1,0,0:0:0:0:
336,315,40563,6,0,L|465:337,1,89.9999972534181
94,152,40938,1,0,0:0:0:0:
155,299,41313,6,0,L|24:298,1,89.9999972534181
422,180,41688,1,0,0:0:0:0:
116,234,42063,6,0,L|3:168,1,89.9999972534181
406,265,42438,1,0,0:0:0:0:
314,327,42813,6,0,L|437:371,1,89.9999972534181
104,124,43188,1,0,0:0:0:0:
43,178,43563,6,0,B|23:233|23:233|34:255|29:301,1,120,4|0,0:0|0:0,0:0:0:0:
213,113,43938,1,0,0:0:0:0:
42,196,44313,6,0,B|27:253|27:253|40:274|39:320,1,120
288,86,44688,1,0,0:0:0:0:
43,215,45063,6,0,B|33:272|33:272|48:293|51:338,1,120
366,87,45438,1,0,0:0:0:0:
46,233,45813,6,0,B|41:291|41:291|58:311|64:356,1,120,8|0,0:0|0:0,0:0:0:0:
433,129,46188,1,0,0:0:0:0:
440,54,46375,1,8,0:0:0:0:
203,122,46750,5,0,0:0:0:0:
203,139,46844,1,0,0:0:0:0:
201,271,47125,5,0,0:0:0:0:
205,47,47313,1,0,0:0:0:0:
341,184,47594,5,0,0:0:0:0:
341,167,47688,1,0,0:0:0:0:
344,265,47875,1,0,0:0:0:0:
200,197,48063,2,0,L|211:141,1,30,8|0,0:0|0:0,0:0:0:0:
175,200,48156,2,0,L|156:146,1,30,8|0,0:0|0:0,0:0:0:0:
149,215,48250,2,0,L|118:168,1,30,8|0,0:0|0:0,0:0:0:0:
130,236,48344,2,0,L|87:199,1,30,8|0,0:0|0:0,0:0:0:0:
123,260,48438,2,0,L|237:304,1,120
43,182,48813,1,0,0:0:0:0:
40,152,48906,1,0,0:0:0:0:
37,121,49000,1,0,0:0:0:0:
173,151,49188,6,0,B|198:184|198:184|288:202|302:110|-60:72|249:249|308:234,1,255.000004863739,0|0,0:0|0:0,0:0:0:0:
345,285,49563,6,0,P|390:211|371:140,1,150,0|2,0:0|0:0,0:0:0:0:
345,134,49844,1,0,0:0:0:0:
307,137,49938,1,2,0:0:0:0:
322,103,50031,1,0,0:0:0:0:
350,79,50125,1,2,0:0:0:0:
388,72,50219,1,0,0:0:0:0:
422,88,50313,1,2,0:0:0:0:
402,120,50406,1,0,0:0:0:0:
401,157,50500,1,2,0:0:0:0:
419,189,50594,1,0,0:0:0:0:
451,208,50688,1,2,0:0:0:0:
429,238,50781,1,2,0:0:0:0:
420,274,50875,6,0,B|481:313|481:313|403:331|381:371,2,150,0|0|2,0:0|0:0|0:0,0:0:0:0:
383,265,51344,1,0,0:0:0:0:
346,272,51438,1,2,0:0:0:0:
334,236,51531,1,0,0:0:0:0:
305,211,51625,1,2,0:0:0:0:
268,205,51719,1,0,0:0:0:0:
234,220,51813,5,2,0:0:0:0:
212,250,51906,1,0,0:0:0:0:
159,187,52000,1,2,0:0:0:0:
153,149,52094,1,0,0:0:0:0:
102,250,52188,2,0,L|99:326,1,75,8|0,0:0|0:0,0:0:0:0:
224,151,52375,2,0,L|221:76,1,75
276,284,52563,6,0,B|277:318|240:334|240:334|285:335|285:335|273:347|273:347|378:349|358:243|358:243|355:218|355:218|332:231|332:231|353:217|353:217|354:186|339:153|300:133,1,450,0|2,0:0|0:0,0:0:0:0:
283,134,53219,1,0,0:0:0:0:
246,140,53313,1,0,0:0:0:0:
216,162,53406,1,0,0:0:0:0:
204,197,53500,2,0,L|212:267,2,50,0|0|0,0:0|0:0|0:0,0:0:0:0:
181,185,53688,2,0,B|106:172|106:172|86:206|38:215,1,150,0|0,0:0|0:0,0:0:0:0:
123,65,54063,6,0,B|61:53|61:53|70:105|26:142,1,150
284,289,54438,2,0,L|137:257,1,150
383,224,54813,1,0,0:0:0:0:
377,93,55000,2,0,L|436:106,1,37.5,2|0,0:0|0:0,0:0:0:0:
375,55,55094,2,0,L|425:67,1,37.5
374,15,55188,2,0,L|424:27,6,37.5,8|0|0|0|0|0|0,0:0|0:0|0:0|0:0|0:0|0:0|0:0,0:0:0:0:
306,39,55563,6,0,L|310:124,1,75
231,89,55750,1,0,0:0:0:0:
193,90,55844,1,0,0:0:0:0:
225,168,55938,1,0,0:0:0:0:
250,195,56031,1,0,0:0:0:0:
179,228,56125,1,0,0:0:0:0:
141,233,56219,1,0,0:0:0:0:
208,293,56313,2,0,P|261:304|317:260,1,75
161,102,56500,2,0,P|117:134|114:205,1,75
305,146,56688,1,8,0:0:0:0:
309,109,56781,1,0,0:0:0:0:
313,71,56875,2,0,B|379:109|379:109|394:206,1,150,0|0,0:0|0:0,0:0:0:0:
220,259,57250,6,0,L|202:314,1,37.5,2|0,0:0|0:0,0:0:0:0:
208,251,57344,2,0,L|181:302,1,37.5,0|0,0:0|0:0,0:0:0:0:
199,242,57438,2,0,L|163:288,1,37.5,0|0,0:0|0:0,0:0:0:0:
191,232,57532,2,0,L|148:270,1,37.5,0|0,0:0|0:0,0:0:0:0:
185,220,57625,2,0,L|136:250,1,37.5,0|0,0:0|0:0,0:0:0:0:
181,207,57719,2,0,L|127:229,1,37.5,0|0,0:0|0:0,0:0:0:0:
178,193,57813,2,0,L|79:207,1,75
312,171,58000,2,0,L|410:156,1,75
395,252,58188,2,0,B|269:330|269:330|143:298,1,225
157,300,58563,5,0,0:0:0:0:
409,180,58750,1,0,0:0:0:0:
445,202,58844,2,0,P|468:253|459:280,1,75,8|0,0:0|0:0,0:0:0:0:
241,147,59125,1,8,0:0:0:0:
460,127,59313,1,0,0:0:0:0:
176,113,59594,5,0,0:0:0:0:
201,85,59688,1,8,0:0:0:0:
225,275,59875,1,0,0:0:0:0:
89,202,60063,2,0,L|58:235,1,37.5,8|0,0:0|0:0,0:0:0:0:
80,237,60156,2,0,L|49:270,1,37.5
72,272,60250,2,0,L|41:305,1,37.5
61,311,60343,2,0,L|30:344,1,37.5
52,348,60438,6,0,B|122:323|122:323|193:349,1,150
406,284,60813,1,8,0:0:0:0:
410,320,60906,1,0,0:0:0:0:
416,358,61000,1,8,0:0:0:0:
278,222,61188,1,0,0:0:0:0:
245,203,61281,1,0,0:0:0:0:
207,204,61375,1,0,0:0:0:0:
174,222,61469,1,0,0:0:0:0:
159,256,61563,6,0,B|167:179|167:179|136:78,1,150,0|2,0:0|0:0,0:0:0:0:
108,105,61844,1,0,0:0:0:0:
74,121,61938,1,2,0:0:0:0:
54,89,62031,1,0,0:0:0:0:
57,54,62125,1,2,0:0:0:0:
81,25,62219,1,0,0:0:0:0:
116,13,62313,1,2,0:0:0:0:
147,32,62406,1,0,0:0:0:0:
179,51,62500,2,0,P|240:62|281:33,1,75,4|0,0:0|0:0,0:0:0:0:
253,160,62688,2,0,P|311:139|332:93,1,75,12|0,0:0|0:0,0:0:0:0:
371,217,62875,2,0,P|411:169|406:119,1,75,4|0,0:0|0:0,0:0:0:0:
258,273,63063,6,0,L|250:344,1,44.999998626709
356,290,63250,2,0,L|344:231,1,44.999998626709
157,298,63438,2,0,L|169:357,1,44.999998626709,8|0,0:0|0:0,0:0:0:0:
185,196,63625,1,0,0:0:0:0:
127,147,63719,1,0,0:0:0:0:
70,98,63813,1,8,0:0:0:0:
343,149,64000,1,0,0:0:0:0:
370,219,64094,1,0,0:0:0:0:
356,293,64188,2,0,L|288:326,1,75
278,118,64375,2,0,L|301:22,1,75
185,196,64563,6,0,B|167:226|94:231|94:231|135:244|161:289,1,150
155,289,64844,1,0,0:0:0:0:
138,322,64938,2,0,B|171:323|194:293|194:293|230:300|226:375,2,150,2|0|0,0:0|0:0|0:0,0:0:0:0:
220,179,65500,2,0,L|217:107,2,50,2|0|0,0:0|0:0|0:0,0:0:0:0:
222,213,65688,2,0,L|227:379,1,150,8|0,0:0|0:0,0:0:0:0:
359,289,66063,6,2,B|336:228|336:228|396:257|435:237|415:110,1,194.999991073609
327,53,66438,2,2,B|286:25|286:25|285:48|270:84|244:106|201:103|134:47,1,194.999991073609
70,165,66813,2,2,B|105:210|156:210|156:210|98:244|121:300,1,194.999991073609
129,308,67047,2,0,L|191:348,2,48.7499977684022,0|0|0,0:0|0:0|0:0,0:0:0:0:
192,315,67188,2,0,B|205:298|188:278|188:278|272:233|223:137|152:128|152:128|149:63,1,292.499986610413,8|0,0:0|0:0,0:0:0:0:
149,54,67563,5,0,0:0:0:0:
69,164,67750,1,2,0:0:0:0:
48,195,67844,1,0,0:0:0:0:
140,217,67938,1,2,0:0:0:0:
141,179,68031,1,0,0:0:0:0:
82,264,68125,1,2,0:0:0:0:
113,285,68219,1,0,0:0:0:0:
184,277,68313,2,0,L|192:326,6,37.5,2|0|0|0|0|0|0,0:0|0:0|0:0|0:0|0:0|0:0|0:0,0:0:0:0:
223,206,68688,2,0,P|222:151|193:109,1,75,8|0,0:0|0:0,0:0:0:0:
22,216,68875,2,0,P|5:269|28:319,1,75,2|0,0:0|0:0,0:0:0:0:
143,140,69063,6,0,L|145:56,1,75
183,278,69250,2,0,L|154:336,1,37.5,2|0,0:0|0:0,0:0:0:0:
225,286,69344,2,0,L|226:340,1,37.5
266,273,69438,2,0,L|293:323,1,37.5,2|0,0:0|0:0,0:0:0:0:
296,237,69531,2,0,L|332:261,1,37.5
303,199,69625,2,0,L|293:262,1,37.5,2|0,0:0|0:0,0:0:0:0:
341,184,69719,2,0,L|356:236,1,37.5
384,188,69813,2,0,B|397:264|397:264|381:340,1,150,2|0,0:0|0:0,0:0:0:0:
319,369,70094,1,0,0:0:0:0:
312,372,70188,1,8,0:0:0:0:
220,211,70375,5,0,0:0:0:0:
219,173,70469,1,0,0:0:0:0:
218,135,70563,1,0,0:0:0:0:
441,236,70750,1,0,0:0:0:0:
433,272,70844,1,8,0:0:0:0:
471,104,71125,5,0,0:0:0:0:
416,344,71313,1,8,0:0:0:0:
221,251,71594,1,0,0:0:0:0:
220,213,71688,1,8,0:0:0:0:
224,360,71875,1,0,0:0:0:0:
88,213,72063,6,0,L|35:194,1,37.5,8|0,0:0|0:0,0:0:0:0:
86,183,72156,2,0,L|38:155,1,37.5
90,154,72250,2,0,L|47:118,1,37.5,8|0,0:0|0:0,0:0:0:0:
100,126,72343,2,0,L|63:83,1,37.5
123,101,72438,2,0,B|78:42|78:42|160:39,1,150,8|0,0:0|0:0,0:0:0:0:
302,33,72813,2,0,L|358:32,2,37.5,0|0|0,0:0|0:0|0:0,0:0:0:0:
260,35,73000,1,0,0:0:0:0:
220,213,73188,1,8,0:0:0:0:
255,251,73281,1,0,0:0:0:0:
306,260,73375,2,0,L|310:300,3,37.5,8|0|0|0,0:0|0:0|0:0|0:0,0:0:0:0:
313,329,73563,5,4,0:0:0:0:
302,170,73750,1,2,0:0:0:0:
300,139,73844,1,0,0:0:0:0:
376,289,74031,1,0,0:0:0:0:
389,315,74125,1,2,0:0:0:0:
445,195,74313,1,2,0:0:0:0:
461,170,74406,2,0,L|464:54,1,89.9999972534181
485,59,74688,1,2,0:0:0:0:
80,151,75063,6,0,P|66:224|90:266,1,89.9999972534181,2|0,0:0|0:0,0:0:0:0:
193,251,75344,2,0,P|207:178|183:136,1,89.9999972534181,2|0,0:0|0:0,0:0:0:0:
80,147,75625,2,0,P|65:220|88:263,1,89.9999972534181,2|0,0:0|0:0,0:0:0:0:
191,249,75906,2,0,P|207:177|183:134,1,89.9999972534181,2|0,0:0|0:0,0:0:0:0:
134,202,76188,1,8,0:0:0:0:
342,138,76563,6,0,B|401:149|401:149|465:234,1,120,2|0,0:0|0:0,0:0:0:0:
370,302,76844,2,0,B|311:291|311:291|247:206,1,120,2|0,0:0|0:0,0:0:0:0:
342,138,77125,2,0,L|494:169,1,120,2|0,0:0|0:0,0:0:0:0:
370,302,77406,2,0,L|218:271,1,120,2|0,0:0|0:0,0:0:0:0:
224,114,77688,2,0,L|376:145,1,120,2|0,0:0|0:0,0:0:0:0:
151,244,78063,6,0,P|143:150|188:94,1,120
342,136,78344,2,0,P|358:192|343:250,1,120
150,242,78625,2,0,P|143:148|189:92,1,120
219,94,78906,1,0,0:0:0:0:
292,78,79000,1,0,0:0:0:0:
276,5,79094,1,0,0:0:0:0:
203,20,79188,6,0,B|217:92|217:92|267:115|276:154|277:183|278:220|248:271,1,225,0|0,0:0|0:0,0:0:0:0:
243,291,79563,5,0,0:0:0:0:
44,251,79750,1,2,0:0:0:0:
44,173,79844,2,0,B|93:177|108:199|108:199|102:164|102:164|106:125|106:125|154:94,1,194.999991073609
217,64,80125,1,2,0:0:0:0:
284,253,80312,1,0,0:0:0:0:
210,229,80406,1,2,0:0:0:0:
210,151,80500,1,0,0:0:0:0:
284,126,80593,1,0,0:0:0:0:
330,190,80688,2,0,B|356:230|356:230|353:291,1,97.4999955368044
417,135,80875,2,0,L|399:28,1,97.4999955368044
438,267,81063,6,0,P|417:340|296:342,1,194.999991073609
217,319,81344,2,0,B|180:322|159:316|134:275|134:275|103:304|67:308|44:286,1,194.999991073609
80,227,81625,1,0,0:0:0:0:
349,117,81813,1,0,0:0:0:0:
375,190,81906,1,2,0:0:0:0:
356,266,82000,1,0,0:0:0:0:
295,315,82094,1,0,0:0:0:0:
217,319,82188,2,0,L|196:195,1,97.4999955368044,8|0,0:0|0:0,0:0:0:0:
435,148,82375,2,0,L|418:244,1,97.4999955368044,0|0,0:0|0:0,0:0:0:0:
300,180,82563,6,0,B|276:88|276:88|296:-20,1,194.999991073609,2|0,0:0|0:0,0:0:0:0:
451,52,82844,2,0,L|416:256,1,194.999991073609,2|0,0:0|0:0,0:0:0:0:
403,320,83125,1,2,0:0:0:0:
148,288,83313,1,0,0:0:0:0:
137,211,83406,2,0,B|125:115|125:115|168:104|192:77|188:27,1,194.999991073609
103,35,83688,2,0,P|48:74|52:160,1,97.4999955368044,8|0,0:0|0:0,0:0:0:0:
216,234,83875,2,0,L|203:137,1,97.4999955368044
79,260,84063,6,0,P|80:330|203:339,1,194.999991073609,2|0,0:0|0:0,0:0:0:0:
255,384,84344,2,0,P|254:314|131:305,1,194.999991073609,2|0,0:0|0:0,0:0:0:0:
296,258,84625,2,0,B|316:158|316:158|290:55,1,194.999991073609
215,71,84906,1,2,0:0:0:0:
237,145,85000,1,0,0:0:0:0:
314,160,85094,1,0,0:0:0:0:
363,99,85188,2,0,L|386:-3,1,97.4999955368044,8|0,0:0|0:0,0:0:0:0:
449,245,85375,2,0,L|470:340,1,97.4999955368044
322,338,85563,6,0,B|254:335|254:335|238:358|222:374|188:387|151:378|98:313,1,194.999991073609,4|0,0:0|0:0,0:0:0:0:
190,301,85844,1,0,0:0:0:0:
314,160,86031,1,2,0:0:0:0:
363,220,86125,1,0,0:0:0:0:
85,139,86313,2,0,L|96:25,1,97.4999955368044
235,145,86500,2,0,B|243:195|243:195|224:259,1,97.4999955368044
77,233,86688,2,0,B|86:138|86:138|25:109|49:28,1,194.999991073609,8|0,0:0|0:0,0:0:0:0:
120,68,86969,1,0,0:0:0:0:
162,133,87063,6,0,B|154:224|154:224|101:242|86:292|101:347,1,194.999991073609
177,299,87344,2,0,B|212:291|228:258|228:258|244:49,1,194.999991073609
317,126,87625,2,0,L|300:352,1,194.999991073609
378,300,87906,1,0,0:0:0:0:
385,221,88000,1,0,0:0:0:0:
392,143,88094,1,0,0:0:0:0:
399,65,88188,1,8,0:0:0:0:
371,381,88375,1,0,0:0:0:0:
196,225,88563,6,0,B|183:127|183:127|103:42,1,194.999991073609
29,104,88844,2,0,B|42:202|42:202|122:287,1,194.999991073609,2|0,0:0|0:0,0:0:0:0:
196,225,89125,2,0,L|165:18,1,194.999991073609
109,151,89406,2,0,L|140:358,1,194.999991073609
207,302,89688,2,0,B|221:380|221:380|271:360|271:360|368:359,1,194.999991073609
446,283,89969,6,0,L|276:283,1,165.000005035401,2|0,0:0|0:0,0:0:0:0:
299,208,90250,6,0,L|434:208,1,134.999995880127,2|0,0:0|0:0,0:0:0:0:
419,132,90531,6,0,L|297:132,1,104.999996795654,2|0,0:0|0:0,0:0:0:0:
329,54,90813,6,0,L|427:55,1,75,2|0,0:0|0:0,0:0:0:0:
434,54,91094,1,0,0:0:0:0:
464,54,91188,1,0,0:0:0:0:
176,51,91375,5,0,0:0:0:0:
97,51,91469,1,0,0:0:0:0:
41,106,91563,6,0,B|61:169|41:219|41:219|81:212|102:235|143:301,1,194.999991073609,0|0,0:0|0:0,0:0:0:0:
47,292,91844,1,2,0:0:0:0:
217,134,92031,1,0,0:0:0:0:
274,186,92125,2,0,B|315:233|314:291|314:291|168:295,1,194.999991073609,0|0,0:0|0:0,0:0:0:0:
184,221,92406,2,0,P|303:185|403:230,1,194.999991073609,2|0,0:0|0:0,0:0:0:0:
429,291,92688,2,0,L|234:293,1,194.999991073609,8|0,0:0|0:0,0:0:0:0:
311,44,93063,6,0,B|408:43|408:43|518:105,1,194.999991073609
472,170,93344,2,0,B|375:171|375:171|265:109,1,194.999991073609,2|0,0:0|0:0,0:0:0:0:
234,67,93625,1,0,0:0:0:0:
326,235,93813,1,0,0:0:0:0:
301,308,93906,2,0,P|259:353|156:289,1,194.999991073609,2|0,0:0|0:0,0:0:0:0:
143,221,94188,2,0,L|128:110,1,97.4999955368044,8|0,0:0|0:0,0:0:0:0:
323,236,94375,2,0,L|309:332,1,97.4999955368044
242,179,94563,6,0,B|250:80|250:80|364:-32,1,194.999991073609
398,71,94844,2,0,P|270:104|215:33,1,194.999991073609,2|0,0:0|0:0,0:0:0:0:
191,4,95125,1,2,0:0:0:0:
442,138,95313,1,8,0:0:0:0:
453,214,95406,1,2,0:0:0:0:
421,285,95500,1,0,0:0:0:0:
360,334,95594,1,2,0:0:0:0:
282,343,95688,2,0,P|209:315|63:366,1,194.999991073609,8|0,0:0|0:0,0:0:0:0:
421,285,96063,6,0,L|399:69,1,194.999991073609
392,13,96344,1,0,0:0:0:0:
72,78,96531,1,0,0:0:0:0:
64,155,96625,2,0,B|55:266|55:266|97:237|185:235,1,194.999991073609,2|0,0:0|0:0,0:0:0:0:
211,235,96906,2,0,B|268:241|300:260|300:260|361:251|369:169,1,194.999991073609,2|0,0:0|0:0,0:0:0:0:
370,116,97188,2,0,P|358:65|304:22,1,97.4999955368044,8|0,0:0|0:0,0:0:0:0:
133,239,97375,2,0,L|126:341,1,97.4999955368044,2|0,0:0|0:0,0:0:0:0:
291,311,97563,6,0,B|281:201|281:201|317:159|264:54,1,194.999991073609,4|0,0:0|0:0,0:0:0:0:
218,150,97844,1,2,0:0:0:0:
140,162,97938,1,8,0:0:0:0:
293,310,98125,1,0,0:0:0:0:
369,325,98219,1,2,0:0:0:0:
445,343,98313,2,0,B|455:295|431:253|404:251|404:251|447:199|443:105,1,194.999991073609
260,80,98688,6,0,P|77:123|71:179,2,194.999991073609,0|0|0,0:0|0:0|0:0,0:0:0:0:
293,149,99156,1,0,0:0:0:0:
276,225,99250,1,0,0:0:0:0:
220,280,99344,2,0,B|159:301|159:301|92:273|28:276|50:372|121:382|119:210,1,292.499986610413,2|0,0:0|0:0,0:0:0:0:
76,26,99813,1,0,0:0:0:0:
0,46,99906,1,2,0:0:0:0:
20,121,100000,1,0,0:0:0:0:
96,101,100094,1,0,0:0:0:0:
153,47,100188,2,0,B|244:34|244:34|397:109,1,194.999991073609,8|0,0:0|0:0,0:0:0:0:
410,304,100563,5,8,0:0:0:0:
335,325,100656,1,0,0:0:0:0:
261,351,100750,2,0,L|237:235,1,97.4999955368044
317,147,100938,5,8,0:0:0:0:
394,133,101031,1,0,0:0:0:0:
470,114,101125,2,0,L|484:232,1,97.4999955368044
313,234,101313,5,8,3:0:0:0:
239,207,101406,1,0,3:0:0:0:
164,186,101500,2,0,L|211:77,1,97.4999955368044,0|0,0:0|0:0,3:0:0:0:
327,51,101688,5,8,3:0:0:0:
398,84,101781,1,0,3:0:0:0:
471,112,101875,2,0,L|415:216,1,97.4999955368044,0|0,0:0|0:0,3:0:0:0:
244,304,102063,6,0,L|236:164,1,97.4999955368044,8|0,0:0|0:0,0:0:0:0:
228,16,102250,2,0,L|236:156,1,97.4999955368044,8|0,0:0|0:0,0:0:0:0:
384,216,102438,2,0,L|344:108,1,97.4999955368044
72,228,102625,2,0,L|64:328,1,97.4999955368044,8|0,0:0|0:0,0:0:0:0:
244,304,102813,6,0,L|304:360,1,48.7499977684022,8|0,0:0|0:0,0:0:0:0:
264,232,102906,2,0,L|343:250,1,48.7499977684022,8|0,0:0|0:0,0:0:0:0:
254,159,103000,2,0,L|332:135,1,48.7499977684022,8|0,0:0|0:0,0:0:0:0:
216,98,103094,2,0,L|272:38,1,48.7499977684022,8|0,0:0|0:0,0:0:0:0:
153,61,103188,1,0,0:0:0:0:
153,61,103563,6,0,P|238:120|257:168,1,150,0|2,0:0|0:0,0:0:0:0:
260,197,103844,1,0,0:0:0:0:
261,234,103938,1,8,0:0:0:0:
224,229,104031,5,0,0:0:0:0:
186,233,104125,1,2,0:0:0:0:
156,256,104219,1,0,0:0:0:0:
139,289,104313,5,2,0:0:0:0:
127,253,104406,1,0,0:0:0:0:
114,217,104500,1,2,0:0:0:0:
101,181,104594,1,0,0:0:0:0:
90,145,104688,5,8,0:0:0:0:
48,187,104781,1,0,0:0:0:0:
40,246,104875,2,0,L|66:340,1,75,2|0,0:0|0:0,0:0:0:0:
266,344,105063,6,0,L|257:174,1,150,2|0,0:0|0:0,0:0:0:0:
291,212,105344,1,0,0:0:0:0:
326,223,105438,1,8,0:0:0:0:
363,220,105531,1,0,0:0:0:0:
396,205,105625,1,2,0:0:0:0:
420,176,105719,1,0,0:0:0:0:
432,140,105813,5,2,0:0:0:0:
410,71,105906,5,0,0:0:0:0:
332,48,106000,6,0,L|244:69,1,75
213,212,106188,2,0,L|391:223,1,150
437,226,106469,1,0,0:0:0:0:
395,288,106563,6,0,B|339:289|299:351|299:351|305:321|211:316,1,150,0|0,0:0|0:0,0:0:0:0:
248,314,106844,1,0,0:0:0:0:
212,325,106938,6,0,B|193:363|193:363|158:340,1,75,2|0,0:0|0:0,0:0:0:0:
107,193,107125,6,0,B|72:156|72:156|50:216,1,75,2|0,0:0|0:0,0:0:0:0:
342,180,107313,6,0,B|338:226|338:226|386:209,1,75,2|0,0:0|0:0,0:0:0:0:
154,104,107500,6,0,L|160:4,1,75,2|0,0:0|0:0,0:0:0:0:
132,275,107688,5,0,0:0:0:0:
180,332,107781,1,0,0:0:0:0:
252,353,107875,2,0,L|374:339,1,75,2|0,0:0|0:0,0:0:0:0:
270,200,108063,5,0,0:0:0:0:
44,275,108250,6,0,B|36:317|36:317|75:318|75:318|80:352|80:352|115:383,2,112.500004291535,0|0|0,0:0|0:0|0:0,0:0:0:0:
44,275,109000,6,0,B|36:317|36:317|75:318|75:318|80:352|80:352|115:383,1,112.500004291535,0|0,0:0|0:0,0:0:0:0:
78,138,109375,2,0,L|94:74,1,56.2500021457673,2|0,0:0|0:0,0:0:0:0:
193,64,109563,6,0,L|151:241,1,150
487,180,109938,2,0,B|478:105|478:105|411:16,1,150
41,276,110313,2,0,P|108:335|199:331,1,150
239,324,110594,1,0,0:0:0:0:
311,304,110688,2,0,B|386:288|386:288|499:326,1,150
290,34,111063,6,0,L|18:44,1,194.999991073609
240,323,111438,6,0,L|-32:333,1,194.999991073609
376,260,111813,2,0,P|424:326|413:356,1,97.4999955368044,2|0,0:0|0:0,0:0:0:0:
349,330,112000,1,2,0:0:0:0:
299,277,112094,1,0,0:0:0:0:
319,205,112188,2,0,L|352:97,1,97.4999955368044,2|0,0:0|0:0,0:0:0:0:
6,242,112375,2,0,L|34:335,1,97.4999955368044,2|0,0:0|0:0,0:0:0:0:
117,92,112563,5,0,0:0:0:0:
130,220,112750,1,8,0:0:0:0:
136,278,112844,1,8,0:0:0:0:
295,38,113125,5,0,0:0:0:0:
295,38,113313,1,0,0:0:0:0:
345,306,113594,5,8,0:0:0:0:
286,309,113688,1,8,0:0:0:0:
463,300,113875,1,0,0:0:0:0:
279,136,114063,6,0,L|280:204,1,48.7499977684022,8|0,0:0|0:0,0:0:0:0:
240,154,114156,2,0,L|241:222,1,48.7499977684022,8|0,0:0|0:0,0:0:0:0:
205,169,114250,2,0,L|206:237,1,48.7499977684022,8|0,0:0|0:0,0:0:0:0:
166,187,114343,2,0,L|167:255,1,48.7499977684022,8|0,0:0|0:0,0:0:0:0:
166,35,114625,5,0,0:0:0:0:
166,306,114906,5,8,0:0:0:0:
168,364,115000,1,8,0:0:0:0:
256,192,115188,12,0,115375,0:0:0:0:
