osu file format v13

[General]
AudioFilename: 18.Kailua.mp3
AudioLeadIn: 0
PreviewTime: -1
Countdown: 0
SampleSet: Normal
StackLeniency: 0.7
Mode: 3
LetterboxInBreaks: 0
SpecialStyle: 1
WidescreenStoryboard: 1

[Editor]
DistanceSpacing: 1
BeatDivisor: 4
GridSize: 4
TimelineZoom: 1.800009

[Metadata]
Title:Kailua
TitleUnicode:Kailua
Artist:kors k
ArtistUnicode:kors k
Creator:Akihiro
Version:7K Lv.2
Source:beatmaniaIIDX
Tags:resort anthem bemani
BeatmapID:462813
BeatmapSetID:194692

[Difficulty]
HPDrainRate:4
CircleSize:7
OverallDifficulty:9.5
ApproachRate:5
SliderMultiplier:1.4
SliderTickRate:1

[Events]
//Background and Video events
//Break Periods
//Storyboard Layer 0 (Background)
//Storyboard Layer 1 (Fail)
//Storyboard Layer 2 (Pass)
//Storyboard Layer 3 (Foreground)
//Storyboard Sound Samples
//Background Colour Transformations
3,100,163,162,255

[TimingPoints]
2006.69488845477,410.958904109589,4,1,0,20,1,0

[Colours]
Combo1 : 5,5,240
Combo2 : 5,240,5

[HitObjects]
475,192,2006,5,0,0:0:0:0:
329,192,2623,1,0,0:0:0:0:
182,192,3239,1,0,0:0:0:0:
36,192,5294,1,0,0:0:0:0:
329,192,5910,1,0,0:0:0:0:
182,192,6527,1,0,0:0:0:0:
109,192,8582,1,0,0:0:0:0:
256,192,9198,1,0,0:0:0:0:
402,192,9814,1,0,0:0:0:0:
109,192,11869,1,0,0:0:0:0:
256,192,12486,1,0,0:0:0:0:
402,192,13102,1,0,0:0:0:0:
182,192,15157,1,0,0:0:0:0:
329,192,15157,1,0,0:0:0:0:
256,192,15568,1,0,0:0:0:0:
256,192,16390,1,0,0:0:0:0:
109,192,16801,128,0,17212:0:0:0:0:
402,192,17212,1,0,0:0:0:0:
256,192,18034,1,0,0:0:0:0:
475,192,18650,1,0,0:0:0:0:
256,192,18856,1,0,0:0:0:0:
36,192,19266,1,0,0:0:0:0:
256,192,19677,1,0,0:0:0:0:
475,192,19986,1,0,0:0:0:0:
256,192,20499,1,0,0:0:0:0:
256,192,21321,1,0,0:0:0:0:
109,192,21732,128,0,23376:0:0:0:0:
402,192,23376,128,0,24609:0:0:0:0:
36,192,25020,1,0,0:0:0:0:
256,192,25431,1,0,0:0:0:0:
475,192,25739,1,0,0:0:0:0:
256,192,26253,1,0,0:0:0:0:
36,192,26664,128,0,28308:0:0:0:0:
475,192,27075,1,0,0:0:0:0:
475,192,27897,1,0,0:0:0:0:
256,192,28308,1,0,0:0:0:0:
475,192,28719,1,0,0:0:0:0:
475,192,29540,1,0,0:0:0:0:
36,192,30362,1,0,0:0:0:0:
36,192,31184,1,0,0:0:0:0:
36,192,31801,1,0,0:0:0:0:
256,192,32006,1,0,0:0:0:0:
475,192,32314,1,0,0:0:0:0:
256,192,32725,1,0,0:0:0:0:
36,192,33034,128,0,34883:0:0:0:0:
256,192,33650,1,0,0:0:0:0:
256,192,34472,1,0,0:0:0:0:
475,192,34883,1,0,0:0:0:0:
329,192,35294,1,0,0:0:0:0:
475,192,35705,1,0,0:0:0:0:
329,192,36116,1,0,0:0:0:0:
36,192,36527,1,0,0:0:0:0:
182,192,36938,1,0,0:0:0:0:
36,192,37349,1,0,0:0:0:0:
182,192,37760,1,0,0:0:0:0:
36,192,38171,1,0,0:0:0:0:
475,192,38171,1,0,0:0:0:0:
402,192,38992,1,0,0:0:0:0:
109,192,38992,1,0,0:0:0:0:
36,192,39814,1,0,0:0:0:0:
475,192,40020,128,0,40534:0:0:0:0:
256,192,41047,128,0,41458:0:0:0:0:
36,192,41458,1,0,0:0:0:0:
475,192,41458,1,0,0:0:0:0:
329,192,42075,1,0,0:0:0:0:
182,192,42691,1,0,0:0:0:0:
36,192,44746,1,0,0:0:0:0:
329,192,45362,1,0,0:0:0:0:
182,192,45979,1,0,0:0:0:0:
109,192,48034,1,0,0:0:0:0:
256,192,48650,1,0,0:0:0:0:
402,192,49266,1,0,0:0:0:0:
109,192,51321,1,0,0:0:0:0:
256,192,51938,1,0,0:0:0:0:
402,192,52554,1,0,0:0:0:0:
329,192,53787,1,0,0:0:0:0:
182,192,54198,1,0,0:0:0:0:
256,192,54609,1,0,0:0:0:0:
402,192,55225,1,0,0:0:0:0:
109,192,55842,1,0,0:0:0:0:
256,192,57897,1,0,0:0:0:0:
402,192,58513,1,0,0:0:0:0:
475,192,59129,1,0,0:0:0:0:
329,192,60362,1,0,0:0:0:0:
182,192,60773,1,0,0:0:0:0:
256,192,61184,1,0,0:0:0:0:
36,192,61801,1,0,0:0:0:0:
256,192,63856,1,0,0:0:0:0:
475,192,64266,1,0,0:0:0:0:
109,192,64472,128,0,67349:0:0:0:0:
475,192,67760,128,0,68376:0:0:0:0:
329,192,68376,128,0,68992:0:0:0:0:
182,192,68992,128,0,71047:0:0:0:0:
36,192,71047,128,0,71664:0:0:0:0:
329,192,71664,128,0,72280:0:0:0:0:
182,192,72280,128,0,74335:0:0:0:0:
109,192,74335,128,0,74951:0:0:0:0:
256,192,74951,128,0,75568:0:0:0:0:
402,192,75568,128,0,77623:0:0:0:0:
109,192,77623,128,0,78239:0:0:0:0:
256,192,78239,128,0,78856:0:0:0:0:
402,192,78856,128,0,80910:0:0:0:0:
182,192,80088,1,0,0:0:0:0:
36,192,80499,1,0,0:0:0:0:
256,192,80910,128,0,81527:0:0:0:0:
475,192,81527,128,0,82143:0:0:0:0:
109,192,82143,128,0,83992:0:0:0:0:
256,192,84198,128,0,84814:0:0:0:0:
329,192,84814,128,0,85431:0:0:0:0:
475,192,85431,128,0,87486:0:0:0:0:
256,192,86664,1,0,0:0:0:0:
109,192,87075,1,0,0:0:0:0:
329,192,87486,128,0,88102:0:0:0:0:
36,192,88102,128,0,90773:0:0:0:0:
329,192,90157,128,0,90568:0:0:0:0:
402,192,90568,128,0,94061:0:0:0:0:
256,192,91184,1,0,0:0:0:0:
256,192,92006,1,0,0:0:0:0:
256,192,92828,1,0,0:0:0:0:
256,192,93650,1,0,0:0:0:0:
36,192,94061,1,0,0:0:0:0:
256,192,94472,1,0,0:0:0:0:
475,192,94883,1,0,0:0:0:0:
475,192,95088,1,0,0:0:0:0:
329,192,95294,1,0,0:0:0:0:
402,192,95705,1,0,0:0:0:0:
256,192,96116,1,0,0:0:0:0:
109,192,96527,1,0,0:0:0:0:
109,192,96732,1,0,0:0:0:0:
182,192,96938,1,0,0:0:0:0:
475,192,97349,1,0,0:0:0:0:
256,192,97760,1,0,0:0:0:0:
36,192,98171,1,0,0:0:0:0:
36,192,98376,1,0,0:0:0:0:
182,192,98479,1,0,0:0:0:0:
109,192,98992,1,0,0:0:0:0:
256,192,99403,1,0,0:0:0:0:
402,192,99814,1,0,0:0:0:0:
329,192,100225,1,0,0:0:0:0:
256,192,100636,128,0,107212:0:0:0:0:
329,192,101047,1,0,0:0:0:0:
182,192,101869,1,0,0:0:0:0:
329,192,102691,1,0,0:0:0:0:
182,192,103513,1,0,0:0:0:0:
36,192,107212,1,0,0:0:0:0:
475,192,107212,1,0,0:0:0:0:
