osu file format v13

[General]
AudioFilename: 18.Kailua.mp3
AudioLeadIn: 0
PreviewTime: -1
Countdown: 0
SampleSet: None
StackLeniency: 0.7
Mode: 3
LetterboxInBreaks: 0
SpecialStyle: 1
WidescreenStoryboard: 1

[Editor]
DistanceSpacing: 1
BeatDivisor: 4
GridSize: 4
TimelineZoom: 1.800009

[Metadata]
Title:Kailua
TitleUnicode:Kailua
Artist:kors k
ArtistUnicode:kors k
Creator:Akihiro
Version:7K Lv.10
Source:beatmaniaIIDX
Tags:resort anthem bemani
BeatmapID:463980
BeatmapSetID:194692

[Difficulty]
HPDrainRate:7
CircleSize:7
OverallDifficulty:9.5
ApproachRate:5
SliderMultiplier:1.4
SliderTickRate:1

[Events]
//Background and Video events
//Break Periods
//Storyboard Layer 0 (Background)
//Storyboard Layer 1 (Fail)
//Storyboard Layer 2 (Pass)
//Storyboard Layer 3 (Foreground)
//Storyboard Sound Samples
//Background Colour Transformations
3,100,163,162,255

[TimingPoints]
2006.69488845477,410.958904109589,4,1,0,20,1,0

[Colours]
Combo1 : 5,5,240
Combo2 : 5,240,5

[HitObjects]
36,192,2006,5,0,0:0:0:0:
475,192,2006,128,0,2623:0:0:0:0:
182,192,2006,1,0,0:0:0:0:
256,192,2623,128,0,3239:0:0:0:0:
109,192,3239,128,0,5294:0:0:0:0:
36,192,5294,128,0,5910:0:0:0:0:
402,192,5910,128,0,6527:0:0:0:0:
329,192,6527,128,0,8582:0:0:0:0:
109,192,8582,128,0,9198:0:0:0:0:
256,192,9198,128,0,9814:0:0:0:0:
402,192,9814,128,0,11869:0:0:0:0:
36,192,9814,1,0,0:0:0:0:
36,192,10636,1,0,0:0:0:0:
36,192,11458,1,0,0:0:0:0:
109,192,11869,128,0,12486:0:0:0:0:
182,192,12075,1,0,0:0:0:0:
475,192,12280,1,0,0:0:0:0:
256,192,12486,128,0,13102:0:0:0:0:
402,192,12486,1,0,0:0:0:0:
329,192,12897,1,0,0:0:0:0:
36,192,13102,1,0,0:0:0:0:
402,192,13102,128,0,14746:0:0:0:0:
109,192,13308,1,0,0:0:0:0:
256,192,13719,1,0,0:0:0:0:
329,192,13924,1,0,0:0:0:0:
36,192,14129,1,0,0:0:0:0:
329,192,14335,1,0,0:0:0:0:
182,192,14438,1,0,0:0:0:0:
329,192,14540,1,0,0:0:0:0:
182,192,14643,1,0,0:0:0:0:
329,192,14746,1,0,0:0:0:0:
36,192,15157,1,0,0:0:0:0:
475,192,15157,1,0,0:0:0:0:
256,192,15568,1,0,0:0:0:0:
402,192,15568,1,0,0:0:0:0:
36,192,15979,1,0,0:0:0:0:
256,192,16390,1,0,0:0:0:0:
402,192,16390,1,0,0:0:0:0:
109,192,16801,1,0,0:0:0:0:
256,192,16903,1,0,0:0:0:0:
182,192,17006,1,0,0:0:0:0:
329,192,17109,1,0,0:0:0:0:
402,192,17212,1,0,0:0:0:0:
36,192,17212,1,0,0:0:0:0:
182,192,17520,1,0,0:0:0:0:
329,192,17623,1,0,0:0:0:0:
256,192,18034,1,0,0:0:0:0:
402,192,18034,1,0,0:0:0:0:
182,192,18445,1,0,0:0:0:0:
402,192,18650,1,0,0:0:0:0:
402,192,18856,1,0,0:0:0:0:
256,192,18856,1,0,0:0:0:0:
109,192,18958,1,0,0:0:0:0:
182,192,19164,1,0,0:0:0:0:
329,192,19266,1,0,0:0:0:0:
256,192,19575,1,0,0:0:0:0:
475,192,19575,1,0,0:0:0:0:
182,192,19883,128,0,21321:0:0:0:0:
256,192,20499,1,0,0:0:0:0:
402,192,20499,1,0,0:0:0:0:
256,192,21321,1,0,0:0:0:0:
402,192,21321,1,0,0:0:0:0:
36,192,21732,1,0,0:0:0:0:
109,192,21732,128,0,23376:0:0:0:0:
402,192,22143,1,0,0:0:0:0:
36,192,22143,1,0,0:0:0:0:
36,192,22554,1,0,0:0:0:0:
402,192,22965,1,0,0:0:0:0:
36,192,22965,1,0,0:0:0:0:
475,192,23376,1,0,0:0:0:0:
402,192,23376,128,0,25020:0:0:0:0:
182,192,23787,1,0,0:0:0:0:
475,192,23787,1,0,0:0:0:0:
475,192,24198,1,0,0:0:0:0:
182,192,24609,1,0,0:0:0:0:
475,192,24609,1,0,0:0:0:0:
36,192,25020,1,0,0:0:0:0:
475,192,25431,1,0,0:0:0:0:
182,192,25431,1,0,0:0:0:0:
182,192,25739,1,0,0:0:0:0:
475,192,26253,1,0,0:0:0:0:
109,192,26253,1,0,0:0:0:0:
36,192,26664,128,0,28308:0:0:0:0:
475,192,27075,1,0,0:0:0:0:
329,192,27075,1,0,0:0:0:0:
475,192,27897,1,0,0:0:0:0:
329,192,27897,1,0,0:0:0:0:
256,192,28308,1,0,0:0:0:0:
329,192,28410,1,0,0:0:0:0:
402,192,28616,1,0,0:0:0:0:
475,192,28719,1,0,0:0:0:0:
402,192,28924,1,0,0:0:0:0:
329,192,29027,1,0,0:0:0:0:
109,192,29232,1,0,0:0:0:0:
182,192,29335,1,0,0:0:0:0:
329,192,29540,1,0,0:0:0:0:
475,192,29746,1,0,0:0:0:0:
36,192,29951,1,0,0:0:0:0:
109,192,30054,1,0,0:0:0:0:
329,192,30260,1,0,0:0:0:0:
256,192,30362,1,0,0:0:0:0:
109,192,30568,1,0,0:0:0:0:
36,192,30671,1,0,0:0:0:0:
182,192,30876,1,0,0:0:0:0:
256,192,30979,1,0,0:0:0:0:
109,192,31184,1,0,0:0:0:0:
402,192,31390,1,0,0:0:0:0:
182,192,31492,1,0,0:0:0:0:
402,192,31595,1,0,0:0:0:0:
329,192,31698,1,0,0:0:0:0:
36,192,31903,1,0,0:0:0:0:
109,192,32006,1,0,0:0:0:0:
256,192,32212,1,0,0:0:0:0:
329,192,32314,1,0,0:0:0:0:
402,192,32520,1,0,0:0:0:0:
182,192,32623,1,0,0:0:0:0:
329,192,32828,1,0,0:0:0:0:
182,192,33034,1,0,0:0:0:0:
475,192,33239,1,0,0:0:0:0:
402,192,33342,1,0,0:0:0:0:
256,192,33547,1,0,0:0:0:0:
182,192,33650,1,0,0:0:0:0:
36,192,33856,1,0,0:0:0:0:
109,192,33958,1,0,0:0:0:0:
256,192,34164,1,0,0:0:0:0:
329,192,34266,1,0,0:0:0:0:
475,192,34472,1,0,0:0:0:0:
256,192,34677,1,0,0:0:0:0:
329,192,34780,1,0,0:0:0:0:
36,192,34883,1,0,0:0:0:0:
475,192,34883,1,0,0:0:0:0:
256,192,34986,1,0,0:0:0:0:
109,192,35191,1,0,0:0:0:0:
329,192,35294,1,0,0:0:0:0:
475,192,35499,1,0,0:0:0:0:
402,192,35602,1,0,0:0:0:0:
109,192,35808,1,0,0:0:0:0:
36,192,35910,1,0,0:0:0:0:
182,192,36116,1,0,0:0:0:0:
329,192,36321,1,0,0:0:0:0:
36,192,36527,1,0,0:0:0:0:
475,192,36527,1,0,0:0:0:0:
402,192,36629,1,0,0:0:0:0:
182,192,36835,1,0,0:0:0:0:
109,192,36938,1,0,0:0:0:0:
182,192,37143,1,0,0:0:0:0:
256,192,37246,1,0,0:0:0:0:
402,192,37451,1,0,0:0:0:0:
475,192,37554,1,0,0:0:0:0:
329,192,37760,1,0,0:0:0:0:
256,192,37965,1,0,0:0:0:0:
36,192,38171,1,0,0:0:0:0:
475,192,38171,1,0,0:0:0:0:
329,192,38582,1,0,0:0:0:0:
182,192,38684,1,0,0:0:0:0:
329,192,38787,1,0,0:0:0:0:
182,192,38890,1,0,0:0:0:0:
402,192,38992,1,0,0:0:0:0:
109,192,38992,1,0,0:0:0:0:
182,192,39403,1,0,0:0:0:0:
329,192,39506,1,0,0:0:0:0:
182,192,39609,1,0,0:0:0:0:
329,192,39712,1,0,0:0:0:0:
36,192,39814,1,0,0:0:0:0:
475,192,39814,1,0,0:0:0:0:
475,192,40020,128,0,40534:0:0:0:0:
329,192,40225,1,0,0:0:0:0:
182,192,40328,1,0,0:0:0:0:
329,192,40431,1,0,0:0:0:0:
182,192,40534,1,0,0:0:0:0:
36,192,40534,1,0,0:0:0:0:
109,192,41047,1,0,0:0:0:0:
182,192,41047,1,0,0:0:0:0:
329,192,41150,1,0,0:0:0:0:
402,192,41150,1,0,0:0:0:0:
182,192,41253,1,0,0:0:0:0:
109,192,41253,1,0,0:0:0:0:
402,192,41356,1,0,0:0:0:0:
329,192,41356,1,0,0:0:0:0:
36,192,41458,1,0,0:0:0:0:
475,192,41458,128,0,42075:0:0:0:0:
329,192,42075,128,0,42691:0:0:0:0:
182,192,42691,128,0,44746:0:0:0:0:
109,192,44746,128,0,45362:0:0:0:0:
475,192,45362,128,0,45979:0:0:0:0:
256,192,45979,128,0,48034:0:0:0:0:
36,192,48034,128,0,48650:0:0:0:0:
109,192,48650,128,0,49266:0:0:0:0:
402,192,49266,128,0,51321:0:0:0:0:
36,192,51321,128,0,51938:0:0:0:0:
109,192,51938,128,0,52554:0:0:0:0:
402,192,52554,128,0,54609:0:0:0:0:
329,192,53787,128,0,53992:0:0:0:0:
256,192,53992,128,0,54198:0:0:0:0:
182,192,54198,128,0,54403:0:0:0:0:
109,192,54403,128,0,54609:0:0:0:0:
329,192,54609,128,0,55225:0:0:0:0:
182,192,54814,1,0,0:0:0:0:
475,192,55225,128,0,55842:0:0:0:0:
182,192,55225,1,0,0:0:0:0:
256,192,55636,1,0,0:0:0:0:
109,192,55842,128,0,57691:0:0:0:0:
256,192,56047,1,0,0:0:0:0:
329,192,56458,1,0,0:0:0:0:
329,192,56869,1,0,0:0:0:0:
402,192,57280,1,0,0:0:0:0:
182,192,57691,128,0,57897:0:0:0:0:
402,192,57691,1,0,0:0:0:0:
329,192,57897,128,0,58513:0:0:0:0:
475,192,58102,1,0,0:0:0:0:
402,192,58513,128,0,59129:0:0:0:0:
475,192,58513,1,0,0:0:0:0:
36,192,58924,1,0,0:0:0:0:
475,192,59129,128,0,61184:0:0:0:0:
36,192,59335,1,0,0:0:0:0:
109,192,59746,1,0,0:0:0:0:
109,192,60157,1,0,0:0:0:0:
329,192,60362,128,0,60568:0:0:0:0:
256,192,60568,128,0,60773:0:0:0:0:
36,192,60568,1,0,0:0:0:0:
182,192,60773,128,0,60979:0:0:0:0:
109,192,60979,128,0,61184:0:0:0:0:
402,192,60979,1,0,0:0:0:0:
256,192,61184,128,0,61801:0:0:0:0:
402,192,61390,1,0,0:0:0:0:
36,192,61801,128,0,64472:0:0:0:0:
329,192,61801,1,0,0:0:0:0:
256,192,62212,1,0,0:0:0:0:
182,192,62623,1,0,0:0:0:0:
329,192,63034,1,0,0:0:0:0:
402,192,63445,1,0,0:0:0:0:
182,192,63856,128,0,64266:0:0:0:0:
329,192,63856,128,0,64266:0:0:0:0:
475,192,63856,1,0,0:0:0:0:
256,192,64266,128,0,67349:0:0:0:0:
402,192,64266,128,0,67349:0:0:0:0:
109,192,64472,128,0,67349:0:0:0:0:
475,192,67760,128,0,68376:0:0:0:0:
36,192,67760,1,0,0:0:0:0:
109,192,67965,1,0,0:0:0:0:
256,192,68171,1,0,0:0:0:0:
329,192,68376,128,0,68992:0:0:0:0:
109,192,68376,1,0,0:0:0:0:
36,192,68582,1,0,0:0:0:0:
109,192,68787,1,0,0:0:0:0:
182,192,68992,128,0,71047:0:0:0:0:
256,192,68992,1,0,0:0:0:0:
475,192,69198,1,0,0:0:0:0:
36,192,69403,1,0,0:0:0:0:
402,192,69609,1,0,0:0:0:0:
256,192,69814,1,0,0:0:0:0:
109,192,70020,1,0,0:0:0:0:
36,192,70225,1,0,0:0:0:0:
402,192,70431,1,0,0:0:0:0:
256,192,70636,1,0,0:0:0:0:
109,192,70842,1,0,0:0:0:0:
475,192,71047,1,0,0:0:0:0:
329,192,71047,128,0,71664:0:0:0:0:
109,192,71253,1,0,0:0:0:0:
256,192,71458,1,0,0:0:0:0:
402,192,71664,128,0,72280:0:0:0:0:
109,192,71664,1,0,0:0:0:0:
475,192,71869,1,0,0:0:0:0:
182,192,72075,1,0,0:0:0:0:
256,192,72280,1,0,0:0:0:0:
109,192,72280,128,0,74335:0:0:0:0:
329,192,72486,1,0,0:0:0:0:
475,192,72691,1,0,0:0:0:0:
329,192,72897,1,0,0:0:0:0:
256,192,73102,1,0,0:0:0:0:
402,192,73308,1,0,0:0:0:0:
475,192,73513,1,0,0:0:0:0:
329,192,73719,1,0,0:0:0:0:
256,192,73924,1,0,0:0:0:0:
329,192,74129,1,0,0:0:0:0:
36,192,74335,1,0,0:0:0:0:
182,192,74335,128,0,74951:0:0:0:0:
402,192,74540,1,0,0:0:0:0:
256,192,74746,1,0,0:0:0:0:
329,192,74951,128,0,75568:0:0:0:0:
475,192,74951,1,0,0:0:0:0:
36,192,75157,1,0,0:0:0:0:
402,192,75362,1,0,0:0:0:0:
256,192,75568,1,0,0:0:0:0:
475,192,75568,128,0,77623:0:0:0:0:
182,192,75773,1,0,0:0:0:0:
36,192,75979,1,0,0:0:0:0:
329,192,76184,1,0,0:0:0:0:
256,192,76390,1,0,0:0:0:0:
109,192,76595,1,0,0:0:0:0:
36,192,76801,1,0,0:0:0:0:
182,192,77006,1,0,0:0:0:0:
256,192,77212,1,0,0:0:0:0:
109,192,77417,1,0,0:0:0:0:
182,192,77623,128,0,78239:0:0:0:0:
36,192,77623,1,0,0:0:0:0:
329,192,77828,1,0,0:0:0:0:
256,192,78034,1,0,0:0:0:0:
329,192,78239,128,0,78856:0:0:0:0:
402,192,78239,1,0,0:0:0:0:
36,192,78445,1,0,0:0:0:0:
109,192,78650,1,0,0:0:0:0:
475,192,78856,128,0,80910:0:0:0:0:
256,192,78856,1,0,0:0:0:0:
182,192,79061,1,0,0:0:0:0:
36,192,79266,1,0,0:0:0:0:
402,192,79472,1,0,0:0:0:0:
256,192,79677,1,0,0:0:0:0:
182,192,79883,1,0,0:0:0:0:
36,192,80088,1,0,0:0:0:0:
329,192,80088,128,0,80294:0:0:0:0:
256,192,80294,128,0,80499:0:0:0:0:
109,192,80294,1,0,0:0:0:0:
182,192,80499,128,0,80705:0:0:0:0:
109,192,80705,128,0,80910:0:0:0:0:
329,192,80705,1,0,0:0:0:0:
182,192,80910,1,0,0:0:0:0:
329,192,80910,128,0,81527:0:0:0:0:
182,192,81116,1,0,0:0:0:0:
36,192,81321,1,0,0:0:0:0:
402,192,81527,128,0,82143:0:0:0:0:
109,192,81527,1,0,0:0:0:0:
182,192,81732,1,0,0:0:0:0:
256,192,81938,1,0,0:0:0:0:
36,192,82143,1,0,0:0:0:0:
109,192,82143,128,0,83992:0:0:0:0:
182,192,82349,1,0,0:0:0:0:
329,192,82554,1,0,0:0:0:0:
256,192,82760,1,0,0:0:0:0:
475,192,82965,1,0,0:0:0:0:
182,192,83171,1,0,0:0:0:0:
329,192,83376,1,0,0:0:0:0:
402,192,83582,1,0,0:0:0:0:
475,192,83787,1,0,0:0:0:0:
182,192,83992,128,0,84198:0:0:0:0:
402,192,83992,1,0,0:0:0:0:
256,192,84198,128,0,84814:0:0:0:0:
36,192,84198,1,0,0:0:0:0:
402,192,84403,1,0,0:0:0:0:
109,192,84609,1,0,0:0:0:0:
329,192,84814,128,0,85431:0:0:0:0:
182,192,84814,1,0,0:0:0:0:
36,192,85020,1,0,0:0:0:0:
256,192,85225,1,0,0:0:0:0:
475,192,85431,128,0,87486:0:0:0:0:
109,192,85431,1,0,0:0:0:0:
256,192,85636,1,0,0:0:0:0:
36,192,85842,1,0,0:0:0:0:
329,192,86047,1,0,0:0:0:0:
109,192,86253,1,0,0:0:0:0:
182,192,86458,1,0,0:0:0:0:
329,192,86664,128,0,86869:0:0:0:0:
36,192,86664,1,0,0:0:0:0:
256,192,86869,128,0,87075:0:0:0:0:
109,192,86869,1,0,0:0:0:0:
182,192,87075,128,0,87280:0:0:0:0:
109,192,87280,128,0,87486:0:0:0:0:
402,192,87280,1,0,0:0:0:0:
256,192,87486,1,0,0:0:0:0:
329,192,87486,128,0,88102:0:0:0:0:
36,192,87691,1,0,0:0:0:0:
475,192,87897,1,0,0:0:0:0:
36,192,88102,128,0,90773:0:0:0:0:
182,192,88102,1,0,0:0:0:0:
256,192,88308,1,0,0:0:0:0:
329,192,88513,1,0,0:0:0:0:
475,192,88719,1,0,0:0:0:0:
329,192,88924,1,0,0:0:0:0:
256,192,89129,1,0,0:0:0:0:
402,192,89335,1,0,0:0:0:0:
109,192,89540,1,0,0:0:0:0:
475,192,89746,1,0,0:0:0:0:
475,192,89951,1,0,0:0:0:0:
182,192,90157,128,0,90568:0:0:0:0:
329,192,90157,128,0,90568:0:0:0:0:
256,192,90568,128,0,93650:0:0:0:0:
402,192,90568,128,0,93650:0:0:0:0:
109,192,90773,128,0,93650:0:0:0:0:
329,192,91184,1,0,0:0:0:0:
182,192,92006,1,0,0:0:0:0:
329,192,92828,1,0,0:0:0:0:
182,192,93650,1,0,0:0:0:0:
36,192,94061,1,0,0:0:0:0:
182,192,94164,1,0,0:0:0:0:
36,192,94266,1,0,0:0:0:0:
182,192,94369,1,0,0:0:0:0:
109,192,94575,1,0,0:0:0:0:
256,192,94677,1,0,0:0:0:0:
329,192,94883,1,0,0:0:0:0:
329,192,95088,1,0,0:0:0:0:
182,192,95294,1,0,0:0:0:0:
256,192,95397,1,0,0:0:0:0:
182,192,95499,1,0,0:0:0:0:
256,192,95602,1,0,0:0:0:0:
402,192,95705,1,0,0:0:0:0:
256,192,95808,1,0,0:0:0:0:
402,192,95910,1,0,0:0:0:0:
256,192,96013,1,0,0:0:0:0:
329,192,96219,1,0,0:0:0:0:
182,192,96321,1,0,0:0:0:0:
475,192,96527,1,0,0:0:0:0:
475,192,96732,1,0,0:0:0:0:
182,192,96938,1,0,0:0:0:0:
36,192,97040,1,0,0:0:0:0:
182,192,97143,1,0,0:0:0:0:
36,192,97246,1,0,0:0:0:0:
475,192,97349,1,0,0:0:0:0:
329,192,97451,1,0,0:0:0:0:
475,192,97554,1,0,0:0:0:0:
402,192,97760,1,0,0:0:0:0:
256,192,97862,1,0,0:0:0:0:
402,192,97965,1,0,0:0:0:0:
256,192,98068,1,0,0:0:0:0:
182,192,98171,1,0,0:0:0:0:
36,192,98376,1,0,0:0:0:0:
182,192,98479,1,0,0:0:0:0:
329,192,98582,1,0,0:0:0:0:
256,192,98787,1,0,0:0:0:0:
475,192,98992,1,0,0:0:0:0:
475,192,99198,1,0,0:0:0:0:
402,192,99403,1,0,0:0:0:0:
329,192,99506,1,0,0:0:0:0:
256,192,99609,1,0,0:0:0:0:
182,192,99712,1,0,0:0:0:0:
36,192,99814,1,0,0:0:0:0:
182,192,100020,1,0,0:0:0:0:
36,192,100225,1,0,0:0:0:0:
256,192,100636,128,0,107212:0:0:0:0:
36,192,100842,1,0,0:0:0:0:
109,192,100945,1,0,0:0:0:0:
329,192,101047,1,0,0:0:0:0:
36,192,101253,1,0,0:0:0:0:
109,192,101356,1,0,0:0:0:0:
36,192,101664,1,0,0:0:0:0:
109,192,101766,1,0,0:0:0:0:
182,192,101869,1,0,0:0:0:0:
36,192,102075,1,0,0:0:0:0:
109,192,102177,1,0,0:0:0:0:
36,192,102486,1,0,0:0:0:0:
109,192,102588,1,0,0:0:0:0:
329,192,102691,1,0,0:0:0:0:
36,192,102897,1,0,0:0:0:0:
109,192,102999,1,0,0:0:0:0:
36,192,103308,1,0,0:0:0:0:
109,192,103410,1,0,0:0:0:0:
182,192,103513,1,0,0:0:0:0:
36,192,103719,1,0,0:0:0:0:
109,192,103821,1,0,0:0:0:0:
36,192,104129,1,0,0:0:0:0:
109,192,104232,1,0,0:0:0:0:
36,192,104540,1,0,0:0:0:0:
109,192,104643,1,0,0:0:0:0:
36,192,104951,1,0,0:0:0:0:
109,192,105054,1,0,0:0:0:0:
36,192,105362,1,0,0:0:0:0:
109,192,105465,1,0,0:0:0:0:
36,192,105773,1,0,0:0:0:0:
109,192,105876,1,0,0:0:0:0:
36,192,106184,1,0,0:0:0:0:
109,192,106287,1,0,0:0:0:0:
36,192,106595,1,0,0:0:0:0:
109,192,106698,1,0,0:0:0:0:
36,192,106903,1,0,0:0:0:0:
109,192,107006,1,0,0:0:0:0:
36,192,107212,1,0,0:0:0:0:
475,192,107212,1,0,0:0:0:0:
