osu file format v12

[General]
AudioFilename: 30. Insane Techniques.mp3
AudioLeadIn: 0
PreviewTime: 95902
Countdown: 0
SampleSet: Soft
StackLeniency: 0.7
Mode: 3
LetterboxInBreaks: 0
SpecialStyle: 0
WidescreenStoryboard: 1

[Editor]
DistanceSpacing: 1
BeatDivisor: 4
GridSize: 4
TimelineZoom: 1

[Metadata]
Title:Insane Techniques
TitleUnicode:Insane Techniques
Artist:kors k
ArtistUnicode:kors k
Creator:LeiN-
Version:4K Hyper
Source:Beatmania IIDX 21 SPADA
Tags:DJ_Orange bemani konami Aery- CLSW Last_Bubble Fast
BeatmapID:345770
BeatmapSetID:138188

[Difficulty]
HPDrainRate:8
CircleSize:4
OverallDifficulty:8
ApproachRate:5
SliderMultiplier:1.4
SliderTickRate:1

[Events]
//Background and Video events
Video,-1120,"bga.avi"
0,0,"bg3.png",0,0
//Break Periods
//Storyboard Layer 0 (Background)
//Storyboard Layer 1 (Fail)
//Storyboard Layer 2 (Pass)
//Storyboard Layer 3 (Foreground)
//Storyboard Sound Samples
//Background Colour Transformations
3,100,163,162,255

[TimingPoints]
560,410.958904109589,4,2,1,30,1,0
95902,-100,4,2,1,30,0,1
108231,-100,4,2,1,30,0,0
109053,-100,4,2,1,30,0,1
118916,-100,4,2,1,30,0,0

[HitObjects]
64,192,560,5,2,0:0:0:0:
192,192,560,1,2,0:0:0:0:
320,192,662,1,2,0:0:0:0:
192,192,765,1,2,0:0:0:0:
448,192,868,1,2,0:0:0:0:
192,192,970,1,2,0:0:0:0:
320,192,1073,1,2,0:0:0:0:
64,192,1176,1,2,0:0:0:0:
448,192,1279,1,2,0:0:0:0:
192,192,1381,1,2,0:0:0:0:
448,192,1484,1,2,0:0:0:0:
64,192,1587,1,2,0:0:0:0:
448,192,1690,1,2,0:0:0:0:
64,192,1792,1,2,0:0:0:0:
192,192,1895,1,2,0:0:0:0:
448,192,1998,1,2,0:0:0:0:
320,192,2101,1,2,0:0:0:0:
64,192,2203,1,2,0:0:0:0:
320,192,2306,1,2,0:0:0:0:
192,192,2409,1,2,0:0:0:0:
448,192,2512,1,2,0:0:0:0:
192,192,2614,1,2,0:0:0:0:
320,192,2717,1,2,0:0:0:0:
64,192,2820,1,2,0:0:0:0:
448,192,2923,1,2,0:0:0:0:
192,192,3025,1,2,0:0:0:0:
448,192,3128,1,2,0:0:0:0:
320,192,3231,1,2,0:0:0:0:
448,192,3333,1,2,0:0:0:0:
192,192,3436,1,2,0:0:0:0:
64,192,3539,1,2,0:0:0:0:
192,192,3642,1,2,0:0:0:0:
320,192,3744,1,2,0:0:0:0:
64,192,3847,1,2,0:0:0:0:
448,192,3847,1,2,0:0:0:0:
320,192,3950,1,2,0:0:0:0:
192,192,4053,1,2,0:0:0:0:
448,192,4155,1,2,0:0:0:0:
192,192,4258,1,2,0:0:0:0:
320,192,4361,1,2,0:0:0:0:
64,192,4464,1,2,0:0:0:0:
448,192,4566,1,2,0:0:0:0:
320,192,4669,1,2,0:0:0:0:
448,192,4772,1,2,0:0:0:0:
192,192,4875,1,2,0:0:0:0:
448,192,4977,1,2,0:0:0:0:
64,192,5080,1,2,0:0:0:0:
320,192,5183,1,2,0:0:0:0:
192,192,5286,1,2,0:0:0:0:
320,192,5388,1,2,0:0:0:0:
64,192,5491,1,2,0:0:0:0:
448,192,5491,1,2,0:0:0:0:
192,192,5594,1,2,0:0:0:0:
64,192,5696,1,2,0:0:0:0:
320,192,5799,1,2,0:0:0:0:
448,192,5902,1,2,0:0:0:0:
192,192,6005,1,2,0:0:0:0:
320,192,6107,1,2,0:0:0:0:
64,192,6210,1,2,0:0:0:0:
448,192,6313,1,2,0:0:0:0:
192,192,6416,1,2,0:0:0:0:
448,192,6518,1,2,0:0:0:0:
64,192,6621,1,2,0:0:0:0:
320,192,6724,1,2,0:0:0:0:
192,192,6827,1,2,0:0:0:0:
448,192,6929,1,2,0:0:0:0:
320,192,7032,1,2,0:0:0:0:
64,192,7135,1,2,0:0:0:0:
448,192,7135,1,2,0:0:0:0:
192,192,7238,1,2,0:0:0:0:
320,192,7340,1,2,0:0:0:0:
448,192,7443,1,2,0:0:0:0:
192,192,7546,1,2,0:0:0:0:
320,192,7649,1,2,0:0:0:0:
64,192,7751,1,2,0:0:0:0:
320,192,7854,1,2,0:0:0:0:
192,192,7957,1,2,0:0:0:0:
448,192,8059,1,2,0:0:0:0:
64,192,8162,1,2,0:0:0:0:
320,192,8265,1,2,0:0:0:0:
448,192,8368,1,2,0:0:0:0:
192,192,8470,1,2,0:0:0:0:
320,192,8573,1,2,0:0:0:0:
448,192,8676,1,2,0:0:0:0:
64,192,8779,1,2,0:0:0:0:
320,192,8881,1,2,0:0:0:0:
192,192,8984,1,2,0:0:0:0:
448,192,9087,1,2,0:0:0:0:
192,192,9190,1,2,0:0:0:0:
320,192,9292,1,2,0:0:0:0:
64,192,9395,1,2,0:0:0:0:
448,192,9498,1,2,0:0:0:0:
192,192,9601,1,2,0:0:0:0:
448,192,9703,1,2,0:0:0:0:
64,192,9806,1,2,0:0:0:0:
320,192,9909,1,2,0:0:0:0:
64,192,10012,1,2,0:0:0:0:
448,192,10114,1,2,0:0:0:0:
192,192,10217,1,2,0:0:0:0:
320,192,10320,1,2,0:0:0:0:
448,192,10423,128,2,12066:0:0:0:0:
64,192,10423,1,0,0:0:0:0:
192,192,10525,1,0,0:0:0:0:
320,192,10628,1,0,0:0:0:0:
192,192,10731,1,0,0:0:0:0:
320,192,10833,1,0,0:0:0:0:
64,192,10936,1,0,0:0:0:0:
192,192,11039,1,0,0:0:0:0:
64,192,11142,1,0,0:0:0:0:
192,192,11244,1,0,0:0:0:0:
320,192,11347,1,0,0:0:0:0:
64,192,11450,1,0,0:0:0:0:
320,192,11553,1,0,0:0:0:0:
64,192,11655,1,0,0:0:0:0:
192,192,11758,1,0,0:0:0:0:
64,192,11861,1,0,0:0:0:0:
192,192,11964,1,0,0:0:0:0:
320,192,12066,128,2,12888:0:0:0:0:
64,192,12888,128,2,13299:0:0:0:0:
448,192,13299,128,2,13710:0:0:0:0:
192,192,13505,128,2,13710:0:0:0:0:
64,192,13710,1,0,0:0:0:0:
320,192,13916,1,0,0:0:0:0:
192,192,14018,1,0,0:0:0:0:
64,192,14121,1,8,0:0:0:0:
320,192,14121,1,8,0:0:0:0:
64,192,14327,1,0,0:0:0:0:
192,192,14327,1,0,0:0:0:0:
448,192,14532,1,0,0:0:0:0:
320,192,14635,1,0,0:0:0:0:
448,192,14738,1,0,0:0:0:0:
320,192,14840,1,0,0:0:0:0:
64,192,14943,1,8,0:0:0:0:
448,192,14943,1,8,0:0:0:0:
64,192,15149,1,0,0:0:0:0:
320,192,15149,1,0,0:0:0:0:
448,192,15354,1,0,0:0:0:0:
320,192,15354,1,0,0:0:0:0:
320,192,15560,1,0,0:0:0:0:
448,192,15662,1,0,0:0:0:0:
64,192,15765,1,8,0:0:0:0:
320,192,15765,1,8,0:0:0:0:
192,192,15970,1,0,0:0:0:0:
64,192,15970,1,0,0:0:0:0:
192,192,16176,1,0,0:0:0:0:
448,192,16176,1,0,0:0:0:0:
64,192,16279,1,0,0:0:0:0:
320,192,16381,1,0,0:0:0:0:
192,192,16484,1,0,0:0:0:0:
320,192,16587,1,8,0:0:0:0:
448,192,16587,1,8,0:0:0:0:
64,192,16792,1,0,0:0:0:0:
320,192,16792,1,0,0:0:0:0:
64,192,16998,1,0,0:0:0:0:
192,192,16998,1,0,0:0:0:0:
64,192,17203,1,0,0:0:0:0:
192,192,17306,1,0,0:0:0:0:
64,192,17409,1,8,0:0:0:0:
320,192,17409,1,8,0:0:0:0:
192,192,17614,1,0,0:0:0:0:
320,192,17614,1,0,0:0:0:0:
448,192,17820,1,0,0:0:0:0:
320,192,17923,1,0,0:0:0:0:
448,192,18025,1,0,0:0:0:0:
320,192,18128,1,0,0:0:0:0:
64,192,18231,1,8,0:0:0:0:
448,192,18231,1,8,0:0:0:0:
64,192,18436,1,0,0:0:0:0:
320,192,18436,1,0,0:0:0:0:
320,192,18642,1,0,0:0:0:0:
448,192,18642,1,0,0:0:0:0:
192,192,18847,1,0,0:0:0:0:
448,192,18950,1,0,0:0:0:0:
64,192,19053,1,8,0:0:0:0:
320,192,19053,1,8,0:0:0:0:
320,192,19258,128,0,19669:0:0:0:0:
448,192,19258,1,0,0:0:0:0:
64,192,19464,1,0,0:0:0:0:
64,192,19669,128,8,19875:0:0:0:0:
192,192,19669,1,8,0:0:0:0:
448,192,19669,1,8,0:0:0:0:
448,192,19875,1,2,0:0:0:0:
320,192,19977,1,2,0:0:0:0:
448,192,20080,1,2,0:0:0:0:
192,192,20286,128,0,20491:0:0:0:0:
448,192,20491,1,0,0:0:0:0:
320,192,20594,1,0,0:0:0:0:
64,192,20696,1,8,0:0:0:0:
448,192,20696,1,8,0:0:0:0:
192,192,20902,1,0,0:0:0:0:
320,192,20902,1,0,0:0:0:0:
64,192,21107,128,0,21518:0:0:0:0:
192,192,21313,128,0,21518:0:0:0:0:
320,192,21313,1,0,0:0:0:0:
320,192,21518,128,8,21929:0:0:0:0:
448,192,21518,1,8,0:0:0:0:
64,192,21724,1,0,0:0:0:0:
64,192,21929,1,0,0:0:0:0:
448,192,21929,1,0,0:0:0:0:
448,192,22135,1,0,0:0:0:0:
64,192,22238,1,0,0:0:0:0:
448,192,22340,1,8,0:0:0:0:
320,192,22340,1,8,0:0:0:0:
64,192,22546,1,0,0:0:0:0:
192,192,22649,1,0,0:0:0:0:
64,192,22751,1,0,0:0:0:0:
192,192,22854,1,0,0:0:0:0:
64,192,22957,1,0,0:0:0:0:
320,192,23059,1,0,0:0:0:0:
64,192,23162,1,8,0:0:0:0:
448,192,23162,1,8,0:0:0:0:
64,192,23368,1,0,0:0:0:0:
320,192,23368,1,0,0:0:0:0:
448,192,23573,128,0,23984:0:0:0:0:
192,192,23573,1,0,0:0:0:0:
64,192,23984,1,8,0:0:0:0:
320,192,23984,1,8,0:0:0:0:
192,192,24087,1,0,0:0:0:0:
64,192,24190,1,0,0:0:0:0:
448,192,24190,1,0,0:0:0:0:
320,192,24395,128,12,24806:0:0:0:0:
448,192,24395,128,12,24498:0:0:0:0:
192,192,24806,128,12,25217:0:0:0:0:
64,192,24806,1,12,0:0:0:0:
448,192,25012,128,0,25217:0:0:0:0:
64,192,25217,1,0,0:0:0:0:
192,192,25423,1,0,0:0:0:0:
320,192,25423,1,0,0:0:0:0:
192,192,25628,128,2,25833:0:0:0:0:
448,192,25628,128,2,25833:0:0:0:0:
320,192,25833,1,10,0:0:0:0:
320,192,26142,1,8,0:0:0:0:
320,192,26347,1,8,0:0:0:0:
320,192,26655,1,8,0:0:0:0:
192,192,26861,1,6,0:0:0:0:
448,192,26861,1,6,0:0:0:0:
320,192,27066,1,0,0:0:0:0:
192,192,27169,1,0,0:0:0:0:
448,192,27272,1,8,0:0:0:0:
64,192,27477,1,0,0:0:0:0:
448,192,27580,1,0,0:0:0:0:
320,192,27786,1,0,0:0:0:0:
64,192,27888,128,0,28094:0:0:0:0:
448,192,28094,1,8,0:0:0:0:
192,192,28299,1,0,0:0:0:0:
320,192,28299,1,0,0:0:0:0:
64,192,28505,1,0,0:0:0:0:
320,192,28505,1,0,0:0:0:0:
192,192,28710,1,0,0:0:0:0:
320,192,28813,1,0,0:0:0:0:
64,192,28916,1,8,0:0:0:0:
448,192,29121,1,0,0:0:0:0:
64,192,29224,1,0,0:0:0:0:
192,192,29429,1,0,0:0:0:0:
320,192,29532,128,0,29738:0:0:0:0:
64,192,29738,1,8,0:0:0:0:
192,192,29943,1,0,0:0:0:0:
320,192,29943,1,0,0:0:0:0:
192,192,30149,1,0,0:0:0:0:
448,192,30149,1,0,0:0:0:0:
192,192,30354,1,0,0:0:0:0:
64,192,30457,1,0,0:0:0:0:
448,192,30559,1,8,0:0:0:0:
192,192,30765,1,0,0:0:0:0:
448,192,30868,1,0,0:0:0:0:
320,192,31073,1,0,0:0:0:0:
64,192,31176,128,0,31381:0:0:0:0:
448,192,31381,1,8,0:0:0:0:
192,192,31587,1,0,0:0:0:0:
320,192,31587,1,0,0:0:0:0:
64,192,31792,1,0,0:0:0:0:
320,192,31792,1,0,0:0:0:0:
320,192,31998,1,0,0:0:0:0:
448,192,32101,1,0,0:0:0:0:
64,192,32203,1,8,0:0:0:0:
320,192,32409,1,0,0:0:0:0:
64,192,32512,1,0,0:0:0:0:
192,192,32717,1,0,0:0:0:0:
448,192,32820,128,0,33025:0:0:0:0:
64,192,33025,1,8,0:0:0:0:
192,192,33231,1,0,0:0:0:0:
320,192,33231,1,0,0:0:0:0:
192,192,33436,1,6,0:0:0:0:
448,192,33436,1,6,0:0:0:0:
320,192,33642,1,0,0:0:0:0:
192,192,33744,1,0,0:0:0:0:
448,192,33847,1,8,0:0:0:0:
64,192,34053,1,0,0:0:0:0:
448,192,34155,1,0,0:0:0:0:
320,192,34361,1,0,0:0:0:0:
64,192,34464,128,0,34669:0:0:0:0:
448,192,34669,1,8,0:0:0:0:
192,192,34875,1,0,0:0:0:0:
320,192,34875,1,0,0:0:0:0:
64,192,35080,1,0,0:0:0:0:
320,192,35080,1,0,0:0:0:0:
192,192,35286,1,0,0:0:0:0:
320,192,35388,1,0,0:0:0:0:
64,192,35491,1,8,0:0:0:0:
448,192,35696,1,0,0:0:0:0:
64,192,35799,1,0,0:0:0:0:
320,192,36005,1,0,0:0:0:0:
448,192,36107,128,0,36313:0:0:0:0:
192,192,36313,128,12,36724:0:0:0:0:
64,192,36313,1,12,0:0:0:0:
320,192,36724,128,0,37032:0:0:0:0:
448,192,36724,1,8,0:0:0:0:
448,192,37032,128,0,37340:0:0:0:0:
64,192,37032,1,8,0:0:0:0:
192,192,37340,128,0,37649:0:0:0:0:
320,192,37340,1,8,0:0:0:0:
448,192,37649,128,0,37957:0:0:0:0:
64,192,37649,1,8,0:0:0:0:
192,192,37957,128,0,38162:0:0:0:0:
64,192,37957,1,8,0:0:0:0:
320,192,38162,128,8,38368:0:0:0:0:
448,192,38368,128,6,38779:0:0:0:0:
192,192,38368,1,10,0:0:0:0:
64,192,38779,128,0,39395:0:0:0:0:
192,192,38779,1,0,0:0:0:0:
448,192,39395,128,0,39601:0:0:0:0:
320,192,39601,128,0,40012:0:0:0:0:
64,192,39806,128,0,40217:0:0:0:0:
448,192,40012,1,0,0:0:0:0:
192,192,40217,1,0,0:0:0:0:
448,192,40320,1,0,0:0:0:0:
64,192,40423,1,8,0:0:0:0:
320,192,40525,1,0,0:0:0:0:
192,192,40731,1,0,0:0:0:0:
448,192,40731,1,0,0:0:0:0:
64,192,40936,1,0,0:0:0:0:
192,192,41039,1,0,0:0:0:0:
64,192,41142,1,0,0:0:0:0:
448,192,41244,1,8,0:0:0:0:
320,192,41244,128,8,41655:0:0:0:0:
64,192,41655,1,0,0:0:0:0:
192,192,41861,1,0,0:0:0:0:
448,192,41964,1,0,0:0:0:0:
64,192,42066,1,8,0:0:0:0:
320,192,42169,1,0,0:0:0:0:
192,192,42272,1,0,0:0:0:0:
320,192,42375,1,0,0:0:0:0:
64,192,42477,1,0,0:0:0:0:
448,192,42580,1,0,0:0:0:0:
320,192,42683,1,0,0:0:0:0:
448,192,42786,1,0,0:0:0:0:
64,192,42888,1,8,0:0:0:0:
320,192,42888,1,8,0:0:0:0:
192,192,43094,1,8,0:0:0:0:
320,192,43094,1,0,0:0:0:0:
448,192,43299,1,0,0:0:0:0:
320,192,43299,128,0,43505:0:0:0:0:
64,192,43505,1,0,0:0:0:0:
192,192,43710,1,8,0:0:0:0:
448,192,43710,1,8,0:0:0:0:
64,192,43813,1,0,0:0:0:0:
192,192,44018,1,0,0:0:0:0:
448,192,44224,1,0,0:0:0:0:
192,192,44327,1,0,0:0:0:0:
320,192,44429,1,0,0:0:0:0:
192,192,44532,1,8,0:0:0:0:
64,192,44532,1,8,0:0:0:0:
192,192,44738,1,0,0:0:0:0:
448,192,44738,1,0,0:0:0:0:
64,192,44943,1,0,0:0:0:0:
192,192,44943,128,0,45149:0:0:0:0:
320,192,45149,1,0,0:0:0:0:
64,192,45354,1,8,0:0:0:0:
448,192,45354,1,8,0:0:0:0:
192,192,45457,1,0,0:0:0:0:
64,192,45559,1,0,0:0:0:0:
320,192,45662,1,0,0:0:0:0:
192,192,45765,1,0,0:0:0:0:
448,192,45868,1,0,0:0:0:0:
320,192,45970,1,0,0:0:0:0:
448,192,46073,1,0,0:0:0:0:
64,192,46176,1,8,0:0:0:0:
320,192,46176,1,8,0:0:0:0:
192,192,46381,1,8,0:0:0:0:
320,192,46381,1,0,0:0:0:0:
448,192,46587,128,0,46998:0:0:0:0:
64,192,46587,1,0,0:0:0:0:
320,192,46792,128,0,46998:0:0:0:0:
64,192,46998,1,12,0:0:0:0:
192,192,47101,1,0,0:0:0:0:
192,192,47306,1,0,0:0:0:0:
64,192,47512,1,0,0:0:0:0:
320,192,47614,1,0,0:0:0:0:
192,192,47717,1,0,0:0:0:0:
320,192,47820,1,8,0:0:0:0:
448,192,47820,1,8,0:0:0:0:
64,192,48025,1,0,0:0:0:0:
320,192,48025,1,8,0:0:0:0:
64,192,48231,1,0,0:0:0:0:
448,192,48231,128,0,48436:0:0:0:0:
320,192,48436,1,0,0:0:0:0:
64,192,48642,1,8,0:0:0:0:
448,192,48642,1,8,0:0:0:0:
320,192,48744,1,0,0:0:0:0:
64,192,48847,1,2,0:0:0:0:
448,192,48847,1,2,0:0:0:0:
192,192,48950,1,0,0:0:0:0:
320,192,49053,1,0,0:0:0:0:
448,192,49155,1,0,0:0:0:0:
192,192,49258,128,0,49464:0:0:0:0:
320,192,49464,128,0,49875:0:0:0:0:
64,192,49875,1,14,0:0:0:0:
448,192,49875,1,14,0:0:0:0:
192,192,49875,128,14,53162:0:0:0:0:
448,192,50286,1,8,0:0:0:0:
448,192,50696,1,8,0:0:0:0:
448,192,51107,1,8,0:0:0:0:
448,192,51518,1,8,0:0:0:0:
320,192,51724,1,8,0:0:0:0:
448,192,51929,1,8,0:0:0:0:
320,192,52135,1,8,0:0:0:0:
448,192,52340,1,8,0:0:0:0:
64,192,52443,1,8,0:0:0:0:
320,192,52546,1,8,0:0:0:0:
64,192,52649,1,8,0:0:0:0:
448,192,52751,1,8,0:0:0:0:
64,192,52854,1,8,0:0:0:0:
320,192,52957,1,8,0:0:0:0:
448,192,53059,1,8,0:0:0:0:
64,192,53162,1,10,0:0:0:0:
320,192,53368,1,2,0:0:0:0:
448,192,53779,1,2,0:0:0:0:
192,192,53984,1,2,0:0:0:0:
64,192,54395,1,2,0:0:0:0:
192,192,54601,1,2,0:0:0:0:
320,192,55012,1,2,0:0:0:0:
192,192,55217,1,2,0:0:0:0:
320,192,55628,1,2,0:0:0:0:
448,192,55833,1,2,0:0:0:0:
320,192,56244,1,2,0:0:0:0:
64,192,56450,1,2,0:0:0:0:
448,192,56861,1,2,0:0:0:0:
64,192,57066,1,2,0:0:0:0:
320,192,57477,1,2,0:0:0:0:
64,192,57683,1,2,0:0:0:0:
192,192,58094,1,2,0:0:0:0:
64,192,58299,1,2,0:0:0:0:
448,192,58710,1,2,0:0:0:0:
64,192,58916,1,2,0:0:0:0:
320,192,58916,1,2,0:0:0:0:
192,192,59121,1,2,0:0:0:0:
448,192,59327,1,2,0:0:0:0:
320,192,59532,1,2,0:0:0:0:
64,192,59738,1,2,0:0:0:0:
448,192,59738,1,2,0:0:0:0:
320,192,59943,1,2,0:0:0:0:
448,192,60354,1,2,0:0:0:0:
192,192,60559,1,2,0:0:0:0:
64,192,60970,1,2,0:0:0:0:
192,192,61176,1,2,0:0:0:0:
320,192,61587,1,2,0:0:0:0:
192,192,61792,1,2,0:0:0:0:
320,192,62203,1,2,0:0:0:0:
448,192,62409,1,2,0:0:0:0:
320,192,62820,1,2,0:0:0:0:
64,192,63025,1,2,0:0:0:0:
448,192,63436,1,2,0:0:0:0:
64,192,63642,1,2,0:0:0:0:
320,192,64053,1,2,0:0:0:0:
64,192,64258,1,2,0:0:0:0:
192,192,64669,1,2,0:0:0:0:
64,192,64875,1,2,0:0:0:0:
320,192,65286,1,2,0:0:0:0:
192,192,65491,1,2,0:0:0:0:
448,192,65491,1,2,0:0:0:0:
320,192,65696,1,2,0:0:0:0:
448,192,65902,1,2,0:0:0:0:
192,192,66107,1,2,0:0:0:0:
64,192,66313,1,6,0:0:0:0:
320,192,66313,1,6,0:0:0:0:
448,192,66313,1,6,0:0:0:0:
192,192,66518,1,2,0:0:0:0:
448,192,66929,1,2,0:0:0:0:
192,192,67135,1,2,0:0:0:0:
64,192,67546,1,2,0:0:0:0:
192,192,67751,1,2,0:0:0:0:
320,192,68162,1,2,0:0:0:0:
192,192,68368,1,2,0:0:0:0:
320,192,68779,1,2,0:0:0:0:
448,192,68984,1,2,0:0:0:0:
320,192,69395,1,2,0:0:0:0:
64,192,69601,128,0,69806:0:0:0:0:
192,192,69601,1,0,0:0:0:0:
448,192,70012,1,2,0:0:0:0:
64,192,70217,1,2,0:0:0:0:
320,192,70628,1,2,0:0:0:0:
64,192,70833,1,2,0:0:0:0:
192,192,71244,1,2,0:0:0:0:
64,192,71450,1,2,0:0:0:0:
448,192,71861,1,2,0:0:0:0:
64,192,72066,1,2,0:0:0:0:
320,192,72066,1,2,0:0:0:0:
192,192,72272,1,2,0:0:0:0:
320,192,72477,1,2,0:0:0:0:
64,192,72683,1,2,0:0:0:0:
192,192,72786,1,2,0:0:0:0:
448,192,72888,1,6,0:0:0:0:
64,192,72888,128,6,76176:0:0:0:0:
320,192,73094,1,2,0:0:0:0:
448,192,73505,1,2,0:0:0:0:
192,192,73710,1,2,0:0:0:0:
320,192,74121,1,2,0:0:0:0:
192,192,74327,1,2,0:0:0:0:
448,192,74738,1,2,0:0:0:0:
192,192,74943,1,2,0:0:0:0:
448,192,75354,1,2,0:0:0:0:
320,192,75560,1,2,0:0:0:0:
192,192,75970,1,2,0:0:0:0:
448,192,76176,128,0,77820:0:0:0:0:
320,192,76176,128,0,76381:0:0:0:0:
64,192,76587,1,2,0:0:0:0:
192,192,76792,1,2,0:0:0:0:
320,192,77203,1,2,0:0:0:0:
192,192,77409,1,2,0:0:0:0:
64,192,77820,1,2,0:0:0:0:
320,192,77923,1,0,0:0:0:0:
192,192,78025,1,0,0:0:0:0:
448,192,78128,1,0,0:0:0:0:
192,192,78231,1,0,0:0:0:0:
320,192,78333,1,0,0:0:0:0:
64,192,78436,1,0,0:0:0:0:
320,192,78539,1,0,0:0:0:0:
192,192,78642,1,0,0:0:0:0:
448,192,78744,1,0,0:0:0:0:
192,192,78847,1,0,0:0:0:0:
320,192,78950,1,0,0:0:0:0:
64,192,79053,1,0,0:0:0:0:
192,192,79155,1,0,0:0:0:0:
448,192,79258,1,0,0:0:0:0:
320,192,79361,1,0,0:0:0:0:
448,192,79464,1,6,0:0:0:0:
64,192,79464,1,6,0:0:0:0:
320,192,79772,1,0,0:0:0:0:
64,192,80080,1,0,0:0:0:0:
320,192,80286,1,0,0:0:0:0:
192,192,80388,1,0,0:0:0:0:
320,192,80491,1,0,0:0:0:0:
448,192,80594,1,0,0:0:0:0:
64,192,80696,1,0,0:0:0:0:
320,192,80696,1,0,0:0:0:0:
448,192,80902,1,0,0:0:0:0:
320,192,80902,1,0,0:0:0:0:
64,192,81107,1,0,0:0:0:0:
320,192,81107,1,0,0:0:0:0:
448,192,81416,1,0,0:0:0:0:
64,192,81724,1,0,0:0:0:0:
320,192,81929,1,0,0:0:0:0:
192,192,82032,1,0,0:0:0:0:
448,192,82135,1,0,0:0:0:0:
320,192,82238,1,0,0:0:0:0:
64,192,82340,1,0,0:0:0:0:
448,192,82340,1,0,0:0:0:0:
64,192,82546,1,0,0:0:0:0:
320,192,82546,1,0,0:0:0:0:
192,192,82751,1,0,0:0:0:0:
320,192,82751,1,0,0:0:0:0:
320,192,83060,1,0,0:0:0:0:
192,192,83368,1,0,0:0:0:0:
320,192,83573,1,0,0:0:0:0:
64,192,83676,1,0,0:0:0:0:
320,192,83779,1,0,0:0:0:0:
192,192,83881,1,0,0:0:0:0:
320,192,83984,1,0,0:0:0:0:
448,192,83984,1,0,0:0:0:0:
192,192,84190,1,0,0:0:0:0:
320,192,84190,1,0,0:0:0:0:
64,192,84395,1,0,0:0:0:0:
320,192,84395,1,0,0:0:0:0:
448,192,84703,1,0,0:0:0:0:
64,192,85012,1,0,0:0:0:0:
192,192,85217,1,0,0:0:0:0:
64,192,85320,1,0,0:0:0:0:
320,192,85423,1,0,0:0:0:0:
192,192,85525,1,0,0:0:0:0:
448,192,85628,1,10,0:0:0:0:
320,192,85628,128,10,85833:0:0:0:0:
64,192,85833,1,10,0:0:0:0:
192,192,85833,128,10,86039:0:0:0:0:
448,192,86039,1,12,0:0:0:0:
64,192,86142,1,0,0:0:0:0:
320,192,86244,1,0,0:0:0:0:
64,192,86347,1,0,0:0:0:0:
448,192,86450,1,0,0:0:0:0:
192,192,86553,1,0,0:0:0:0:
448,192,86655,1,0,0:0:0:0:
64,192,86758,1,0,0:0:0:0:
320,192,86861,1,0,0:0:0:0:
192,192,86964,1,0,0:0:0:0:
320,192,87066,1,0,0:0:0:0:
448,192,87169,1,0,0:0:0:0:
64,192,87272,128,10,87477:0:0:0:0:
192,192,87272,1,10,0:0:0:0:
320,192,87477,128,0,87683:0:0:0:0:
448,192,87477,1,8,0:0:0:0:
192,192,87683,128,10,87888:0:0:0:0:
448,192,87683,1,10,0:0:0:0:
448,192,87888,1,0,0:0:0:0:
64,192,87991,1,0,0:0:0:0:
64,192,88299,1,8,0:0:0:0:
192,192,88299,1,8,0:0:0:0:
448,192,88402,1,8,0:0:0:0:
320,192,88402,1,8,0:0:0:0:
64,192,88505,1,0,0:0:0:0:
320,192,88607,1,0,0:0:0:0:
192,192,88710,128,8,88916:0:0:0:0:
448,192,88916,128,8,89327:0:0:0:0:
64,192,88916,1,8,0:0:0:0:
64,192,89327,1,10,0:0:0:0:
192,192,89327,128,10,89635:0:0:0:0:
64,192,89635,1,10,0:0:0:0:
448,192,89635,128,10,89943:0:0:0:0:
192,192,89943,1,10,0:0:0:0:
320,192,89943,128,10,90251:0:0:0:0:
64,192,90251,128,10,90560:0:0:0:0:
448,192,90251,1,10,0:0:0:0:
192,192,90560,128,10,90765:0:0:0:0:
320,192,90560,1,10,0:0:0:0:
320,192,90765,128,10,90970:0:0:0:0:
448,192,90765,1,10,0:0:0:0:
448,192,90970,1,10,0:0:0:0:
64,192,90970,1,10,0:0:0:0:
192,192,91073,1,10,0:0:0:0:
320,192,91176,1,10,0:0:0:0:
448,192,91279,1,10,0:0:0:0:
64,192,91381,1,10,0:0:0:0:
192,192,91484,1,10,0:0:0:0:
320,192,91587,1,10,0:0:0:0:
64,192,91690,1,10,0:0:0:0:
192,192,91792,1,10,0:0:0:0:
448,192,91895,1,10,0:0:0:0:
64,192,91998,1,10,0:0:0:0:
320,192,92101,1,10,0:0:0:0:
448,192,92203,1,10,0:0:0:0:
192,192,92306,1,10,0:0:0:0:
320,192,92409,1,10,0:0:0:0:
448,192,92512,1,10,0:0:0:0:
64,192,92614,1,14,0:0:0:0:
192,192,92614,128,14,95080:0:0:0:0:
448,192,95080,128,0,95491:0:0:0:0:
64,192,95080,1,0,0:0:0:0:
192,192,95491,128,0,95902:0:0:0:0:
64,192,95491,128,0,95594:0:0:0:0:
320,192,95491,1,0,0:0:0:0:
64,192,95902,1,6,0:0:0:0:
448,192,95902,1,6,0:0:0:0:
192,192,96107,1,8,0:0:0:0:
320,192,96210,1,0,0:0:0:0:
64,192,96518,1,8,0:0:0:0:
192,192,96518,1,8,0:0:0:0:
320,192,96724,1,0,0:0:0:0:
192,192,96827,1,0,0:0:0:0:
448,192,96929,1,8,0:0:0:0:
192,192,97032,1,0,0:0:0:0:
320,192,97135,1,0,0:0:0:0:
448,192,97135,1,0,0:0:0:0:
64,192,97340,1,8,0:0:0:0:
320,192,97340,1,8,0:0:0:0:
192,192,97546,1,0,0:0:0:0:
448,192,97546,1,0,0:0:0:0:
320,192,97751,1,8,0:0:0:0:
192,192,97854,1,0,0:0:0:0:
320,192,98162,1,8,0:0:0:0:
448,192,98162,1,8,0:0:0:0:
192,192,98368,1,0,0:0:0:0:
320,192,98470,1,0,0:0:0:0:
64,192,98573,1,8,0:0:0:0:
192,192,98676,1,0,0:0:0:0:
64,192,98779,1,0,0:0:0:0:
448,192,98779,1,0,0:0:0:0:
320,192,98984,1,8,0:0:0:0:
448,192,98984,1,8,0:0:0:0:
64,192,99190,1,0,0:0:0:0:
320,192,99190,1,0,0:0:0:0:
192,192,99395,1,8,0:0:0:0:
448,192,99498,1,0,0:0:0:0:
320,192,99703,1,0,0:0:0:0:
192,192,99806,1,8,0:0:0:0:
320,192,99909,1,0,0:0:0:0:
448,192,100012,1,0,0:0:0:0:
192,192,100114,1,0,0:0:0:0:
64,192,100217,1,8,0:0:0:0:
320,192,100320,1,0,0:0:0:0:
192,192,100423,1,0,0:0:0:0:
448,192,100423,1,0,0:0:0:0:
192,192,100628,1,8,0:0:0:0:
320,192,100628,1,8,0:0:0:0:
64,192,100833,1,0,0:0:0:0:
448,192,100833,1,0,0:0:0:0:
320,192,101039,1,8,0:0:0:0:
64,192,101142,1,0,0:0:0:0:
64,192,101450,1,8,0:0:0:0:
192,192,101553,1,0,0:0:0:0:
320,192,101655,1,0,0:0:0:0:
192,192,101758,1,0,0:0:0:0:
448,192,101861,1,8,0:0:0:0:
320,192,101964,1,0,0:0:0:0:
64,192,102066,1,0,0:0:0:0:
448,192,102066,1,0,0:0:0:0:
192,192,102272,1,8,0:0:0:0:
448,192,102272,1,8,0:0:0:0:
64,192,102477,1,6,0:0:0:0:
192,192,102477,1,6,0:0:0:0:
448,192,102477,1,6,0:0:0:0:
192,192,102683,1,8,0:0:0:0:
320,192,102786,1,0,0:0:0:0:
64,192,103094,1,8,0:0:0:0:
192,192,103094,1,8,0:0:0:0:
320,192,103299,1,0,0:0:0:0:
192,192,103402,1,0,0:0:0:0:
448,192,103505,1,8,0:0:0:0:
192,192,103607,1,0,0:0:0:0:
320,192,103710,1,0,0:0:0:0:
448,192,103710,1,0,0:0:0:0:
64,192,103916,1,8,0:0:0:0:
320,192,103916,1,8,0:0:0:0:
192,192,104121,1,0,0:0:0:0:
448,192,104121,1,0,0:0:0:0:
320,192,104327,1,8,0:0:0:0:
192,192,104429,1,0,0:0:0:0:
320,192,104738,1,8,0:0:0:0:
448,192,104738,1,8,0:0:0:0:
192,192,104943,1,0,0:0:0:0:
320,192,105046,1,0,0:0:0:0:
64,192,105149,1,8,0:0:0:0:
192,192,105251,1,0,0:0:0:0:
64,192,105354,1,0,0:0:0:0:
448,192,105354,1,0,0:0:0:0:
320,192,105559,1,8,0:0:0:0:
448,192,105559,1,8,0:0:0:0:
64,192,105765,1,10,0:0:0:0:
448,192,105765,1,10,0:0:0:0:
192,192,105970,1,8,0:0:0:0:
448,192,106073,1,0,0:0:0:0:
192,192,106279,1,0,0:0:0:0:
448,192,106381,1,8,0:0:0:0:
320,192,106484,1,0,0:0:0:0:
448,192,106587,1,0,0:0:0:0:
192,192,106690,1,0,0:0:0:0:
320,192,106792,1,8,0:0:0:0:
64,192,106895,1,0,0:0:0:0:
192,192,106998,1,0,0:0:0:0:
448,192,106998,1,0,0:0:0:0:
192,192,107203,1,8,0:0:0:0:
320,192,107203,1,8,0:0:0:0:
64,192,107409,128,12,107614:0:0:0:0:
192,192,107409,1,12,0:0:0:0:
320,192,107614,128,12,107820:0:0:0:0:
448,192,107614,1,12,0:0:0:0:
192,192,107820,128,8,108025:0:0:0:0:
64,192,108025,128,8,108231:0:0:0:0:
448,192,108025,1,8,0:0:0:0:
320,192,108231,128,0,108642:0:0:0:0:
448,192,108231,1,0,0:0:0:0:
192,192,108231,1,8,0:0:0:0:
64,192,108642,1,2,0:0:0:0:
448,192,108642,1,2,0:0:0:0:
192,192,108744,1,2,0:0:0:0:
320,192,108847,1,2,0:0:0:0:
448,192,108950,1,2,0:0:0:0:
64,192,109053,1,6,0:0:0:0:
320,192,109053,1,6,0:0:0:0:
192,192,109258,1,8,0:0:0:0:
320,192,109361,1,0,0:0:0:0:
192,192,109464,128,0,109669:0:0:0:0:
448,192,109669,1,8,0:0:0:0:
320,192,109875,1,0,0:0:0:0:
64,192,109977,128,0,110080:0:0:0:0:
448,192,110080,1,8,0:0:0:0:
192,192,110183,1,0,0:0:0:0:
448,192,110286,1,0,0:0:0:0:
320,192,110491,1,8,0:0:0:0:
64,192,110491,128,0,110594:0:0:0:0:
192,192,110696,1,0,0:0:0:0:
448,192,110696,1,0,0:0:0:0:
320,192,110902,1,8,0:0:0:0:
192,192,111005,1,0,0:0:0:0:
320,192,111107,128,0,111313:0:0:0:0:
448,192,111107,1,0,0:0:0:0:
64,192,111313,1,8,0:0:0:0:
192,192,111518,1,0,0:0:0:0:
448,192,111621,128,0,111724:0:0:0:0:
64,192,111724,1,8,0:0:0:0:
320,192,111827,128,0,111929:0:0:0:0:
64,192,111929,1,0,0:0:0:0:
192,192,112135,1,8,0:0:0:0:
448,192,112135,1,8,0:0:0:0:
64,192,112340,1,0,0:0:0:0:
320,192,112340,1,0,0:0:0:0:
192,192,112546,1,8,0:0:0:0:
320,192,112649,1,0,0:0:0:0:
64,192,112751,128,0,112957:0:0:0:0:
448,192,112751,1,0,0:0:0:0:
320,192,112957,1,8,0:0:0:0:
192,192,113162,1,0,0:0:0:0:
64,192,113265,128,0,113368:0:0:0:0:
320,192,113368,1,8,0:0:0:0:
192,192,113470,1,0,0:0:0:0:
320,192,113573,1,0,0:0:0:0:
448,192,113573,1,0,0:0:0:0:
192,192,113779,1,8,0:0:0:0:
448,192,113779,1,8,0:0:0:0:
320,192,113984,1,2,0:0:0:0:
192,192,114087,1,2,0:0:0:0:
64,192,114190,1,2,0:0:0:0:
448,192,114292,1,2,0:0:0:0:
192,192,114395,1,2,0:0:0:0:
320,192,114498,1,2,0:0:0:0:
64,192,114601,128,2,114806:0:0:0:0:
320,192,114806,128,10,115012:0:0:0:0:
448,192,114806,1,10,0:0:0:0:
192,192,115012,128,2,115217:0:0:0:0:
64,192,115217,1,10,0:0:0:0:
320,192,115217,1,10,0:0:0:0:
448,192,115217,128,10,115320:0:0:0:0:
64,192,115423,128,10,115525:0:0:0:0:
192,192,115423,1,10,0:0:0:0:
320,192,115628,1,14,0:0:0:0:
448,192,115628,1,14,0:0:0:0:
192,192,115833,1,8,0:0:0:0:
320,192,115936,1,0,0:0:0:0:
192,192,116039,1,0,0:0:0:0:
64,192,116039,128,0,116244:0:0:0:0:
448,192,116244,1,8,0:0:0:0:
320,192,116450,1,0,0:0:0:0:
64,192,116553,128,0,116655:0:0:0:0:
448,192,116655,1,8,0:0:0:0:
192,192,116758,1,0,0:0:0:0:
448,192,116861,1,0,0:0:0:0:
192,192,117066,128,8,117169:0:0:0:0:
448,192,117066,1,8,0:0:0:0:
64,192,117272,1,0,0:0:0:0:
320,192,117272,1,0,0:0:0:0:
448,192,117477,1,8,0:0:0:0:
192,192,117580,1,0,0:0:0:0:
320,192,117683,1,4,0:0:0:0:
448,192,117683,1,4,0:0:0:0:
64,192,117786,1,0,0:0:0:0:
320,192,117888,1,0,0:0:0:0:
64,192,117991,1,0,0:0:0:0:
448,192,118094,1,2,0:0:0:0:
320,192,118196,1,2,0:0:0:0:
64,192,118299,1,2,0:0:0:0:
448,192,118402,1,2,0:0:0:0:
192,192,118505,1,2,0:0:0:0:
320,192,118607,1,2,0:0:0:0:
64,192,118710,1,2,0:0:0:0:
192,192,118813,1,2,0:0:0:0:
448,192,118916,1,14,0:0:0:0:
64,192,118916,1,14,0:0:0:0:
192,192,119018,1,2,0:0:0:0:
320,192,119121,1,2,0:0:0:0:
192,192,119224,1,2,0:0:0:0:
448,192,119327,1,2,0:0:0:0:
64,192,119327,1,2,0:0:0:0:
320,192,119429,1,2,0:0:0:0:
192,192,119532,1,2,0:0:0:0:
64,192,119635,1,2,0:0:0:0:
320,192,119738,1,2,0:0:0:0:
448,192,119738,1,2,0:0:0:0:
192,192,119840,1,2,0:0:0:0:
320,192,119943,1,2,0:0:0:0:
448,192,120046,1,2,0:0:0:0:
192,192,120149,1,10,0:0:0:0:
320,192,120149,1,10,0:0:0:0:
64,192,120251,1,2,0:0:0:0:
192,192,120354,1,2,0:0:0:0:
320,192,120457,1,2,0:0:0:0:
64,192,120559,1,6,0:0:0:0:
448,192,120559,128,6,121381:0:0:0:0:
192,192,120662,1,2,0:0:0:0:
64,192,120765,1,2,0:0:0:0:
320,192,120868,1,2,0:0:0:0:
192,192,120970,1,10,0:0:0:0:
320,192,121073,1,2,0:0:0:0:
64,192,121176,1,2,0:0:0:0:
192,192,121279,1,2,0:0:0:0:
320,192,121381,128,10,121587:0:0:0:0:
64,192,121381,1,10,0:0:0:0:
192,192,121587,128,2,121792:0:0:0:0:
448,192,121587,1,2,0:0:0:0:
64,192,121792,128,10,122203:0:0:0:0:
320,192,121792,1,10,0:0:0:0:
192,192,121998,1,2,0:0:0:0:
320,192,122203,1,14,0:0:0:0:
448,192,122203,128,14,124669:0:0:0:0:
