osu file format v12

[General]
AudioFilename: it.mp3
AudioLeadIn: 0
PreviewTime: 94967
Countdown: 0
SampleSet: Normal
StackLeniency: 0.7
Mode: 0
LetterboxInBreaks: 0
WidescreenStoryboard: 0

[Editor]
DistanceSpacing: 0.8
BeatDivisor: 4
GridSize: 4

[Metadata]
Title:Insane Techniques
TitleUnicode:Insane Techniques
Artist:kors k
ArtistUnicode:kors k
Creator:IceBeam
Version:Not Another
Source:beatmania IIDX
Tags:
BeatmapID:357134
BeatmapSetID:143605

[Difficulty]
HPDrainRate:7
CircleSize:4
OverallDifficulty:8
ApproachRate:9
SliderMultiplier:1.6
SliderTickRate:1

[Events]
//Background and Video events
0,0,"BG.jpg",0,0
//Break Periods
2,750,3237
2,7325,9813
//Storyboard Layer 0 (Background)
//Storyboard Layer 1 (Fail)
//Storyboard Layer 2 (Pass)
//Storyboard Layer 3 (Foreground)
//Storyboard Sound Samples
//Background Colour Transformations
3,100,163,162,255

[TimingPoints]
550,410.958904109589,4,1,1,40,1,0
3837,-200,4,2,1,5,0,0
10823,-100,4,1,1,5,0,0
11029,-100,4,1,1,10,0,0
11132,-100,4,1,1,15,0,0
11234,-100,4,1,1,20,0,0
11440,-100,4,1,1,25,0,0
11851,-100,4,1,1,30,0,0
12878,-200,4,2,1,5,0,0
13495,-100,4,1,1,30,0,0
13700,-100,4,1,1,50,0,1
13803,-100,4,1,1,50,0,0
19248,-200,4,1,1,50,0,0
19762,-100,4,1,1,50,0,0
20686,-100,4,1,1,30,0,0
21097,-80,4,1,1,35,0,0
21508,-66.6666666666667,4,1,1,40,0,0
21919,-100,4,1,1,50,0,0
25002,-100,4,1,1,30,0,0
25207,-100,4,1,1,50,0,0
25618,-100,4,2,1,30,0,0
26851,-100,4,1,1,50,0,1
26954,-100,4,1,1,50,0,0
36252,-66.6666666666667,4,1,1,50,0,0
36611,-100,4,2,1,50,0,0
36714,-100,4,1,1,50,0,0
46577,-100,4,1,1,35,0,0
46988,-100,4,1,1,50,0,0
49454,-100,4,1,1,40,0,0
49659,-100,4,2,1,30,0,0
49865,-133.333333333333,4,1,1,40,0,1
52330,-100,4,1,1,40,0,0
53049,-100,4,1,1,40,0,0
53152,-133.333333333333,4,1,1,50,0,1
53255,-133.333333333333,4,2,1,40,0,0
77810,-133.333333333333,4,1,1,20,0,0
78221,-133.333333333333,4,1,1,15,0,0
78632,-133.333333333333,4,1,1,10,0,0
79043,-133.333333333333,4,1,1,5,0,0
79454,-100,4,1,1,20,0,0
81097,-100,4,1,1,30,0,0
82741,-100,4,1,1,40,0,0
84385,-100,4,1,1,50,0,0
85618,-100,4,1,1,50,0,1
85721,-100,4,1,1,50,0,0
87262,-100,4,1,1,50,0,1
87365,-100,4,1,1,50,0,0
88289,-80,4,1,1,50,0,0
89317,-80,4,1,1,50,0,1
89573,-74.0740740740741,4,1,1,50,0,1
89876,-68.9655172413793,4,1,1,50,0,1
90163,-64.5161290322581,4,1,1,50,0,1
90498,-60.6060606060606,4,1,1,50,0,1
90960,-90.9090909090909,4,1,1,40,0,1
91782,-90.9090909090909,4,1,1,20,0,1
92502,-90.9090909090909,4,1,1,50,0,0
92604,-90.9090909090909,4,1,1,50,0,1
92707,-90.9090909090909,4,1,1,20,0,0
95070,-133.333333333333,4,1,1,30,0,0
95892,-80,4,1,1,50,0,1
108221,-133.333333333333,4,1,1,50,0,1
108734,-80,4,1,1,50,0,1
108940,-80,4,1,1,50,0,0
109043,-80,4,1,1,50,0,1
113974,-133.333333333333,4,1,1,30,0,0
115618,-80,4,1,1,50,0,1
118906,-100,4,1,1,50,0,1
120549,-133.333333333333,4,1,1,30,0,1
121577,-133.333333333333,4,1,1,40,0,1
121782,-133.333333333333,4,1,1,50,0,1
122091,-133.333333333333,4,1,1,50,0,0
122193,-133.333333333333,4,1,1,50,0,1
122296,-100,4,2,1,5,0,0

[Colours]
Combo1 : 255,255,255
Combo2 : 226,18,91
Combo3 : 72,12,154

[HitObjects]
168,184,550,1,0,0:0:0:0:
108,76,3837,6,0,P|40:208|128:304,1,280
220,300,5481,2,0,P|288:168|200:72,1,280
188,92,7125,21,0,0:0:0:0:
168,184,10413,5,0,1:0:0:0:
376,296,10823,22,0,L|340:300,14,26.6666666666667
388,252,11851,6,0,L|404:252,16,13.3333333333333
372,216,12467,6,0,B|368:212|372:208|376:212|368:216,14,10
372,216,12878,2,0,B|356:172|356:172|368:116,1,100
372,96,13495,2,0,L|372:72,3,13.3333333333333
376,40,13700,6,0,P|280:36|248:36,1,120,4|0,0:0|0:0,0:0:0:0:
232,40,14111,2,0,P|184:44|148:48,1,80,8|0,0:0|0:0,0:0:0:0:
160,212,14522,2,0,P|172:192|172:168,1,40
64,180,14728,2,0,P|52:200|52:224,1,40,2|0,2:0|0:0,0:0:0:0:
108,292,14933,1,8,0:0:0:0:
280,312,15139,2,0,B|344:304|344:304|372:316|372:316|448:304,1,160
448,320,15652,1,0,0:0:0:0:
460,332,15755,2,0,P|472:296|460:252,1,80,8|0,0:0|0:0,0:0:0:0:
176,164,16166,1,0,0:0:0:0:
204,160,16269,1,0,0:0:0:0:
232,156,16371,1,2,2:0:0:0:
260,152,16474,1,0,0:0:0:0:
292,176,16577,2,0,P|280:212|292:256,1,80,8|0,0:0|0:0,0:0:0:0:
444,160,16988,6,0,B|464:108|464:108|444:40,1,120
456,24,17399,2,0,L|376:20,1,80,8|0,0:0|0:0,0:0:0:0:
136,104,17810,2,0,L|184:96,1,40
144,204,18015,2,0,L|96:212,1,40,2|0,2:0|0:0,0:0:0:0:
32,132,18221,1,8,0:0:0:0:
256,180,18426,2,0,P|280:256|248:328,1,160
264,344,18940,1,0,0:0:0:0:
276,360,19042,1,8,0:0:0:0:
416,272,19248,6,2,B|420:256|420:256|416:248|416:248|424:240|424:240|420:232|420:232|428:224|428:224|428:200,1,80,2|8,0:0|0:0,0:0:0:0:
400,60,19865,5,0,0:0:0:0:
400,60,19967,1,0,0:0:0:0:
400,60,20070,1,8,0:0:0:0:
200,112,20276,2,0,P|140:96|96:48,1,120,4|0,3:0|0:0,0:0:0:0:
100,55,20686,2,2,L|16:60,1,80
128,304,21097,6,2,B|156:296|156:296|172:300|172:300|184:296|184:296|204:300|204:300|240:292,1,100
460,156,21508,22,2,B|424:148|424:148|408:152|408:152|396:148|396:148|376:152|376:152|332:144,1,120.000004577637,2|2,0:0|0:0,0:0:0:0:
44,128,21919,6,0,P|44:180|52:252,1,120,4|0,0:0|0:0,0:0:0:0:
56,272,22330,1,8,0:0:0:0:
208,340,22536,1,0,2:0:0:0:
212,320,22639,1,0,0:0:0:0:
300,340,22741,1,0,2:0:0:0:
296,320,22844,1,0,0:0:0:0:
388,320,22947,1,0,2:0:0:0:
380,304,23049,1,0,0:0:0:0:
404,208,23152,2,0,P|448:200|480:176,1,80,8|0,0:0|0:0,0:0:0:0:
316,80,23563,22,0,P|248:84|200:112,1,120
212,132,23974,2,0,P|160:128|124:128,1,80,8|0,0:0|0:0,0:0:0:0:
28,160,24385,1,4,0:0:0:0:
28,160,24796,1,4,2:0:0:0:
124,312,25002,2,0,B|120:308|124:304|128:312|120:312,6,10
124,312,25207,6,0,L|224:300,1,80
396,328,25618,1,0,0:0:0:0:
396,328,25823,1,0,0:0:0:0:
456,164,26132,1,0,0:0:0:0:
380,80,26337,2,0,L|384:60,13,13.3333333333333
384,100,26851,22,2,P|344:96|300:96,1,80,6|0,0:0|0:0,0:0:0:0:
56,204,27262,2,2,B|52:248|52:248|72:284,1,80,8|2,0:0|0:0,0:0:0:0:
148,232,27570,2,0,B|152:188|152:188|132:152,1,80,0|0,0:0|0:0,0:0:0:0:
144,136,27878,1,2,0:0:0:0:
152,116,27981,1,0,0:0:0:0:
160,96,28084,2,0,L|240:88,1,80,8|2,0:0|0:0,0:0:0:0:
352,304,28495,6,2,L|272:296,1,80,2|0,0:0|0:0,0:0:0:0:
64,280,28906,2,2,P|48:244|56:204,1,80,8|2,0:0|0:0,0:0:0:0:
140,156,29214,2,0,P|156:192|148:232,1,80
148,324,29522,1,2,0:0:0:0:
352,304,29728,1,8,0:0:0:0:
148,324,29933,1,2,0:0:0:0:
364,320,30139,22,2,P|368:280|364:240,1,80,2|0,0:0|0:0,0:0:0:0:
436,136,30549,1,8,0:0:0:0:
356,36,30755,1,2,0:0:0:0:
356,36,30858,1,0,0:0:0:0:
232,72,31063,1,0,0:0:0:0:
201,62,31166,1,2,0:0:0:0:
168,63,31269,1,0,0:0:0:0:
137,73,31371,1,8,0:0:0:0:
56,172,31577,1,2,0:0:0:0:
260,272,31782,6,2,P|256:312|276:352,1,80,2|0,0:0|0:0,0:0:0:0:
440,216,32193,2,0,P|448:176|436:136,1,80,8|2,0:0|0:0,0:0:0:0:
444,120,32502,1,0,0:0:0:0:
360,36,32707,1,0,0:0:0:0:
360,36,32810,1,2,0:0:0:0:
244,72,33015,2,2,P|184:60|140:20,1,120,10|2,0:0|0:0,0:0:0:0:
141,21,33426,22,0,L|48:28,1,80,6|0,0:0|0:0,0:0:0:0:
128,184,33837,2,2,L|221:177,1,80,8|2,0:0|0:0,0:0:0:0:
228,212,34145,2,0,B|216:252|216:252|232:292,1,80
260,320,34454,1,2,0:0:0:0:
284,316,34557,1,0,0:0:0:0:
308,312,34660,1,8,0:0:0:0:
448,340,34865,1,2,0:0:0:0:
448,184,35070,6,2,P|460:152|444:100,1,80,2|0,0:0|0:0,0:0:0:0:
112,60,35481,2,2,B|72:60|72:60|40:88,1,80,8|2,0:0|0:0,0:0:0:0:
40,192,35789,2,0,B|80:192|80:192|112:164,1,80
208,116,36098,1,2,0:0:0:0:
456,204,36303,6,0,P|368:192|296:244,1,180.000006866455,4|0,0:0|0:0,0:0:0:0:
308,264,36715,5,4,0:0:0:0:
100,196,37022,1,0,1:0:0:0:
336,140,37330,1,0,0:0:0:0:
48,60,37639,1,0,0:0:0:0:
464,28,37947,1,0,0:0:0:0:
456,148,38152,1,0,2:0:0:0:
336,140,38358,1,0,0:0:0:0:
336,140,38769,1,0,3:0:0:0:
256,192,38871,12,4,40002,0:0:0:0:
92,136,40413,5,8,0:0:0:0:
196,56,40618,1,2,0:0:0:0:
196,56,40721,1,0,0:0:0:0:
316,116,40926,1,0,0:0:0:0:
316,116,41029,1,2,0:0:0:0:
448,92,41234,2,0,P|456:52|444:12,1,80,8|2,0:0|0:0,0:0:0:0:
208,200,41645,22,2,P|200:240|220:284,1,80,2|0,0:0|0:0,0:0:0:0:
348,336,42056,2,2,L|436:328,1,80,8|2,0:0|0:0,0:0:0:0:
427,328,42365,2,0,L|452:240,1,80
432,212,42673,1,2,0:0:0:0:
408,204,42776,1,0,0:0:0:0:
384,196,42878,1,8,0:0:0:0:
204,200,43084,1,2,0:0:0:0:
220,36,43289,6,2,P|260:32|304:28,1,80,2|0,0:0|0:0,0:0:0:0:
204,200,43700,2,2,P|164:204|120:208,1,80,8|2,0:0|0:0,0:0:0:0:
124,207,44008,2,0,L|96:256|80:284,1,80
76,296,44317,1,2,0:0:0:0:
216,344,44522,2,0,B|248:324|248:324|296:328,1,80,8|2,0:0|0:0,0:0:0:0:
408,168,44933,22,2,B|376:188|376:188|328:184,1,80,2|0,0:0|0:0,0:0:0:0:
276,60,45344,1,8,0:0:0:0:
152,116,45549,1,0,0:0:0:0:
152,116,45652,2,0,L|56:124,1,80
48,152,45960,1,2,0:0:0:0:
56,176,46063,1,0,0:0:0:0:
64,200,46166,1,8,0:0:0:0:
336,236,46371,1,2,0:0:0:0:
44,304,46577,6,0,L|24:312,9,13.3333333333333
48,320,46988,2,2,L|128:312,1,80,12|2,0:0|0:0,0:0:0:0:
168,280,47296,2,0,P|156:248|164:200,1,80
168,184,47604,1,2,0:0:0:0:
192,52,47810,2,0,L|272:44,1,80,8|2,0:0|0:0,0:0:0:0:
416,240,48221,22,2,L|336:236,1,80,2|0,0:0|0:0,0:0:0:0:
56,188,48632,1,8,0:0:0:0:
60,204,48837,1,2,0:0:0:0:
68,220,49043,2,0,P|48:168|76:96,1,120
84,128,49454,2,0,P|124:120|176:56,1,120,0|0,0:0|0:0,0:0:0:0:
196,76,49865,5,0,0:0:0:0:
436,88,50276,1,0,0:0:0:0:
424,328,50686,1,0,0:0:0:0:
184,316,51097,1,0,0:0:0:0:
124,48,51508,22,0,L|52:56,1,60.0000022888184
112,176,51919,2,0,L|176:180,1,60.0000022888184
256,88,52330,5,0,0:0:0:0:
286,77,52433,1,0,0:0:0:0:
318,79,52536,1,0,0:0:0:0:
348,88,52639,1,0,0:0:0:0:
424,132,52741,21,0,0:0:0:0:
438,160,52844,1,0,0:0:0:0:
438,192,52947,1,0,0:0:0:0:
428,222,53049,1,0,0:0:0:0:
424,308,53152,5,0,0:0:0:0:
312,280,53358,2,0,P|252:284|196:256,1,120.000004577637
184,276,53974,2,0,B|164:224|164:224|184:152,1,120.000004577637
152,72,54591,2,0,P|212:64|284:60,1,120.000004577637
364,24,55207,1,0,0:0:0:0:
456,168,55618,1,0,0:0:0:0:
368,208,55823,2,0,P|380:268|352:324,1,120.000004577637
368,344,56440,22,0,P|308:336|236:372,1,120.000004577637
164,332,57057,1,0,0:0:0:0:
52,216,57468,1,0,0:0:0:0:
112,148,57673,2,0,B|92:92|92:92|112:32,1,120.000004577637
200,68,58289,2,0,P|252:64|316:16,1,120.000004577637
324,48,58906,2,0,L|392:40,1,60.0000022888184
296,216,59317,2,0,L|228:212,1,60.0000022888184
52,152,59728,5,0,0:0:0:0:
32,240,59933,2,0,P|24:300|56:360,1,120.000004577637
140,328,60549,2,0,B|184:320|184:320|216:328|216:328|276:316,1,120.000004577637
344,344,61166,1,0,0:0:0:0:
456,224,61577,1,0,0:0:0:0:
388,160,61782,2,0,P|404:104|380:44,1,120.000004577637
400,28,62399,2,0,L|268:24,1,120.000004577637
184,40,63015,21,0,0:0:0:0:
236,192,63426,1,0,0:0:0:0:
144,160,63632,2,0,P|80:156|24:196,1,120.000004577637
56,284,64248,2,0,P|120:288|176:248,1,120.000004577637
264,288,64865,2,0,B|324:284|324:284|376:324,1,120.000004577637
400,312,65481,2,0,L|412:244,1,60.0000022888184
276,128,65892,2,0,L|284:200,1,60.0000022888184
420,48,66303,5,4,1:0:0:0:
320,44,66508,2,0,P|260:36|204:60,1,120.000004577637
112,52,67125,2,0,B|96:108|96:108|120:168,1,120.000004577637
64,236,67741,1,0,0:0:0:0:
220,336,68152,1,0,0:0:0:0:
296,280,68358,2,0,L|420:292,1,120.000004577637
428,200,68974,2,0,L|304:188,1,120.000004577637
224,140,69591,22,0,P|240:84|216:24,1,120.000004577637
116,32,70207,2,0,P|100:88|124:148,1,120.000004577637
72,224,70824,1,0,0:0:0:0:
216,344,71235,1,0,0:0:0:0:
304,312,71440,2,0,P|368:292|392:236,1,120.000004577637
420,264,72056,2,0,L|488:256,1,60.0000022888184
412,116,72467,2,0,L|348:112,1,60.0000022888184
328,112,72776,1,0,0:0:0:0:
308,112,72878,5,4,0:0:0:0:
236,52,73084,2,0,B|176:44|176:44|108:72,1,120.000004577637
44,120,73700,2,0,P|36:184|56:240,1,120.000004577637
48,260,74317,2,0,P|104:236|168:252,1,120.000004577637
232,308,74933,1,0,0:0:0:0:
436,248,75344,1,0,0:0:0:0:
396,160,75550,2,0,P|412:104|388:40,1,120.000004577637
408,28,76166,22,0,L|284:24,1,120.000004577637
227,109,76782,1,0,0:0:0:0:
56,72,77193,1,0,0:0:0:0:
36,168,77399,2,0,P|32:216|44:264,1,90.0000034332277
80,280,77810,5,0,0:0:0:0:
108,276,77913,1,0,0:0:0:0:
136,272,78015,1,0,0:0:0:0:
164,268,78118,1,0,0:0:0:0:
231,209,78221,21,0,0:0:0:0:
220,180,78323,1,0,0:0:0:0:
221,151,78426,1,0,0:0:0:0:
231,124,78529,1,0,0:0:0:0:
312,168,78632,5,0,0:0:0:0:
323,197,78734,1,0,0:0:0:0:
322,226,78837,1,0,0:0:0:0:
312,253,78940,1,0,0:0:0:0:
320,344,79043,21,0,0:0:0:0:
292,340,79146,1,0,0:0:0:0:
264,336,79248,1,0,0:0:0:0:
236,332,79351,1,0,0:0:0:0:
152,320,79454,6,0,L|64:328,1,80,4|0,0:0|0:0,0:0:0:0:
72,327,79762,2,0,P|52:272|72:208,1,120
176,124,80276,1,0,0:0:0:0:
204,120,80378,1,0,0:0:0:0:
232,116,80481,1,0,0:0:0:0:
260,112,80584,1,0,0:0:0:0:
300,144,80686,2,0,P|292:184|312:228,1,80
456,144,81097,22,0,P|464:104|448:64,1,80
464,48,81406,2,0,L|340:40,1,120
112,72,81919,1,0,0:0:0:0:
116,96,82022,1,0,0:0:0:0:
120,120,82125,1,0,0:0:0:0:
124,144,82228,1,0,0:0:0:0:
128,168,82330,2,0,L|48:164,1,80
124,320,82741,6,0,L|208:312,1,80
224,332,83050,2,0,P|204:280|224:208,1,120
264,64,83563,1,0,0:0:0:0:
292,68,83666,1,0,0:0:0:0:
320,72,83769,1,0,0:0:0:0:
348,76,83871,1,0,0:0:0:0:
376,80,83974,2,0,B|408:60|408:60|452:64,1,80
392,216,84385,22,0,B|360:236|360:236|316:232,1,80
317,232,84693,2,0,L|308:352,1,120
152,232,85207,2,0,P|180:232|212:248,1,40
160,324,85413,2,0,P|116:320|96:312,1,40
56,248,85618,21,4,0:0:0:0:
448,288,85823,1,4,0:0:0:0:
420,128,86029,22,0,L|460:124,1,40,0|0,0:0|0:0,0:0:0:0:
376,44,86234,2,0,L|332:40,1,40
268,136,86440,2,0,L|324:132,1,40
220,52,86645,2,0,L|176:48,1,40
120,148,86851,2,0,L|168:144,1,40
88,52,87056,2,0,L|32:48,1,40
20,156,87262,5,4,0:0:0:0:
472,204,87467,1,4,0:0:0:0:
300,248,87673,6,0,L|312:328,1,80
324,348,87981,2,0,L|188:336,1,120
168,304,88392,21,0,2:0:0:0:
124,308,88495,1,0,0:0:0:0:
80,312,88597,1,0,0:0:0:0:
36,316,88700,2,0,P|20:268|32:212,1,100
120,52,89111,2,0,P|124:88|108:124,1,50
104,132,89317,6,0,B|148:112|148:112|216:124,1,100,4|0,0:0|0:0,0:0:0:0:
456,60,89625,6,0,P|468:116|440:184,1,108.000000411987,4|0,0:0|0:0,0:0:0:0:
160,324,89933,22,0,P|148:268|176:200,1,116.000003540039,4|0,0:0|0:0,0:0:0:0:
472,184,90241,6,0,L|340:176,1,124.000000946045,4|0,0:0|0:0,0:0:0:0:
24,56,90550,22,0,L|160:48,1,132.00000125885,4|0,0:0|0:0,0:0:0:0:
456,64,90960,5,0,0:0:0:0:
471,95,91063,1,0,0:0:0:0:
475,129,91166,1,0,0:0:0:0:
467,163,91269,1,0,0:0:0:0:
448,193,91371,1,0,0:0:0:0:
412,188,91474,1,0,0:0:0:0:
378,196,91577,1,0,0:0:0:0:
346,211,91680,1,0,0:0:0:0:
323,237,91782,22,0,L|328:260,14,22.0000006713867
321,276,92604,5,4,0:0:0:0:
256,192,92707,12,0,95070,0:0:0:0:
412,304,95481,6,0,B|418:285|418:285|411:280|411:280|419:277|419:277|411:271|411:271|419:268|419:268|412:263|412:263|418:240,1,90.0000034332277,8|0,3:0|0:0,0:0:0:0:
424,208,95892,5,6,0:0:0:0:
376,72,96097,1,0,0:0:0:0:
376,72,96200,2,0,B|308:40|308:40|208:52,1,150,2|2,0:0|0:0,0:0:0:0:
48,236,96714,2,0,P|36:208|40:172,1,50
152,204,96919,2,0,P|164:232|160:268,1,50,2|0,0:0|0:0,0:0:0:0:
244,328,97125,2,0,L|352:320,1,100,0|2,0:0|0:0,0:0:0:0:
392,88,97536,6,0,L|280:84,1,100,2|0,0:0|0:0,0:0:0:0:
212,28,97844,2,0,P|196:100|232:164,1,150,2|2,0:0|0:0,0:0:0:0:
432,324,98358,2,0,L|444:268,1,50,0|0,0:0|0:0,0:0:0:0:
352,268,98563,2,0,L|340:316,1,50,2|0,0:0|0:0,0:0:0:0:
244,328,98769,2,0,L|268:220,1,100,0|2,0:0|0:0,0:0:0:0:
220,52,99180,22,0,P|164:48|116:76,1,100,2|0,0:0|0:0,0:0:0:0:
36,72,99488,2,0,B|60:144|60:144|28:216,1,150,2|2,0:0|0:0,0:0:0:0:
88,272,99899,1,0,0:0:0:0:
121,250,100002,1,0,0:0:0:0:
159,238,100104,1,0,0:0:0:0:
198,241,100207,1,2,0:0:0:0:
236,251,100310,1,0,0:0:0:0:
268,273,100413,2,0,P|317:270|366:236,1,100,0|2,0:0|0:0,0:0:0:0:
415,43,100823,6,0,P|366:46|317:80,1,100,2|0,0:0|0:0,0:0:0:0:
336,92,101132,2,0,L|176:76,1,150,2|2,0:0|0:0,0:0:0:0:
92,104,101543,1,0,0:0:0:0:
96,132,101645,1,0,0:0:0:0:
100,160,101748,1,0,0:0:0:0:
104,188,101851,1,2,0:0:0:0:
108,216,101954,1,0,0:0:0:0:
112,244,102056,1,0,0:0:0:0:
268,344,102262,1,2,0:0:0:0:
388,200,102467,22,0,P|440:188|480:152,1,100,6|0,0:0|0:0,0:0:0:0:
484,180,102776,2,0,B|456:128|456:128|468:36,1,150,2|2,0:0|0:0,0:0:0:0:
272,32,103289,2,0,L|208:28,1,50
188,136,103495,2,0,L|252:132,1,50,2|0,0:0|0:0,0:0:0:0:
124,60,103700,2,0,B|72:56|72:56|20:92,1,100,0|2,0:0|0:0,0:0:0:0:
136,336,104111,6,0,B|188:340|188:340|240:304,1,100,2|0,0:0|0:0,0:0:0:0:
176,240,104419,2,0,P|252:224|308:268,1,150,2|2,0:0|0:0,0:0:0:0:
408,76,104933,2,0,P|416:48|408:20,1,50
304,64,105139,2,0,P|296:92|304:120,1,50,2|0,0:0|0:0,0:0:0:0:
388,176,105344,2,0,L|492:168,1,100,0|2,0:0|0:0,0:0:0:0:
252,320,105755,22,0,L|136:312,1,100,6|0,0:0|0:0,0:0:0:0:
136,336,106063,2,0,P|108:268|132:196,1,150,2|2,0:0|0:0,0:0:0:0:
80,112,106474,1,0,0:0:0:0:
111,86,106577,1,0,0:0:0:0:
150,77,106680,1,0,0:0:0:0:
189,77,106782,1,2,0:0:0:0:
228,85,106885,1,0,0:0:0:0:
265,100,106988,2,0,P|337:96|403:42,1,150,2|0,0:0|2:0,0:0:0:0:
428,76,107399,5,4,0:0:0:0:
72,136,107604,1,4,0:0:0:0:
416,176,107810,1,0,0:0:0:0:
88,232,108015,1,0,0:0:0:0:
184,324,108221,6,0,P|240:304|304:316,1,120.000004577637,4|0,0:0|0:0,0:0:0:0:
332,332,108734,21,0,0:0:0:0:
370,342,108837,1,0,0:0:0:0:
409,333,108940,1,0,0:0:0:0:
444,314,109043,22,0,P|456:270|436:218,1,100,6|0,0:0|0:0,0:0:0:0:
360,120,109351,2,0,L|464:112,1,100,2|0,0:0|2:0,0:0:0:0:
448,16,109659,2,0,L|332:24,1,100,2|0,0:0|0:0,0:0:0:0:
256,84,109967,1,0,0:0:0:0:
217,71,110070,1,2,0:0:0:0:
177,75,110173,1,0,0:0:0:0:
147,101,110276,2,0,P|162:149|145:201,1,100,0|2,0:0|0:0,0:0:0:0:
36,348,110686,6,0,P|21:300|38:248,1,100,2|0,0:0|0:0,0:0:0:0:
128,216,110995,2,0,L|232:212,1,100,2|0,1:0|2:0,0:0:0:0:
304,272,111303,1,2,0:0:0:0:
449,104,111508,1,0,0:0:0:0:
430,140,111611,1,0,0:0:0:0:
432,181,111714,1,2,0:0:0:0:
448,218,111817,1,0,0:0:0:0:
478,244,111919,2,2,P|409:264|373:331,1,150,2|0,0:0|2:0,0:0:0:0:
396,348,112330,22,0,L|276:340,1,100,2|0,0:0|0:0,0:0:0:0:
160,344,112639,2,0,P|140:304|156:244,1,100,2|0,1:0|2:0,0:0:0:0:
80,152,112947,1,2,0:0:0:0:
116,166,113049,1,0,0:0:0:0:
156,167,113152,1,0,0:0:0:0:
195,160,113255,1,0,0:0:0:0:
232,145,113358,1,2,0:0:0:0:
261,117,113460,1,0,0:0:0:0:
272,78,113563,1,4,0:0:0:0:
136,28,113769,1,2,0:0:0:0:
60,256,113974,22,0,L|56:316,2,40.000001525879
208,216,114385,2,0,L|200:160,2,40.000001525879
356,276,114796,1,4,0:0:0:0:
442,294,115002,1,0,0:0:0:0:
460,207,115207,1,8,0:0:0:0:
374,190,115413,1,0,0:0:0:0:
172,32,115618,22,0,P|120:24|72:40,1,100,6|0,0:0|0:0,0:0:0:0:
220,136,115926,2,0,P|272:144|320:128,1,100,2|0,0:0|2:0,0:0:0:0:
460,112,116234,2,0,B|476:164|476:164|456:220,1,100,2|0,0:0|0:0,0:0:0:0:
352,276,116543,1,0,0:0:0:0:
312,268,116645,1,2,0:0:0:0:
272,264,116748,1,0,0:0:0:0:
232,260,116851,2,0,P|171:263|126:266,1,100,0|2,0:0|0:0,0:0:0:0:
48,72,117262,22,0,P|109:69|154:66,1,100,2|0,0:0|0:0,0:0:0:0:
176,88,117570,1,2,0:0:0:0:
204,108,117673,2,0,P|260:84|288:40,1,100,0|2,0:0|0:0,0:0:0:0:
438,211,118084,22,0,L|471:213,2,25
356,276,118392,1,0,0:0:0:0:
96,316,118700,1,0,0:0:0:0:
44,196,118906,22,0,L|36:112,1,80,4|0,0:0|0:0,0:0:0:0:
156,56,119317,2,0,L|164:140,1,80,0|0,0:0|0:0,0:0:0:0:
384,192,119728,22,0,P|428:180|476:192,1,80
432,292,120139,2,0,P|388:304|340:292,1,80
108,332,120549,22,0,P|56:224|112:124,1,240.000009155274,4|0,2:0|1:0,0:0:0:0:
96,84,121474,5,0,0:0:0:0:
128,80,121577,1,0,0:0:0:0:
160,76,121680,1,0,0:0:0:0:
192,72,121782,1,0,0:0:0:0:
224,68,121885,1,0,0:0:0:0:
256,64,121988,1,0,0:0:0:0:
288,60,122091,1,0,0:0:0:0:
320,56,122193,5,4,0:0:0:0:
256,192,122296,12,0,124659,0:0:0:0:
