osu file format v13

[General]
AudioFilename: ite.mp3
AudioLeadIn: 0
PreviewTime: 275040
Countdown: 0
SampleSet: Normal
StackLeniency: 0.7
Mode: 3
LetterboxInBreaks: 0
SpecialStyle: 0
WidescreenStoryboard: 0

[Editor]
DistanceSpacing: 0.5
BeatDivisor: 4
GridSize: 4
TimelineZoom: 1

[Metadata]
Title:Insane Techniques (Extended)
TitleUnicode:Insane Techniques (Extended)
Artist:kors k
ArtistUnicode:kors k
Creator:LeiN-
Version:EXT
Source:Let's Do It Now!!
Tags:first major album electronic NEDM NotEvenDoomMusic
BeatmapID:438755
BeatmapSetID:183082

[Difficulty]
HPDrainRate:8
CircleSize:4
OverallDifficulty:7
ApproachRate:5
SliderMultiplier:1.4
SliderTickRate:1

[Events]
//Background and Video events
0,0,"bg.jpg",0,0
//Break Periods
//Storyboard Layer 0 (Background)
//Storyboard Layer 1 (Fail)
//Storyboard Layer 2 (Pass)
//Storyboard Layer 3 (Foreground)
//Storyboard Sound Samples
//Background Colour Transformations
3,100,163,162,255

[TimingPoints]
520,410.958904109589,4,1,0,0,1,0
275040,-100,4,1,0,0,0,1
287984,-100,4,1,0,0,0,0
287985,-100,4,1,0,0,0,1
301340,-100,4,1,0,0,0,0
301341,-100,4,1,0,0,0,1
314491,-100,4,1,0,0,0,0
314492,-100,4,1,0,0,0,1
327642,-100,4,1,0,0,0,0
327643,-100,4,1,0,0,0,1
334217,-100,4,1,0,0,0,0
334218,-100,4,1,0,0,0,1
340791,-100,4,1,0,0,0,0
340792,-100,4,1,0,0,0,1
340793,-100,4,1,0,0,0,0

[HitObjects]
64,192,520,5,0,0:0:0:77:≥ε≤.wav
192,192,622,1,0,0:0:0:77:≥ε≤.wav
320,192,725,1,0,0:0:0:77:≥ε≤.wav
64,192,828,1,0,0:0:0:77:≥ε≤.wav
448,192,930,1,0,0:0:0:77:≥ε≤.wav
320,192,1033,1,0,0:0:0:77:≥ε≤.wav
192,192,1136,1,0,0:0:0:77:≥ε≤.wav
448,192,1239,1,0,0:0:0:77:≥ε≤.wav
192,192,1341,1,0,0:0:0:77:≥ε≤.wav
320,192,1444,1,0,0:0:0:77:≥ε≤.wav
64,192,1547,1,0,0:0:0:77:≥ε≤.wav
448,192,1650,1,0,0:0:0:77:≥ε≤.wav
320,192,1752,1,0,0:0:0:77:≥ε≤.wav
192,192,1855,1,0,0:0:0:77:≥ε≤.wav
320,192,1958,1,0,0:0:0:77:≥ε≤.wav
448,192,2061,1,0,0:0:0:77:≥ε≤.wav
64,192,2163,1,0,0:0:0:77:≥ε≤.wav
192,192,2266,1,0,0:0:0:77:≥ε≤.wav
320,192,2369,1,0,0:0:0:77:≥ε≤.wav
64,192,2472,1,0,0:0:0:77:≥ε≤.wav
448,192,2574,1,0,0:0:0:77:≥ε≤.wav
320,192,2677,1,0,0:0:0:77:≥ε≤.wav
192,192,2780,1,0,0:0:0:77:≥ε≤.wav
448,192,2883,1,0,0:0:0:77:≥ε≤.wav
192,192,2985,1,0,0:0:0:77:≥ε≤.wav
320,192,3088,1,0,0:0:0:77:≥ε≤.wav
64,192,3191,1,0,0:0:0:77:≥ε≤.wav
448,192,3293,1,0,0:0:0:77:≥ε≤.wav
320,192,3396,1,0,0:0:0:77:≥ε≤.wav
192,192,3499,1,0,0:0:0:77:≥ε≤.wav
320,192,3602,1,0,0:0:0:77:≥ε≤.wav
448,192,3704,1,0,0:0:0:77:≥ε≤.wav
64,192,3807,1,0,0:0:0:77:≥ε≤.wav
192,192,3910,1,0,0:0:0:77:≥ε≤.wav
320,192,4013,1,0,0:0:0:77:≥ε≤.wav
64,192,4115,1,0,0:0:0:77:≥ε≤.wav
448,192,4218,1,0,0:0:0:77:≥ε≤.wav
320,192,4321,1,0,0:0:0:77:≥ε≤.wav
192,192,4424,1,0,0:0:0:77:≥ε≤.wav
448,192,4526,1,0,0:0:0:77:≥ε≤.wav
192,192,4629,1,0,0:0:0:77:≥ε≤.wav
320,192,4732,1,0,0:0:0:77:≥ε≤.wav
64,192,4835,1,0,0:0:0:77:≥ε≤.wav
448,192,4937,1,0,0:0:0:77:≥ε≤.wav
320,192,5040,1,0,0:0:0:77:≥ε≤.wav
192,192,5143,1,0,0:0:0:77:≥ε≤.wav
320,192,5246,1,0,0:0:0:77:≥ε≤.wav
448,192,5348,1,0,0:0:0:77:≥ε≤.wav
64,192,5451,1,0,0:0:0:77:≥ε≤.wav
192,192,5554,1,0,0:0:0:77:≥ε≤.wav
320,192,5656,1,0,0:0:0:77:≥ε≤.wav
64,192,5759,1,0,0:0:0:77:≥ε≤.wav
448,192,5862,1,0,0:0:0:77:≥ε≤.wav
320,192,5965,1,0,0:0:0:77:≥ε≤.wav
192,192,6067,1,0,0:0:0:77:≥ε≤.wav
448,192,6170,1,0,0:0:0:77:≥ε≤.wav
192,192,6273,1,0,0:0:0:77:≥ε≤.wav
320,192,6376,1,0,0:0:0:77:≥ε≤.wav
64,192,6478,1,0,0:0:0:77:≥ε≤.wav
448,192,6581,1,0,0:0:0:77:≥ε≤.wav
320,192,6684,1,0,0:0:0:77:≥ε≤.wav
192,192,6787,1,0,0:0:0:77:≥ε≤.wav
320,192,6889,1,0,0:0:0:77:≥ε≤.wav
448,192,6992,1,0,0:0:0:77:≥ε≤.wav
64,192,7095,1,0,0:0:0:77:≥ε≤.wav
320,192,7198,1,0,0:0:0:77:≥ε≤.wav
192,192,7300,1,0,0:0:0:77:≥ε≤.wav
448,192,7403,1,0,0:0:0:77:≥ε≤.wav
64,192,7506,1,0,0:0:0:77:≥ε≤.wav
320,192,7609,1,0,0:0:0:77:≥ε≤.wav
192,192,7711,1,0,0:0:0:77:≥ε≤.wav
64,192,7814,1,0,0:0:0:77:≥ε≤.wav
448,192,7917,1,0,0:0:0:77:≥ε≤.wav
192,192,8019,1,0,0:0:0:77:≥ε≤.wav
320,192,8122,1,0,0:0:0:77:≥ε≤.wav
64,192,8225,1,0,0:0:0:77:≥ε≤.wav
320,192,8328,1,0,0:0:0:77:≥ε≤.wav
192,192,8430,1,0,0:0:0:77:≥ε≤.wav
320,192,8533,1,0,0:0:0:77:≥ε≤.wav
448,192,8636,1,0,0:0:0:77:≥ε≤.wav
64,192,8739,1,0,0:0:0:77:≥ε≤.wav
320,192,8841,1,0,0:0:0:77:≥ε≤.wav
192,192,8944,1,0,0:0:0:77:≥ε≤.wav
448,192,9047,1,0,0:0:0:77:≥ε≤.wav
64,192,9150,1,0,0:0:0:77:≥ε≤.wav
320,192,9252,1,0,0:0:0:77:≥ε≤.wav
192,192,9355,1,0,0:0:0:77:≥ε≤.wav
64,192,9458,1,0,0:0:0:77:≥ε≤.wav
448,192,9561,1,0,0:0:0:77:≥ε≤.wav
192,192,9663,1,0,0:0:0:77:≥ε≤.wav
320,192,9766,1,0,0:0:0:77:≥ε≤.wav
64,192,9869,1,0,0:0:0:77:≥ε≤.wav
320,192,9972,1,0,0:0:0:77:≥ε≤.wav
192,192,10074,1,0,0:0:0:77:≥ε≤.wav
320,192,10177,1,0,0:0:0:77:≥ε≤.wav
448,192,10280,1,0,0:0:0:77:≥ε≤.wav
64,192,10383,1,0,0:0:0:77:≥ε≤.wav
320,192,10485,1,0,0:0:0:77:≥ε≤.wav
192,192,10588,1,0,0:0:0:77:≥ε≤.wav
448,192,10691,1,0,0:0:0:77:≥ε≤.wav
64,192,10793,1,0,0:0:0:77:≥ε≤.wav
320,192,10896,1,0,0:0:0:77:≥ε≤.wav
192,192,10999,1,0,0:0:0:77:≥ε≤.wav
64,192,11102,1,0,0:0:0:77:≥ε≤.wav
448,192,11204,1,0,0:0:0:77:≥ε≤.wav
192,192,11307,1,0,0:0:0:77:≥ε≤.wav
320,192,11410,1,0,0:0:0:77:≥ε≤.wav
64,192,11513,1,0,0:0:0:77:≥ε≤.wav
320,192,11615,1,0,0:0:0:77:≥ε≤.wav
192,192,11718,1,0,0:0:0:77:≥ε≤.wav
320,192,11821,1,0,0:0:0:77:≥ε≤.wav
448,192,11924,1,0,0:0:0:77:≥ε≤.wav
64,192,12026,1,0,0:0:0:77:≥ε≤.wav
320,192,12129,1,0,0:0:0:77:≥ε≤.wav
192,192,12232,1,0,0:0:0:77:≥ε≤.wav
448,192,12335,1,0,0:0:0:77:≥ε≤.wav
64,192,12437,1,0,0:0:0:77:≥ε≤.wav
320,192,12540,1,0,0:0:0:77:≥ε≤.wav
192,192,12643,1,0,0:0:0:77:≥ε≤.wav
64,192,12746,1,0,0:0:0:77:≥ε≤.wav
448,192,12848,1,0,0:0:0:77:≥ε≤.wav
192,192,12951,1,0,0:0:0:77:≥ε≤.wav
320,192,13054,1,0,0:0:0:77:≥ε≤.wav
64,192,13156,1,0,0:0:0:77:≥ε≤.wav
320,192,13259,1,0,0:0:0:77:≥ε≤.wav
192,192,13362,1,0,0:0:0:77:≥ε≤.wav
320,192,13465,1,0,0:0:0:77:≥ε≤.wav
448,192,13567,1,0,0:0:0:77:≥ε≤.wav
64,192,13670,1,0,0:0:0:77:≥ε≤.wav
448,192,13773,1,0,0:0:0:77:≥ε≤.wav
192,192,13876,1,0,0:0:0:77:≥ε≤.wav
448,192,13978,1,0,0:0:0:77:≥ε≤.wav
64,192,14081,1,0,0:0:0:77:≥ε≤.wav
320,192,14184,1,0,0:0:0:77:≥ε≤.wav
192,192,14287,1,0,0:0:0:77:≥ε≤.wav
64,192,14389,1,0,0:0:0:77:≥ε≤.wav
448,192,14492,1,0,0:0:0:77:≥ε≤.wav
192,192,14595,1,0,0:0:0:77:≥ε≤.wav
320,192,14698,1,0,0:0:0:77:≥ε≤.wav
64,192,14800,1,0,0:0:0:77:≥ε≤.wav
448,192,14903,1,0,0:0:0:77:≥ε≤.wav
192,192,15006,1,0,0:0:0:77:≥ε≤.wav
320,192,15109,1,0,0:0:0:77:≥ε≤.wav
448,192,15211,1,0,0:0:0:77:≥ε≤.wav
64,192,15314,1,0,0:0:0:77:≥ε≤.wav
448,192,15417,1,0,0:0:0:77:≥ε≤.wav
192,192,15520,1,0,0:0:0:77:≥ε≤.wav
448,192,15622,1,0,0:0:0:77:≥ε≤.wav
64,192,15725,1,0,0:0:0:77:≥ε≤.wav
320,192,15828,1,0,0:0:0:77:≥ε≤.wav
192,192,15930,1,0,0:0:0:77:≥ε≤.wav
64,192,16033,1,0,0:0:0:77:≥ε≤.wav
448,192,16136,1,0,0:0:0:77:≥ε≤.wav
192,192,16239,1,0,0:0:0:77:≥ε≤.wav
320,192,16341,1,0,0:0:0:77:≥ε≤.wav
64,192,16444,1,0,0:0:0:77:≥ε≤.wav
448,192,16547,1,0,0:0:0:77:≥ε≤.wav
192,192,16650,1,0,0:0:0:77:≥ε≤.wav
320,192,16752,1,0,0:0:0:77:≥ε≤.wav
448,192,16855,1,0,0:0:0:77:≥ε≤.wav
64,192,16958,1,0,0:0:0:77:≥ε≤.wav
448,192,17061,1,0,0:0:0:77:≥ε≤.wav
192,192,17163,1,0,0:0:0:77:≥ε≤.wav
448,192,17266,1,0,0:0:0:77:≥ε≤.wav
64,192,17369,1,0,0:0:0:77:≥ε≤.wav
320,192,17472,1,0,0:0:0:77:≥ε≤.wav
192,192,17574,1,0,0:0:0:77:≥ε≤.wav
64,192,17677,1,0,0:0:0:77:≥ε≤.wav
448,192,17780,1,0,0:0:0:77:≥ε≤.wav
192,192,17883,1,0,0:0:0:77:≥ε≤.wav
320,192,17985,1,0,0:0:0:77:≥ε≤.wav
64,192,18088,1,0,0:0:0:77:≥ε≤.wav
448,192,18191,1,0,0:0:0:77:≥ε≤.wav
192,192,18293,1,0,0:0:0:77:≥ε≤.wav
320,192,18396,1,0,0:0:0:77:≥ε≤.wav
448,192,18499,1,0,0:0:0:77:≥ε≤.wav
64,192,18602,1,0,0:0:0:77:≥ε≤.wav
448,192,18704,1,0,0:0:0:77:≥ε≤.wav
192,192,18807,1,0,0:0:0:77:≥ε≤.wav
448,192,18910,1,0,0:0:0:77:≥ε≤.wav
64,192,19013,1,0,0:0:0:77:≥ε≤.wav
320,192,19115,1,0,0:0:0:77:≥ε≤.wav
192,192,19218,1,0,0:0:0:77:≥ε≤.wav
64,192,19321,1,0,0:0:0:77:≥ε≤.wav
448,192,19424,1,0,0:0:0:77:≥ε≤.wav
192,192,19526,1,0,0:0:0:77:≥ε≤.wav
320,192,19629,1,0,0:0:0:77:≥ε≤.wav
64,192,19732,1,0,0:0:0:77:≥ε≤.wav
448,192,19835,1,0,0:0:0:77:≥ε≤.wav
192,192,19937,1,0,0:0:0:77:≥ε≤.wav
320,192,20040,1,0,0:0:0:77:≥ε≤.wav
448,192,20143,1,0,0:0:0:77:≥ε≤.wav
64,192,20246,1,0,0:0:0:77:≥ε≤.wav
448,192,20348,1,0,0:0:0:77:≥ε≤.wav
192,192,20451,1,0,0:0:0:77:≥ε≤.wav
320,192,20554,1,0,0:0:0:77:≥ε≤.wav
448,192,20656,1,0,0:0:0:77:≥ε≤.wav
192,192,20759,1,0,0:0:0:77:≥ε≤.wav
320,192,20862,1,0,0:0:0:77:≥ε≤.wav
64,192,20965,1,0,0:0:0:77:≥ε≤.wav
192,192,21067,1,0,0:0:0:77:≥ε≤.wav
320,192,21170,1,0,0:0:0:77:≥ε≤.wav
64,192,21273,1,0,0:0:0:77:≥ε≤.wav
448,192,21376,1,0,0:0:0:77:≥ε≤.wav
64,192,21478,1,0,0:0:0:77:≥ε≤.wav
320,192,21581,1,0,0:0:0:77:≥ε≤.wav
192,192,21684,1,0,0:0:0:77:≥ε≤.wav
448,192,21787,1,0,0:0:0:77:≥ε≤.wav
64,192,21889,1,0,0:0:0:77:≥ε≤.wav
320,192,21992,1,0,0:0:0:77:≥ε≤.wav
64,192,22095,1,0,0:0:0:77:≥ε≤.wav
192,192,22198,1,0,0:0:0:77:≥ε≤.wav
448,192,22300,1,0,0:0:0:77:≥ε≤.wav
192,192,22403,1,0,0:0:0:77:≥ε≤.wav
320,192,22506,1,0,0:0:0:77:≥ε≤.wav
64,192,22609,1,0,0:0:0:77:≥ε≤.wav
320,192,22711,1,0,0:0:0:77:≥ε≤.wav
448,192,22814,1,0,0:0:0:77:≥ε≤.wav
192,192,22917,1,0,0:0:0:77:≥ε≤.wav
448,192,23019,1,0,0:0:0:77:≥ε≤.wav
64,192,23122,1,0,0:0:0:77:≥ε≤.wav
320,192,23225,1,0,0:0:0:77:≥ε≤.wav
192,192,23328,1,0,0:0:0:77:≥ε≤.wav
320,192,23430,1,0,0:0:0:77:≥ε≤.wav
448,192,23533,128,0,25177:0:0:0:77:≥ε≤.wav
64,192,23533,1,0,0:0:0:77:≥ε≤.wav
192,192,23636,1,0,0:0:0:77:≥ε≤.wav
320,192,23739,1,0,0:0:0:77:≥ε≤.wav
64,192,23841,1,0,0:0:0:77:≥ε≤.wav
320,192,23944,1,0,0:0:0:77:≥ε≤.wav
192,192,24047,1,0,0:0:0:77:≥ε≤.wav
64,192,24150,1,0,0:0:0:77:≥ε≤.wav
320,192,24252,1,0,0:0:0:77:≥ε≤.wav
192,192,24355,128,0,25177:0:0:0:77:≥ε≤.wav
64,192,25177,128,0,25383:0:0:0:77:≥ε≤.wav
192,192,25485,1,0,0:0:0:77:≥ε≤.wav
320,192,25485,128,0,25588:0:0:0:77:≥ε≤.wav
448,192,25485,128,0,25691:0:0:0:77:≥ε≤.wav
64,192,25793,128,0,26307:0:0:0:77:≥ε≤.wav
64,192,26410,1,0,0:0:0:77:≥ε≤.wav
64,192,26478,1,0,0:0:0:77:≥ε≤.wav
64,192,26547,1,0,0:0:0:77:≥ε≤.wav
64,192,26615,1,0,0:0:0:77:≥ε≤.wav
64,192,26718,1,0,0:0:0:77:≥ε≤.wav
64,192,26821,128,0,27026:0:0:0:77:≥ε≤.wav
192,192,26821,128,0,26924:0:0:0:77:≥ε≤.wav
320,192,26821,1,0,0:0:0:77:≥ε≤.wav
320,192,27026,128,0,27643:0:0:0:77:≥ε≤.wav
448,192,27026,128,0,30109:0:0:0:77:≥ε≤.wav
192,192,27643,128,0,28054:0:0:0:77:≥ε≤.wav
64,192,28054,1,0,0:0:0:77:≥ε≤.wav
64,192,28259,1,0,0:0:0:77:≥ε≤.wav
64,192,28465,1,0,0:0:0:77:≥ε≤.wav
192,192,28465,1,0,0:0:0:77:≥ε≤.wav
320,192,28567,1,0,0:0:0:77:≥ε≤.wav
192,192,28670,1,0,0:0:0:77:≥ε≤.wav
64,192,28876,1,0,0:0:0:77:≥ε≤.wav
320,192,28876,1,0,0:0:0:77:≥ε≤.wav
192,192,28978,1,0,0:0:0:77:≥ε≤.wav
64,192,29081,1,0,0:0:0:77:≥ε≤.wav
320,192,29287,1,0,0:0:0:77:≥ε≤.wav
192,192,29287,1,0,0:0:0:77:≥ε≤.wav
64,192,29389,1,0,0:0:0:77:≥ε≤.wav
192,192,29492,1,0,0:0:0:77:≥ε≤.wav
64,192,29698,1,0,0:0:0:77:≥ε≤.wav
320,192,29698,1,0,0:0:0:77:≥ε≤.wav
192,192,29800,1,0,0:0:0:77:≥ε≤.wav
320,192,29903,1,0,0:0:0:77:≥ε≤.wav
320,192,30109,1,0,0:0:0:77:≥ε≤.wav
64,192,30109,128,0,30314:0:0:0:77:≥ε≤.wav
192,192,30314,1,0,0:0:0:77:≥ε≤.wav
448,192,30314,128,0,31752:0:0:0:77:≥ε≤.wav
320,192,30314,1,0,0:0:0:77:≥ε≤.wav
64,192,30519,1,0,0:0:0:77:≥ε≤.wav
192,192,30519,1,0,0:0:0:77:≥ε≤.wav
320,192,30622,1,0,0:0:0:77:≥ε≤.wav
192,192,30725,1,0,0:0:0:77:≥ε≤.wav
64,192,30930,1,0,0:0:0:77:≥ε≤.wav
320,192,30930,1,0,0:0:0:77:≥ε≤.wav
192,192,31033,1,0,0:0:0:77:≥ε≤.wav
64,192,31136,1,0,0:0:0:77:≥ε≤.wav
64,192,31341,1,0,0:0:0:77:≥ε≤.wav
320,192,31341,1,0,0:0:0:77:≥ε≤.wav
192,192,31444,1,0,0:0:0:77:≥ε≤.wav
320,192,31547,1,0,0:0:0:77:≥ε≤.wav
192,192,31650,1,0,0:0:0:77:≥ε≤.wav
64,192,31752,1,0,0:0:0:77:≥ε≤.wav
320,192,31855,1,0,0:0:0:77:≥ε≤.wav
192,192,31958,1,0,0:0:0:77:≥ε≤.wav
448,192,32061,1,0,0:0:0:77:≥ε≤.wav
64,192,32163,1,0,0:0:0:77:≥ε≤.wav
192,192,32266,1,0,0:0:0:77:≥ε≤.wav
320,192,32369,1,0,0:0:0:77:≥ε≤.wav
448,192,32472,1,0,0:0:0:77:≥ε≤.wav
192,192,32574,1,0,0:0:0:77:≥ε≤.wav
64,192,32574,128,0,33191:0:0:0:77:≥ε≤.wav
320,192,32677,1,0,0:0:0:77:≥ε≤.wav
192,192,32780,1,0,0:0:0:77:≥ε≤.wav
448,192,32985,1,0,0:0:0:77:≥ε≤.wav
320,192,33088,1,0,0:0:0:77:≥ε≤.wav
448,192,33191,128,0,33396:0:0:0:77:≥ε≤.wav
192,192,33191,1,0,0:0:0:77:≥ε≤.wav
320,192,33396,1,0,0:0:0:77:≥ε≤.wav
64,192,33396,128,0,33602:0:0:0:77:≥ε≤.wav
192,192,33602,1,0,0:0:0:77:≥ε≤.wav
320,192,33602,1,0,0:0:0:77:≥ε≤.wav
448,192,33602,128,0,36478:0:0:0:77:≥ε≤.wav
64,192,33807,1,0,0:0:0:77:≥ε≤.wav
192,192,33910,1,0,0:0:0:77:≥ε≤.wav
64,192,34013,1,0,0:0:0:77:≥ε≤.wav
320,192,34218,1,0,0:0:0:77:≥ε≤.wav
320,192,34424,1,0,0:0:0:77:≥ε≤.wav
64,192,34629,1,0,0:0:0:77:≥ε≤.wav
192,192,34732,1,0,0:0:0:77:≥ε≤.wav
64,192,34835,1,0,0:0:0:77:≥ε≤.wav
64,192,35040,1,0,0:0:0:77:≥ε≤.wav
192,192,35040,1,0,0:0:0:77:≥ε≤.wav
192,192,35143,1,0,0:0:0:77:≥ε≤.wav
320,192,35246,1,0,0:0:0:77:≥ε≤.wav
64,192,35451,1,0,0:0:0:77:≥ε≤.wav
320,192,35451,1,0,0:0:0:77:≥ε≤.wav
64,192,35554,1,0,0:0:0:77:≥ε≤.wav
192,192,35656,1,0,0:0:0:77:≥ε≤.wav
64,192,35862,1,0,0:0:0:77:≥ε≤.wav
320,192,35862,1,0,0:0:0:77:≥ε≤.wav
320,192,35965,1,0,0:0:0:77:≥ε≤.wav
192,192,36067,1,0,0:0:0:77:≥ε≤.wav
64,192,36170,1,0,0:0:0:77:≥ε≤.wav
64,192,36273,1,0,0:0:0:77:≥ε≤.wav
320,192,36273,1,0,0:0:0:77:≥ε≤.wav
192,192,36376,1,0,0:0:0:77:≥ε≤.wav
320,192,36478,1,0,0:0:0:77:≥ε≤.wav
64,192,36478,128,0,36684:0:0:0:77:≥ε≤.wav
192,192,36684,1,0,0:0:0:77:≥ε≤.wav
448,192,36684,128,0,36889:0:0:0:77:≥ε≤.wav
192,192,36889,1,0,0:0:0:77:≥ε≤.wav
320,192,36889,1,0,0:0:0:77:≥ε≤.wav
64,192,36889,128,0,39972:0:0:0:77:≥ε≤.wav
192,192,37095,1,0,0:0:0:77:≥ε≤.wav
448,192,37095,1,0,0:0:0:77:≥ε≤.wav
448,192,37198,1,0,0:0:0:77:≥ε≤.wav
320,192,37300,1,0,0:0:0:77:≥ε≤.wav
192,192,37506,1,0,0:0:0:77:≥ε≤.wav
448,192,37506,1,0,0:0:0:77:≥ε≤.wav
192,192,37609,1,0,0:0:0:77:≥ε≤.wav
320,192,37711,1,0,0:0:0:77:≥ε≤.wav
192,192,37814,1,0,0:0:0:77:≥ε≤.wav
448,192,37917,1,0,0:0:0:77:≥ε≤.wav
448,192,38122,1,0,0:0:0:77:≥ε≤.wav
320,192,38225,1,0,0:0:0:77:≥ε≤.wav
448,192,38328,1,0,0:0:0:77:≥ε≤.wav
192,192,38328,1,0,0:0:0:77:≥ε≤.wav
320,192,38430,1,0,0:0:0:77:≥ε≤.wav
192,192,38533,1,0,0:0:0:77:≥ε≤.wav
448,192,38739,1,0,0:0:0:77:≥ε≤.wav
192,192,38739,1,0,0:0:0:77:≥ε≤.wav
320,192,38841,1,0,0:0:0:77:≥ε≤.wav
192,192,38944,1,0,0:0:0:77:≥ε≤.wav
320,192,39150,1,0,0:0:0:77:≥ε≤.wav
320,192,39252,1,0,0:0:0:77:≥ε≤.wav
192,192,39355,1,0,0:0:0:77:≥ε≤.wav
320,192,39458,1,0,0:0:0:77:≥ε≤.wav
448,192,39561,1,0,0:0:0:77:≥ε≤.wav
448,192,39663,1,0,0:0:0:77:≥ε≤.wav
192,192,39766,1,0,0:0:0:77:≥ε≤.wav
320,192,39869,1,0,0:0:0:77:≥ε≤.wav
192,192,39972,1,0,0:0:0:77:≥ε≤.wav
448,192,39972,128,0,40177:0:0:0:77:≥ε≤.wav
320,192,40177,1,0,0:0:0:77:≥ε≤.wav
192,192,40177,1,0,0:0:0:77:≥ε≤.wav
64,192,40177,128,0,41410:0:0:0:77:≥ε≤.wav
448,192,40383,1,0,0:0:0:77:≥ε≤.wav
320,192,40485,1,0,0:0:0:77:≥ε≤.wav
448,192,40588,1,0,0:0:0:77:≥ε≤.wav
320,192,40793,1,0,0:0:0:77:≥ε≤.wav
320,192,40999,1,0,0:0:0:77:≥ε≤.wav
192,192,41204,1,0,0:0:0:77:≥ε≤.wav
320,192,41307,1,0,0:0:0:77:≥ε≤.wav
192,192,41410,1,0,0:0:0:77:≥ε≤.wav
448,192,41410,128,0,41615:0:0:0:77:≥ε≤.wav
320,192,41615,1,0,0:0:0:77:≥ε≤.wav
64,192,41615,128,0,41821:0:0:0:77:≥ε≤.wav
192,192,41821,1,0,0:0:0:77:≥ε≤.wav
320,192,41821,1,0,0:0:0:77:≥ε≤.wav
448,192,41821,128,0,43259:0:0:0:77:≥ε≤.wav
64,192,42026,1,0,0:0:0:77:≥ε≤.wav
192,192,42026,1,0,0:0:0:77:≥ε≤.wav
320,192,42129,1,0,0:0:0:77:≥ε≤.wav
192,192,42232,1,0,0:0:0:77:≥ε≤.wav
320,192,42437,1,0,0:0:0:77:≥ε≤.wav
64,192,42437,1,0,0:0:0:77:≥ε≤.wav
192,192,42540,1,0,0:0:0:77:≥ε≤.wav
64,192,42643,1,0,0:0:0:77:≥ε≤.wav
64,192,42848,1,0,0:0:0:77:≥ε≤.wav
320,192,42848,1,0,0:0:0:77:≥ε≤.wav
192,192,42951,1,0,0:0:0:77:≥ε≤.wav
320,192,43054,1,0,0:0:0:77:≥ε≤.wav
192,192,43156,1,0,0:0:0:77:≥ε≤.wav
64,192,43259,128,0,43465:0:0:0:77:≥ε≤.wav
320,192,43259,1,0,0:0:0:77:≥ε≤.wav
192,192,43465,1,0,0:0:0:77:≥ε≤.wav
320,192,43465,1,0,0:0:0:77:≥ε≤.wav
448,192,43465,128,0,44698:0:0:0:77:≥ε≤.wav
64,192,43670,1,0,0:0:0:77:≥ε≤.wav
192,192,43773,1,0,0:0:0:77:≥ε≤.wav
64,192,43876,1,0,0:0:0:77:≥ε≤.wav
320,192,44081,1,0,0:0:0:77:≥ε≤.wav
64,192,44184,1,0,0:0:0:77:≥ε≤.wav
320,192,44287,1,0,0:0:0:77:≥ε≤.wav
64,192,44389,1,0,0:0:0:77:≥ε≤.wav
320,192,44492,1,0,0:0:0:77:≥ε≤.wav
192,192,44595,1,0,0:0:0:77:≥ε≤.wav
320,192,44698,1,0,0:0:0:77:≥ε≤.wav
64,192,44698,128,0,44903:0:0:0:77:≥ε≤.wav
192,192,44903,1,0,0:0:0:77:≥ε≤.wav
448,192,44903,128,0,45109:0:0:0:77:≥ε≤.wav
64,192,45109,128,0,46341:0:0:0:77:≥ε≤.wav
192,192,45109,1,0,0:0:0:77:≥ε≤.wav
320,192,45109,1,0,0:0:0:77:≥ε≤.wav
192,192,45314,1,0,0:0:0:77:≥ε≤.wav
448,192,45314,1,0,0:0:0:77:≥ε≤.wav
192,192,45417,1,0,0:0:0:77:≥ε≤.wav
320,192,45519,1,0,0:0:0:77:≥ε≤.wav
192,192,45725,1,0,0:0:0:77:≥ε≤.wav
448,192,45725,1,0,0:0:0:77:≥ε≤.wav
448,192,45828,1,0,0:0:0:77:≥ε≤.wav
320,192,45930,1,0,0:0:0:77:≥ε≤.wav
448,192,46033,1,0,0:0:0:77:≥ε≤.wav
192,192,46136,1,0,0:0:0:77:≥ε≤.wav
320,192,46239,1,0,0:0:0:77:≥ε≤.wav
448,192,46341,128,0,46547:0:0:0:77:≥ε≤.wav
192,192,46341,1,0,0:0:0:77:≥ε≤.wav
320,192,46547,1,0,0:0:0:77:≥ε≤.wav
64,192,46547,128,0,46752:0:0:0:77:≥ε≤.wav
448,192,46752,128,0,47163:0:0:0:77:≥ε≤.wav
192,192,46752,1,0,0:0:0:77:≥ε≤.wav
320,192,46752,1,0,0:0:0:77:≥ε≤.wav
192,192,46958,1,0,0:0:0:77:≥ε≤.wav
320,192,47163,1,0,0:0:0:77:≥ε≤.wav
64,192,47163,128,0,47369:0:0:0:77:≥ε≤.wav
192,192,47369,1,0,0:0:0:77:≥ε≤.wav
448,192,47369,128,0,47574:0:0:0:77:≥ε≤.wav
64,192,47574,128,0,47985:0:0:0:77:≥ε≤.wav
320,192,47574,1,0,0:0:0:77:≥ε≤.wav
192,192,47574,1,0,0:0:0:77:≥ε≤.wav
320,192,47780,1,0,0:0:0:77:≥ε≤.wav
192,192,47985,1,0,0:0:0:77:≥ε≤.wav
448,192,47985,128,0,48191:0:0:0:77:≥ε≤.wav
320,192,48191,1,0,0:0:0:77:≥ε≤.wav
64,192,48191,128,0,48396:0:0:0:77:≥ε≤.wav
192,192,48396,1,0,0:0:0:77:≥ε≤.wav
320,192,48396,1,0,0:0:0:77:≥ε≤.wav
448,192,48396,128,0,48807:0:0:0:77:≥ε≤.wav
192,192,48602,1,0,0:0:0:77:≥ε≤.wav
64,192,48807,128,0,49013:0:0:0:77:≥ε≤.wav
320,192,48807,1,0,0:0:0:77:≥ε≤.wav
192,192,49013,1,0,0:0:0:77:≥ε≤.wav
448,192,49013,128,0,49218:0:0:0:77:≥ε≤.wav
320,192,49218,1,0,0:0:0:77:≥ε≤.wav
192,192,49218,1,0,0:0:0:77:≥ε≤.wav
64,192,49218,128,0,49424:0:0:0:77:≥ε≤.wav
192,192,49424,1,0,0:0:0:77:≥ε≤.wav
448,192,49424,128,0,49629:0:0:0:77:≥ε≤.wav
320,192,49629,1,0,0:0:0:77:≥ε≤.wav
192,192,49629,128,0,49835:0:0:0:77:≥ε≤.wav
64,192,49835,1,0,0:0:0:77:≥ε≤.wav
320,192,49835,1,0,0:0:0:77:≥ε≤.wav
448,192,49835,128,0,50143:0:0:0:77:≥ε≤.wav
64,192,50143,128,0,50451:0:0:0:77:≥ε≤.wav
192,192,50143,1,0,0:0:0:77:≥ε≤.wav
320,192,50143,1,0,0:0:0:77:≥ε≤.wav
320,192,50451,128,0,50759:0:0:0:77:≥ε≤.wav
448,192,50451,1,0,0:0:0:77:≥ε≤.wav
192,192,50451,1,0,0:0:0:77:≥ε≤.wav
64,192,50759,1,0,0:0:0:77:≥ε≤.wav
192,192,50759,128,0,51067:0:0:0:77:≥ε≤.wav
448,192,50759,1,0,0:0:0:77:≥ε≤.wav
320,192,51067,1,0,0:0:0:77:≥ε≤.wav
448,192,51067,128,0,51376:0:0:0:77:≥ε≤.wav
64,192,51067,1,0,0:0:0:77:≥ε≤.wav
64,192,51376,128,0,51684:0:0:0:77:≥ε≤.wav
192,192,51376,1,0,0:0:0:77:≥ε≤.wav
320,192,51376,1,0,0:0:0:77:≥ε≤.wav
448,192,51684,128,0,51992:0:0:0:77:≥ε≤.wav
320,192,51684,1,0,0:0:0:77:≥ε≤.wav
192,192,51684,1,0,0:0:0:77:≥ε≤.wav
192,192,51992,128,0,52300:0:0:0:77:≥ε≤.wav
64,192,51992,1,0,0:0:0:77:≥ε≤.wav
320,192,51992,1,0,0:0:0:77:≥ε≤.wav
320,192,52300,128,0,52506:0:0:0:77:≥ε≤.wav
448,192,52300,1,0,0:0:0:77:≥ε≤.wav
64,192,52300,1,0,0:0:0:77:≥ε≤.wav
448,192,52506,128,0,52711:0:0:0:77:≥ε≤.wav
192,192,52506,1,0,0:0:0:77:≥ε≤.wav
64,192,52711,1,0,0:0:0:77:≥ε≤.wav
192,192,52711,128,0,52917:0:0:0:77:≥ε≤.wav
320,192,52711,1,0,0:0:0:77:≥ε≤.wav
64,192,52917,1,0,0:0:0:77:≥ε≤.wav
448,192,52917,128,0,53122:0:0:0:77:≥ε≤.wav
320,192,53122,1,0,0:0:0:77:≥ε≤.wav
192,192,53122,128,0,53225:0:0:0:77:≥ε≤.wav
320,192,53225,128,0,53328:0:0:0:77:≥ε≤.wav
64,192,53225,1,0,0:0:0:77:≥ε≤.wav
448,192,53328,128,0,53430:0:0:0:77:≥ε≤.wav
192,192,53328,1,0,0:0:0:77:≥ε≤.wav
320,192,53430,128,0,53533:0:0:0:77:≥ε≤.wav
64,192,53430,1,0,0:0:0:77:≥ε≤.wav
192,192,53533,128,0,53636:0:0:0:77:≥ε≤.wav
448,192,53533,1,0,0:0:0:77:≥ε≤.wav
320,192,53636,1,0,0:0:0:77:≥ε≤.wav
64,192,53636,128,0,53739:0:0:0:77:≥ε≤.wav
192,192,53739,128,0,53841:0:0:0:77:≥ε≤.wav
448,192,53739,1,0,0:0:0:77:≥ε≤.wav
64,192,53841,1,0,0:0:0:77:≥ε≤.wav
320,192,53841,128,0,53944:0:0:0:77:≥ε≤.wav
192,192,53944,1,0,0:0:0:77:≥ε≤.wav
448,192,53944,128,0,54047:0:0:0:77:≥ε≤.wav
64,192,54047,128,0,54150:0:0:0:77:≥ε≤.wav
320,192,54047,1,0,0:0:0:77:≥ε≤.wav
192,192,54150,128,0,54252:0:0:0:77:≥ε≤.wav
448,192,54150,1,0,0:0:0:77:≥ε≤.wav
320,192,54252,128,0,54355:0:0:0:77:≥ε≤.wav
64,192,54252,1,0,0:0:0:77:≥ε≤.wav
192,192,54355,1,0,0:0:0:77:≥ε≤.wav
448,192,54355,128,0,54458:0:0:0:77:≥ε≤.wav
320,192,54458,128,0,54561:0:0:0:77:≥ε≤.wav
64,192,54458,1,0,0:0:0:77:≥ε≤.wav
192,192,54561,128,0,54663:0:0:0:77:≥ε≤.wav
448,192,54561,1,0,0:0:0:77:≥ε≤.wav
320,192,54663,128,0,54766:0:0:0:77:≥ε≤.wav
64,192,54663,1,0,0:0:0:77:≥ε≤.wav
192,192,54766,1,0,0:0:0:77:≥ε≤.wav
448,192,54766,128,0,54869:0:0:0:77:≥ε≤.wav
64,192,54869,128,0,54972:0:0:0:77:≥ε≤.wav
320,192,54869,1,0,0:0:0:77:≥ε≤.wav
192,192,54972,128,0,55074:0:0:0:77:≥ε≤.wav
448,192,54972,1,0,0:0:0:77:≥ε≤.wav
320,192,55074,128,0,55177:0:0:0:77:≥ε≤.wav
64,192,55074,1,0,0:0:0:77:≥ε≤.wav
192,192,55177,128,0,55280:0:0:0:77:≥ε≤.wav
448,192,55177,1,0,0:0:0:77:≥ε≤.wav
320,192,55280,128,0,55383:0:0:0:77:≥ε≤.wav
64,192,55280,1,0,0:0:0:77:≥ε≤.wav
192,192,55383,1,0,0:0:0:77:≥ε≤.wav
448,192,55383,128,0,55485:0:0:0:77:≥ε≤.wav
64,192,55485,128,0,55588:0:0:0:77:≥ε≤.wav
320,192,55485,1,0,0:0:0:77:≥ε≤.wav
192,192,55588,128,0,55691:0:0:0:77:≥ε≤.wav
448,192,55588,1,0,0:0:0:77:≥ε≤.wav
320,192,55691,128,0,55793:0:0:0:77:≥ε≤.wav
64,192,55691,1,0,0:0:0:77:≥ε≤.wav
448,192,55793,128,0,55896:0:0:0:77:≥ε≤.wav
192,192,55793,1,0,0:0:0:77:≥ε≤.wav
64,192,55896,128,0,55999:0:0:0:77:≥ε≤.wav
320,192,55896,1,0,0:0:0:77:≥ε≤.wav
448,192,55999,1,0,0:0:0:77:≥ε≤.wav
192,192,55999,128,0,56102:0:0:0:77:≥ε≤.wav
320,192,56102,128,0,56204:0:0:0:77:≥ε≤.wav
64,192,56102,1,0,0:0:0:77:≥ε≤.wav
448,192,56204,128,0,56307:0:0:0:77:≥ε≤.wav
192,192,56204,1,0,0:0:0:77:≥ε≤.wav
64,192,56307,1,0,0:0:0:77:≥ε≤.wav
320,192,56307,128,0,56410:0:0:0:77:≥ε≤.wav
448,192,56410,128,0,58876:0:0:0:77:≥ε≤.wav
192,192,56410,1,0,0:0:0:77:≥ε≤.wav
320,192,56478,1,0,0:0:0:77:≥ε≤.wav
64,192,56547,1,0,0:0:0:77:≥ε≤.wav
192,192,56615,1,0,0:0:0:77:≥ε≤.wav
320,192,56684,1,0,0:0:0:77:≥ε≤.wav
64,192,56752,1,0,0:0:0:77:≥ε≤.wav
192,192,56821,1,0,0:0:0:77:≥ε≤.wav
64,192,56889,1,0,0:0:0:77:≥ε≤.wav
320,192,56958,1,0,0:0:0:77:≥ε≤.wav
192,192,57026,1,0,0:0:0:77:≥ε≤.wav
64,192,57095,1,0,0:0:0:77:≥ε≤.wav
320,192,57163,1,0,0:0:0:77:≥ε≤.wav
192,192,57232,1,0,0:0:0:77:≥ε≤.wav
320,192,57300,1,0,0:0:0:77:≥ε≤.wav
64,192,57369,1,0,0:0:0:77:≥ε≤.wav
192,192,57437,1,0,0:0:0:77:≥ε≤.wav
320,192,57506,1,0,0:0:0:77:≥ε≤.wav
64,192,57574,1,0,0:0:0:77:≥ε≤.wav
320,192,57643,1,0,0:0:0:77:≥ε≤.wav
192,192,57711,1,0,0:0:0:77:≥ε≤.wav
64,192,57780,1,0,0:0:0:77:≥ε≤.wav
320,192,57848,1,0,0:0:0:77:≥ε≤.wav
64,192,57917,1,0,0:0:0:77:≥ε≤.wav
192,192,57985,1,0,0:0:0:77:≥ε≤.wav
320,192,58054,1,0,0:0:0:77:≥ε≤.wav
192,192,58122,1,0,0:0:0:77:≥ε≤.wav
64,192,58191,1,0,0:0:0:77:≥ε≤.wav
192,192,58259,1,0,0:0:0:77:≥ε≤.wav
320,192,58328,1,0,0:0:0:77:≥ε≤.wav
192,192,58396,1,0,0:0:0:77:≥ε≤.wav
320,192,58465,1,0,0:0:0:77:≥ε≤.wav
192,192,58533,1,0,0:0:0:77:≥ε≤.wav
64,192,58602,1,0,0:0:0:77:≥ε≤.wav
192,192,58670,1,0,0:0:0:77:≥ε≤.wav
64,192,58739,1,0,0:0:0:77:≥ε≤.wav
192,192,58807,1,0,0:0:0:77:≥ε≤.wav
320,192,58876,128,0,59081:0:0:0:77:≥ε≤.wav
448,192,59287,128,0,59698:0:0:0:77:≥ε≤.wav
64,192,59698,1,0,0:0:0:77:≥ε≤.wav
192,192,59698,1,0,0:0:0:77:≥ε≤.wav
320,192,59903,128,0,60109:0:0:0:77:≥ε≤.wav
64,192,60109,1,0,0:0:0:77:≥ε≤.wav
448,192,60109,1,0,0:0:0:77:≥ε≤.wav
320,192,60314,1,0,0:0:0:77:≥ε≤.wav
64,192,60519,1,0,0:0:0:77:≥ε≤.wav
192,192,60519,1,0,0:0:0:77:≥ε≤.wav
448,192,60725,128,0,60930:0:0:0:77:≥ε≤.wav
64,192,60930,1,0,0:0:0:77:≥ε≤.wav
320,192,60930,1,0,0:0:0:77:≥ε≤.wav
448,192,61136,1,0,0:0:0:77:≥ε≤.wav
64,192,61341,1,0,0:0:0:77:≥ε≤.wav
192,192,61341,1,0,0:0:0:77:≥ε≤.wav
320,192,61547,128,0,61752:0:0:0:77:≥ε≤.wav
64,192,61752,1,0,0:0:0:77:≥ε≤.wav
448,192,61752,1,0,0:0:0:77:≥ε≤.wav
320,192,61958,1,0,0:0:0:77:≥ε≤.wav
64,192,62163,1,0,0:0:0:77:≥ε≤.wav
192,192,62163,1,0,0:0:0:77:≥ε≤.wav
448,192,62369,128,0,62574:0:0:0:77:≥ε≤.wav
320,192,62574,1,0,0:0:0:77:≥ε≤.wav
64,192,62574,128,0,62677:0:0:0:77:≥ε≤.wav
192,192,62574,128,0,62780:0:0:0:77:≥ε≤.wav
64,192,62985,1,0,0:0:0:77:≥ε≤.wav
192,192,62985,1,0,0:0:0:77:≥ε≤.wav
320,192,63191,128,0,63396:0:0:0:77:≥ε≤.wav
64,192,63396,1,0,0:0:0:77:≥ε≤.wav
448,192,63396,1,0,0:0:0:77:≥ε≤.wav
320,192,63602,1,0,0:0:0:77:≥ε≤.wav
64,192,63807,1,0,0:0:0:77:≥ε≤.wav
192,192,63807,1,0,0:0:0:77:≥ε≤.wav
448,192,64013,128,0,64218:0:0:0:77:≥ε≤.wav
64,192,64218,1,0,0:0:0:77:≥ε≤.wav
320,192,64218,1,0,0:0:0:77:≥ε≤.wav
448,192,64424,1,0,0:0:0:77:≥ε≤.wav
64,192,64629,1,0,0:0:0:77:≥ε≤.wav
192,192,64629,1,0,0:0:0:77:≥ε≤.wav
320,192,64835,128,0,65040:0:0:0:77:≥ε≤.wav
64,192,65040,1,0,0:0:0:77:≥ε≤.wav
448,192,65040,1,0,0:0:0:77:≥ε≤.wav
320,192,65246,1,0,0:0:0:77:≥ε≤.wav
64,192,65451,1,0,0:0:0:77:≥ε≤.wav
192,192,65451,1,0,0:0:0:77:≥ε≤.wav
192,192,65554,1,0,0:0:0:77:≥ε≤.wav
320,192,65656,128,0,65862:0:0:0:77:≥ε≤.wav
64,192,65862,1,0,0:0:0:77:≥ε≤.wav
192,192,65862,128,0,65965:0:0:0:77:≥ε≤.wav
448,192,65862,128,0,66067:0:0:0:77:≥ε≤.wav
64,192,66273,1,0,0:0:0:77:≥ε≤.wav
192,192,66273,1,0,0:0:0:77:≥ε≤.wav
320,192,66478,128,0,66684:0:0:0:77:≥ε≤.wav
64,192,66684,1,0,0:0:0:77:≥ε≤.wav
448,192,66684,1,0,0:0:0:77:≥ε≤.wav
320,192,66889,1,0,0:0:0:77:≥ε≤.wav
64,192,67095,1,0,0:0:0:77:≥ε≤.wav
192,192,67095,1,0,0:0:0:77:≥ε≤.wav
448,192,67300,128,0,67506:0:0:0:77:≥ε≤.wav
64,192,67506,1,0,0:0:0:77:≥ε≤.wav
320,192,67506,1,0,0:0:0:77:≥ε≤.wav
448,192,67711,1,0,0:0:0:77:≥ε≤.wav
64,192,67917,1,0,0:0:0:77:≥ε≤.wav
192,192,67917,1,0,0:0:0:77:≥ε≤.wav
320,192,68122,128,0,68328:0:0:0:77:≥ε≤.wav
64,192,68328,1,0,0:0:0:77:≥ε≤.wav
448,192,68328,1,0,0:0:0:77:≥ε≤.wav
320,192,68533,1,0,0:0:0:77:≥ε≤.wav
64,192,68739,1,0,0:0:0:77:≥ε≤.wav
192,192,68739,1,0,0:0:0:77:≥ε≤.wav
448,192,68944,128,0,69150:0:0:0:77:≥ε≤.wav
320,192,69150,1,0,0:0:0:77:≥ε≤.wav
64,192,69150,128,0,69355:0:0:0:77:≥ε≤.wav
192,192,69150,128,0,69252:0:0:0:77:≥ε≤.wav
64,192,69561,1,0,0:0:0:77:≥ε≤.wav
192,192,69561,1,0,0:0:0:77:≥ε≤.wav
320,192,69766,128,0,69972:0:0:0:77:≥ε≤.wav
64,192,69972,1,0,0:0:0:77:≥ε≤.wav
448,192,69972,1,0,0:0:0:77:≥ε≤.wav
320,192,70177,1,0,0:0:0:77:≥ε≤.wav
64,192,70383,1,0,0:0:0:77:≥ε≤.wav
192,192,70383,1,0,0:0:0:77:≥ε≤.wav
448,192,70588,128,0,70793:0:0:0:77:≥ε≤.wav
64,192,70793,1,0,0:0:0:77:≥ε≤.wav
320,192,70793,1,0,0:0:0:77:≥ε≤.wav
192,192,70896,1,0,0:0:0:77:≥ε≤.wav
448,192,70896,1,0,0:0:0:77:≥ε≤.wav
64,192,70999,1,0,0:0:0:77:≥ε≤.wav
320,192,70999,1,0,0:0:0:77:≥ε≤.wav
192,192,71102,1,0,0:0:0:77:≥ε≤.wav
320,192,71204,128,0,71615:0:0:0:77:≥ε≤.wav
64,192,71204,128,0,71307:0:0:0:77:≥ε≤.wav
448,192,71204,1,0,0:0:0:77:≥ε≤.wav
192,192,71410,128,0,72026:0:0:0:77:≥ε≤.wav
448,192,71615,128,0,72437:0:0:0:77:≥ε≤.wav
64,192,71821,128,0,72232:0:0:0:77:≥ε≤.wav
320,192,72026,128,0,72232:0:0:0:77:≥ε≤.wav
192,192,72232,128,0,72437:0:0:0:77:≥ε≤.wav
64,192,72437,1,0,0:0:0:77:≥ε≤.wav
320,192,72437,1,0,0:0:0:77:≥ε≤.wav
64,192,72848,1,0,0:0:0:77:≥ε≤.wav
192,192,72848,1,0,0:0:0:77:≥ε≤.wav
320,192,73054,128,0,73259:0:0:0:77:≥ε≤.wav
64,192,73259,1,0,0:0:0:77:≥ε≤.wav
448,192,73259,1,0,0:0:0:77:≥ε≤.wav
192,192,73259,1,0,0:0:0:77:≥ε≤.wav
320,192,73465,1,0,0:0:0:77:≥ε≤.wav
64,192,73670,1,0,0:0:0:77:≥ε≤.wav
192,192,73670,1,0,0:0:0:77:≥ε≤.wav
448,192,73876,128,0,74081:0:0:0:77:≥ε≤.wav
64,192,74081,1,0,0:0:0:77:≥ε≤.wav
320,192,74081,1,0,0:0:0:77:≥ε≤.wav
448,192,74287,1,0,0:0:0:77:≥ε≤.wav
64,192,74492,1,0,0:0:0:77:≥ε≤.wav
192,192,74492,1,0,0:0:0:77:≥ε≤.wav
320,192,74698,128,0,74903:0:0:0:77:≥ε≤.wav
64,192,74903,1,0,0:0:0:77:≥ε≤.wav
192,192,74903,1,0,0:0:0:77:≥ε≤.wav
448,192,74903,1,0,0:0:0:77:≥ε≤.wav
320,192,75109,1,0,0:0:0:77:≥ε≤.wav
64,192,75314,1,0,0:0:0:77:≥ε≤.wav
448,192,75314,128,0,75622:0:0:0:77:≥ε≤.wav
192,192,75520,128,0,75725:0:0:0:77:≥ε≤.wav
320,192,75725,1,0,0:0:0:77:≥ε≤.wav
448,192,75725,1,0,0:0:0:77:≥ε≤.wav
64,192,75725,1,0,0:0:0:77:≥ε≤.wav
192,192,75828,1,0,0:0:0:77:≥ε≤.wav
320,192,75930,128,0,76136:0:0:0:77:≥ε≤.wav
448,192,75930,1,0,0:0:0:77:≥ε≤.wav
64,192,76136,1,0,0:0:0:77:≥ε≤.wav
192,192,76136,1,0,0:0:0:77:≥ε≤.wav
320,192,76341,128,0,76547:0:0:0:77:≥ε≤.wav
64,192,76547,1,0,0:0:0:77:≥ε≤.wav
192,192,76547,1,0,0:0:0:77:≥ε≤.wav
448,192,76547,1,0,0:0:0:77:≥ε≤.wav
320,192,76752,1,0,0:0:0:77:≥ε≤.wav
64,192,76958,1,0,0:0:0:77:≥ε≤.wav
192,192,76958,1,0,0:0:0:77:≥ε≤.wav
448,192,77163,128,0,77369:0:0:0:77:≥ε≤.wav
64,192,77369,1,0,0:0:0:77:≥ε≤.wav
320,192,77369,1,0,0:0:0:77:≥ε≤.wav
448,192,77574,1,0,0:0:0:77:≥ε≤.wav
64,192,77780,1,0,0:0:0:77:≥ε≤.wav
192,192,77780,1,0,0:0:0:77:≥ε≤.wav
320,192,77985,128,0,78191:0:0:0:77:≥ε≤.wav
64,192,78191,1,0,0:0:0:77:≥ε≤.wav
448,192,78191,1,0,0:0:0:77:≥ε≤.wav
192,192,78191,1,0,0:0:0:77:≥ε≤.wav
320,192,78396,1,0,0:0:0:77:≥ε≤.wav
64,192,78602,128,0,79013:0:0:0:77:≥ε≤.wav
192,192,78602,128,0,78807:0:0:0:77:≥ε≤.wav
320,192,78807,128,0,79218:0:0:0:77:≥ε≤.wav
192,192,79013,128,0,79424:0:0:0:77:≥ε≤.wav
448,192,79218,128,0,79424:0:0:0:77:≥ε≤.wav
320,192,79424,1,0,0:0:0:77:≥ε≤.wav
64,192,79424,1,0,0:0:0:77:≥ε≤.wav
192,192,79629,128,0,79835:0:0:0:77:≥ε≤.wav
64,192,79835,1,0,0:0:0:77:≥ε≤.wav
320,192,79835,1,0,0:0:0:77:≥ε≤.wav
448,192,79835,1,0,0:0:0:77:≥ε≤.wav
192,192,80040,1,0,0:0:0:77:≥ε≤.wav
320,192,80246,1,0,0:0:0:77:≥ε≤.wav
448,192,80246,128,0,80554:0:0:0:77:≥ε≤.wav
192,192,80451,128,0,80656:0:0:0:77:≥ε≤.wav
320,192,80656,1,0,0:0:0:77:≥ε≤.wav
448,192,80656,1,0,0:0:0:77:≥ε≤.wav
192,192,80759,1,0,0:0:0:77:≥ε≤.wav
448,192,80862,1,0,0:0:0:77:≥ε≤.wav
320,192,80862,128,0,81067:0:0:0:77:≥ε≤.wav
64,192,81067,1,0,0:0:0:77:≥ε≤.wav
192,192,81067,1,0,0:0:0:77:≥ε≤.wav
320,192,81273,128,0,81478:0:0:0:77:≥ε≤.wav
64,192,81478,1,0,0:0:0:77:≥ε≤.wav
448,192,81478,1,0,0:0:0:77:≥ε≤.wav
320,192,81684,1,0,0:0:0:77:≥ε≤.wav
192,192,81889,1,0,0:0:0:77:≥ε≤.wav
64,192,81889,1,0,0:0:0:77:≥ε≤.wav
448,192,82095,128,0,82300:0:0:0:77:≥ε≤.wav
64,192,82300,1,0,0:0:0:77:≥ε≤.wav
192,192,82300,128,0,82711:0:0:0:77:≥ε≤.wav
320,192,82300,128,0,82403:0:0:0:77:≥ε≤.wav
448,192,82506,1,0,0:0:0:77:≥ε≤.wav
320,192,82609,1,0,0:0:0:77:≥ε≤.wav
64,192,82711,128,0,82814:0:0:0:77:≥ε≤.wav
448,192,82711,128,0,84355:0:0:0:77:≥ε≤.wav
192,192,83739,128,0,84355:0:0:0:77:≥ε≤.wav
64,192,84355,1,0,0:0:0:77:≥ε≤.wav
320,192,84355,1,0,0:0:0:77:≥ε≤.wav
192,192,84424,1,0,0:0:0:77:≥ε≤.wav
320,192,84492,1,0,0:0:0:77:≥ε≤.wav
448,192,84561,1,0,0:0:0:77:≥ε≤.wav
64,192,84629,1,0,0:0:0:77:≥ε≤.wav
192,192,84698,1,0,0:0:0:77:≥ε≤.wav
320,192,84766,1,0,0:0:0:77:≥ε≤.wav
448,192,84835,1,0,0:0:0:77:≥ε≤.wav
64,192,84903,1,0,0:0:0:77:≥ε≤.wav
192,192,84972,1,0,0:0:0:77:≥ε≤.wav
448,192,84972,1,0,0:0:0:77:≥ε≤.wav
320,192,85040,1,0,0:0:0:77:≥ε≤.wav
448,192,85109,1,0,0:0:0:77:≥ε≤.wav
192,192,85177,1,0,0:0:0:77:≥ε≤.wav
64,192,85177,1,0,0:0:0:77:≥ε≤.wav
320,192,85246,1,0,0:0:0:77:≥ε≤.wav
192,192,85314,1,0,0:0:0:77:≥ε≤.wav
320,192,85383,1,0,0:0:0:77:≥ε≤.wav
192,192,85451,1,0,0:0:0:77:≥ε≤.wav
320,192,85520,1,0,0:0:0:77:≥ε≤.wav
64,192,85588,1,0,0:0:0:77:≥ε≤.wav
192,192,85588,1,0,0:0:0:77:≥ε≤.wav
320,192,85656,1,0,0:0:0:77:≥ε≤.wav
448,192,85725,1,0,0:0:0:77:≥ε≤.wav
64,192,85793,1,0,0:0:0:77:≥ε≤.wav
192,192,85793,1,0,0:0:0:77:≥ε≤.wav
320,192,85862,1,0,0:0:0:77:≥ε≤.wav
192,192,85930,1,0,0:0:0:77:≥ε≤.wav
64,192,85999,1,0,0:0:0:77:≥ε≤.wav
320,192,85999,1,0,0:0:0:77:≥ε≤.wav
448,192,85999,1,0,0:0:0:77:≥ε≤.wav
192,192,86204,1,0,0:0:0:77:≥ε≤.wav
320,192,86204,1,0,0:0:0:77:≥ε≤.wav
64,192,86410,1,0,0:0:0:77:≥ε≤.wav
192,192,86410,1,0,0:0:0:77:≥ε≤.wav
448,192,86410,1,0,0:0:0:77:≥ε≤.wav
192,192,86615,1,0,0:0:0:77:≥ε≤.wav
320,192,86718,1,0,0:0:0:77:≥ε≤.wav
448,192,86821,1,0,0:0:0:77:≥ε≤.wav
64,192,86821,1,0,0:0:0:77:≥ε≤.wav
192,192,86924,1,0,0:0:0:77:≥ε≤.wav
320,192,87026,1,0,0:0:0:77:≥ε≤.wav
64,192,87129,1,0,0:0:0:77:≥ε≤.wav
448,192,87232,1,0,0:0:0:77:≥ε≤.wav
192,192,87232,1,0,0:0:0:77:≥ε≤.wav
64,192,87335,1,0,0:0:0:77:≥ε≤.wav
320,192,87437,1,0,0:0:0:77:≥ε≤.wav
192,192,87540,1,0,0:0:0:77:≥ε≤.wav
64,192,87643,1,0,0:0:0:77:≥ε≤.wav
448,192,87643,1,0,0:0:0:77:≥ε≤.wav
320,192,87746,1,0,0:0:0:77:≥ε≤.wav
192,192,87848,1,0,0:0:0:77:≥ε≤.wav
448,192,87951,1,0,0:0:0:77:≥ε≤.wav
64,192,88054,1,0,0:0:0:77:≥ε≤.wav
320,192,88054,1,0,0:0:0:77:≥ε≤.wav
192,192,88156,1,0,0:0:0:77:≥ε≤.wav
320,192,88259,1,0,0:0:0:77:≥ε≤.wav
192,192,88362,1,0,0:0:0:77:≥ε≤.wav
64,192,88465,1,0,0:0:0:77:≥ε≤.wav
320,192,88465,1,0,0:0:0:77:≥ε≤.wav
448,192,88465,1,0,0:0:0:77:≥ε≤.wav
192,192,88670,1,0,0:0:0:77:≥ε≤.wav
448,192,88670,1,0,0:0:0:77:≥ε≤.wav
320,192,88670,1,0,0:0:0:77:≥ε≤.wav
448,192,88876,1,0,0:0:0:77:≥ε≤.wav
192,192,88876,128,0,88978:0:0:0:77:≥ε≤.wav
64,192,88876,128,0,89081:0:0:0:77:≥ε≤.wav
320,192,89081,1,0,0:0:0:77:≥ε≤.wav
192,192,89184,1,0,0:0:0:77:≥ε≤.wav
320,192,89287,1,0,0:0:0:77:≥ε≤.wav
448,192,89287,1,0,0:0:0:77:≥ε≤.wav
64,192,89287,1,0,0:0:0:77:≥ε≤.wav
192,192,89492,1,0,0:0:0:77:≥ε≤.wav
320,192,89595,1,0,0:0:0:77:≥ε≤.wav
64,192,89698,1,0,0:0:0:77:≥ε≤.wav
448,192,89698,1,0,0:0:0:77:≥ε≤.wav
192,192,89903,128,0,90109:0:0:0:77:≥ε≤.wav
448,192,90109,1,0,0:0:0:77:≥ε≤.wav
64,192,90109,1,0,0:0:0:77:≥ε≤.wav
320,192,90109,1,0,0:0:0:77:≥ε≤.wav
320,192,90314,1,0,0:0:0:77:≥ε≤.wav
192,192,90417,1,0,0:0:0:77:≥ε≤.wav
448,192,90520,1,0,0:0:0:77:≥ε≤.wav
320,192,90520,1,0,0:0:0:77:≥ε≤.wav
64,192,90622,1,0,0:0:0:77:≥ε≤.wav
192,192,90725,1,0,0:0:0:77:≥ε≤.wav
320,192,90828,1,0,0:0:0:77:≥ε≤.wav
64,192,90930,1,0,0:0:0:77:≥ε≤.wav
192,192,90930,1,0,0:0:0:77:≥ε≤.wav
448,192,90930,1,0,0:0:0:77:≥ε≤.wav
320,192,91033,1,0,0:0:0:77:≥ε≤.wav
448,192,91136,1,0,0:0:0:77:≥ε≤.wav
192,192,91239,1,0,0:0:0:77:≥ε≤.wav
64,192,91341,1,0,0:0:0:77:≥ε≤.wav
320,192,91341,1,0,0:0:0:77:≥ε≤.wav
192,192,91444,1,0,0:0:0:77:≥ε≤.wav
64,192,91547,1,0,0:0:0:77:≥ε≤.wav
320,192,91547,1,0,0:0:0:77:≥ε≤.wav
192,192,91650,1,0,0:0:0:77:≥ε≤.wav
64,192,91752,1,0,0:0:0:77:≥ε≤.wav
448,192,91752,128,0,92574:0:0:0:77:≥ε≤.wav
320,192,91752,128,0,91855:0:0:0:77:≥ε≤.wav
64,192,91958,128,0,92061:0:0:0:77:≥ε≤.wav
192,192,91958,128,0,92266:0:0:0:77:≥ε≤.wav
64,192,92369,1,0,0:0:0:77:≥ε≤.wav
192,192,92369,128,0,92574:0:0:0:77:≥ε≤.wav
320,192,92574,1,0,0:0:0:77:≥ε≤.wav
64,192,92574,128,0,92985:0:0:0:77:≥ε≤.wav
448,192,92780,128,0,92985:0:0:0:77:≥ε≤.wav
192,192,92780,1,0,0:0:0:77:≥ε≤.wav
192,192,92985,1,0,0:0:0:77:≥ε≤.wav
320,192,93088,1,0,0:0:0:77:≥ε≤.wav
64,192,93191,1,0,0:0:0:77:≥ε≤.wav
448,192,93191,1,0,0:0:0:77:≥ε≤.wav
192,192,93293,1,0,0:0:0:77:≥ε≤.wav
64,192,93396,1,0,0:0:0:77:≥ε≤.wav
320,192,93396,1,0,0:0:0:77:≥ε≤.wav
448,192,93499,1,0,0:0:0:77:≥ε≤.wav
192,192,93602,1,0,0:0:0:77:≥ε≤.wav
320,192,93704,1,0,0:0:0:77:≥ε≤.wav
64,192,93807,1,0,0:0:0:77:≥ε≤.wav
192,192,93807,1,0,0:0:0:77:≥ε≤.wav
320,192,94013,1,0,0:0:0:77:≥ε≤.wav
192,192,94115,1,0,0:0:0:77:≥ε≤.wav
320,192,94218,1,0,0:0:0:77:≥ε≤.wav
64,192,94218,128,0,94629:0:0:0:77:≥ε≤.wav
448,192,94218,128,0,94321:0:0:0:77:≥ε≤.wav
320,192,94424,1,0,0:0:0:77:≥ε≤.wav
192,192,94526,1,0,0:0:0:77:≥ε≤.wav
320,192,94629,1,0,0:0:0:77:≥ε≤.wav
448,192,94629,1,0,0:0:0:77:≥ε≤.wav
192,192,94732,1,0,0:0:0:77:≥ε≤.wav
448,192,94835,1,0,0:0:0:77:≥ε≤.wav
320,192,94835,128,0,95040:0:0:0:77:≥ε≤.wav
64,192,95040,1,0,0:0:0:77:≥ε≤.wav
192,192,95040,1,0,0:0:0:77:≥ε≤.wav
448,192,95040,1,0,0:0:0:77:≥ε≤.wav
192,192,95246,128,0,95451:0:0:0:77:≥ε≤.wav
64,192,95451,1,0,0:0:0:77:≥ε≤.wav
320,192,95451,1,0,0:0:0:77:≥ε≤.wav
448,192,95451,1,0,0:0:0:77:≥ε≤.wav
192,192,95656,1,0,0:0:0:77:≥ε≤.wav
320,192,95656,1,0,0:0:0:77:≥ε≤.wav
320,192,95862,128,0,96067:0:0:0:77:≥ε≤.wav
64,192,95862,128,0,96581:0:0:0:77:≥ε≤.wav
448,192,95862,128,0,95965:0:0:0:77:≥ε≤.wav
192,192,96067,1,0,0:0:0:77:≥ε≤.wav
320,192,96136,1,0,0:0:0:77:≥ε≤.wav
192,192,96204,1,0,0:0:0:77:≥ε≤.wav
320,192,96273,1,0,0:0:0:77:≥ε≤.wav
192,192,96341,1,0,0:0:0:77:≥ε≤.wav
320,192,96410,1,0,0:0:0:77:≥ε≤.wav
448,192,96478,128,0,96581:0:0:0:77:≥ε≤.wav
448,192,96684,128,0,97506:0:0:0:77:≥ε≤.wav
192,192,96684,128,0,96889:0:0:0:77:≥ε≤.wav
64,192,96684,128,0,96787:0:0:0:77:≥ε≤.wav
320,192,96889,128,0,97095:0:0:0:77:≥ε≤.wav
64,192,97095,1,0,0:0:0:77:≥ε≤.wav
64,192,97300,1,0,0:0:0:77:≥ε≤.wav
64,192,97506,128,0,97711:0:0:0:77:≥ε≤.wav
192,192,97506,128,0,97609:0:0:0:77:≥ε≤.wav
320,192,97506,1,0,0:0:0:77:≥ε≤.wav
320,192,97917,128,0,98122:0:0:0:77:≥ε≤.wav
192,192,97917,1,0,0:0:0:77:≥ε≤.wav
448,192,97917,128,0,98019:0:0:0:77:≥ε≤.wav
448,192,98328,1,0,0:0:0:77:≥ε≤.wav
192,192,98328,1,0,0:0:0:77:≥ε≤.wav
64,192,98328,1,0,0:0:0:77:≥ε≤.wav
320,192,98533,1,0,0:0:0:77:≥ε≤.wav
192,192,98533,1,0,0:0:0:77:≥ε≤.wav
64,192,98739,128,0,98944:0:0:0:77:≥ε≤.wav
448,192,98739,128,0,98944:0:0:0:77:≥ε≤.wav
192,192,98944,1,0,0:0:0:77:≥ε≤.wav
320,192,99047,1,0,0:0:0:77:≥ε≤.wav
64,192,99150,1,0,0:0:0:77:≥ε≤.wav
192,192,99150,1,0,0:0:0:77:≥ε≤.wav
448,192,99150,1,0,0:0:0:77:≥ε≤.wav
192,192,99355,1,0,0:0:0:77:≥ε≤.wav
320,192,99355,1,0,0:0:0:77:≥ε≤.wav
64,192,99561,1,0,0:0:0:77:≥ε≤.wav
320,192,99561,1,0,0:0:0:77:≥ε≤.wav
448,192,99561,1,0,0:0:0:77:≥ε≤.wav
192,192,99766,1,0,0:0:0:77:≥ε≤.wav
320,192,99869,1,0,0:0:0:77:≥ε≤.wav
64,192,99972,1,0,0:0:0:77:≥ε≤.wav
192,192,99972,1,0,0:0:0:77:≥ε≤.wav
448,192,100074,1,0,0:0:0:77:≥ε≤.wav
192,192,100177,1,0,0:0:0:77:≥ε≤.wav
320,192,100280,1,0,0:0:0:77:≥ε≤.wav
64,192,100383,1,0,0:0:0:77:≥ε≤.wav
192,192,100383,1,0,0:0:0:77:≥ε≤.wav
320,192,100485,1,0,0:0:0:77:≥ε≤.wav
192,192,100588,1,0,0:0:0:77:≥ε≤.wav
64,192,100691,1,0,0:0:0:77:≥ε≤.wav
448,192,100793,1,0,0:0:0:77:≥ε≤.wav
192,192,100793,1,0,0:0:0:77:≥ε≤.wav
320,192,100999,1,0,0:0:0:77:≥ε≤.wav
192,192,101102,1,0,0:0:0:77:≥ε≤.wav
320,192,101204,1,0,0:0:0:77:≥ε≤.wav
448,192,101204,1,0,0:0:0:77:≥ε≤.wav
64,192,101307,1,0,0:0:0:77:≥ε≤.wav
320,192,101410,1,0,0:0:0:77:≥ε≤.wav
192,192,101513,1,0,0:0:0:77:≥ε≤.wav
64,192,101615,1,0,0:0:0:77:≥ε≤.wav
320,192,101615,128,0,101718:0:0:0:77:≥ε≤.wav
448,192,101615,128,0,101821:0:0:0:77:≥ε≤.wav
192,192,101718,1,0,0:0:0:77:≥ε≤.wav
64,192,101821,1,0,0:0:0:77:≥ε≤.wav
320,192,101924,1,0,0:0:0:77:≥ε≤.wav
64,192,102026,1,0,0:0:0:77:≥ε≤.wav
192,192,102026,128,0,102129:0:0:0:77:≥ε≤.wav
448,192,102026,128,0,102232:0:0:0:77:≥ε≤.wav
320,192,102129,1,0,0:0:0:77:≥ε≤.wav
64,192,102232,1,0,0:0:0:77:≥ε≤.wav
192,192,102335,1,0,0:0:0:77:≥ε≤.wav
320,192,102437,1,0,0:0:0:77:≥ε≤.wav
64,192,102437,128,0,102540:0:0:0:77:≥ε≤.wav
448,192,102437,128,0,102643:0:0:0:77:≥ε≤.wav
192,192,102643,1,0,0:0:0:77:≥ε≤.wav
320,192,102746,128,0,102951:0:0:0:77:≥ε≤.wav
64,192,102848,1,0,0:0:0:77:≥ε≤.wav
448,192,102848,1,0,0:0:0:77:≥ε≤.wav
192,192,102951,1,0,0:0:0:77:≥ε≤.wav
320,192,103054,128,0,103259:0:0:0:77:≥ε≤.wav
64,192,103259,1,0,0:0:0:77:≥ε≤.wav
192,192,103259,1,0,0:0:0:77:≥ε≤.wav
448,192,103259,1,0,0:0:0:77:≥ε≤.wav
320,192,103362,1,0,0:0:0:77:≥ε≤.wav
448,192,103465,1,0,0:0:0:77:≥ε≤.wav
320,192,103567,1,0,0:0:0:77:≥ε≤.wav
448,192,103670,1,0,0:0:0:77:≥ε≤.wav
64,192,103670,128,0,103773:0:0:0:77:≥ε≤.wav
192,192,103876,128,0,103978:0:0:0:77:≥ε≤.wav
64,192,104081,1,0,0:0:0:77:≥ε≤.wav
448,192,104081,1,0,0:0:0:77:≥ε≤.wav
320,192,104081,128,0,104184:0:0:0:77:≥ε≤.wav
192,192,104287,1,0,0:0:0:77:≥ε≤.wav
448,192,104287,128,0,104389:0:0:0:77:≥ε≤.wav
64,192,104492,128,0,104595:0:0:0:77:≥ε≤.wav
320,192,104492,1,0,0:0:0:77:≥ε≤.wav
192,192,104492,1,0,0:0:0:77:≥ε≤.wav
192,192,104698,128,0,104800:0:0:0:77:≥ε≤.wav
448,192,104698,1,0,0:0:0:77:≥ε≤.wav
64,192,104903,1,0,0:0:0:77:≥ε≤.wav
320,192,104903,128,0,105109:0:0:0:77:≥ε≤.wav
448,192,104903,1,0,0:0:0:77:≥ε≤.wav
192,192,105109,128,0,105314:0:0:0:77:≥ε≤.wav
448,192,105314,128,0,105451:0:0:0:77:≥ε≤.wav
64,192,105314,1,0,0:0:0:77:≥ε≤.wav
448,192,105520,128,0,105656:0:0:0:77:≥ε≤.wav
64,192,105725,1,0,0:0:0:77:≥ε≤.wav
320,192,105725,1,0,0:0:0:77:≥ε≤.wav
448,192,105725,1,0,0:0:0:77:≥ε≤.wav
192,192,105930,1,0,0:0:0:77:≥ε≤.wav
320,192,105930,1,0,0:0:0:77:≥ε≤.wav
64,192,106136,1,0,0:0:0:77:≥ε≤.wav
192,192,106136,1,0,0:0:0:77:≥ε≤.wav
448,192,106136,1,0,0:0:0:77:≥ε≤.wav
320,192,106341,1,0,0:0:0:77:≥ε≤.wav
192,192,106444,1,0,0:0:0:77:≥ε≤.wav
320,192,106547,1,0,0:0:0:77:≥ε≤.wav
448,192,106547,1,0,0:0:0:77:≥ε≤.wav
64,192,106650,1,0,0:0:0:77:≥ε≤.wav
320,192,106752,1,0,0:0:0:77:≥ε≤.wav
192,192,106855,1,0,0:0:0:77:≥ε≤.wav
320,192,106958,1,0,0:0:0:77:≥ε≤.wav
448,192,106958,1,0,0:0:0:77:≥ε≤.wav
64,192,106958,128,0,107369:0:0:0:77:≥ε≤.wav
192,192,107061,1,0,0:0:0:77:≥ε≤.wav
320,192,107163,1,0,0:0:0:77:≥ε≤.wav
448,192,107266,1,0,0:0:0:77:≥ε≤.wav
192,192,107369,1,0,0:0:0:77:≥ε≤.wav
320,192,107369,1,0,0:0:0:77:≥ε≤.wav
192,192,107574,1,0,0:0:0:77:≥ε≤.wav
320,192,107677,1,0,0:0:0:77:≥ε≤.wav
64,192,107780,1,0,0:0:0:77:≥ε≤.wav
192,192,107780,1,0,0:0:0:77:≥ε≤.wav
448,192,107883,1,0,0:0:0:77:≥ε≤.wav
192,192,107985,1,0,0:0:0:77:≥ε≤.wav
320,192,108088,1,0,0:0:0:77:≥ε≤.wav
64,192,108191,1,0,0:0:0:77:≥ε≤.wav
448,192,108191,1,0,0:0:0:77:≥ε≤.wav
192,192,108191,1,0,0:0:0:77:≥ε≤.wav
320,192,108396,128,0,108602:0:0:0:77:≥ε≤.wav
192,192,108602,1,0,0:0:0:77:≥ε≤.wav
64,192,108602,1,0,0:0:0:77:≥ε≤.wav
448,192,108602,1,0,0:0:0:77:≥ε≤.wav
64,192,108807,1,0,0:0:0:77:≥ε≤.wav
320,192,108807,1,0,0:0:0:77:≥ε≤.wav
448,192,108807,1,0,0:0:0:77:≥ε≤.wav
64,192,108910,1,0,0:0:0:77:≥ε≤.wav
320,192,108910,1,0,0:0:0:77:≥ε≤.wav
448,192,108910,1,0,0:0:0:77:≥ε≤.wav
64,192,109013,128,0,109424:0:0:0:77:≥ε≤.wav
192,192,109013,128,0,109218:0:0:0:77:≥ε≤.wav
320,192,109013,128,0,109115:0:0:0:77:≥ε≤.wav
448,192,109218,128,0,109629:0:0:0:77:≥ε≤.wav
320,192,109424,128,0,109835:0:0:0:77:≥ε≤.wav
64,192,109629,128,0,110040:0:0:0:77:≥ε≤.wav
192,192,109629,1,0,0:0:0:77:≥ε≤.wav
448,192,109835,128,0,110246:0:0:0:77:≥ε≤.wav
192,192,109835,1,0,0:0:0:77:≥ε≤.wav
320,192,110040,1,0,0:0:0:77:≥ε≤.wav
192,192,110040,128,0,110246:0:0:0:77:≥ε≤.wav
64,192,110246,128,0,110656:0:0:0:77:≥ε≤.wav
320,192,110297,1,0,0:0:0:77:≥ε≤.wav
448,192,110348,1,0,0:0:0:77:≥ε≤.wav
192,192,110400,1,0,0:0:0:77:≥ε≤.wav
320,192,110451,1,0,0:0:0:77:≥ε≤.wav
448,192,110502,1,0,0:0:0:77:≥ε≤.wav
192,192,110554,1,0,0:0:0:77:≥ε≤.wav
320,192,110605,1,0,0:0:0:77:≥ε≤.wav
448,192,110656,128,0,111067:0:0:0:77:≥ε≤.wav
192,192,110656,128,0,110862:0:0:0:77:≥ε≤.wav
320,192,110862,128,0,111273:0:0:0:77:≥ε≤.wav
192,192,111067,128,0,111478:0:0:0:77:≥ε≤.wav
64,192,111273,128,0,111684:0:0:0:77:≥ε≤.wav
448,192,111478,1,0,0:0:0:77:≥ε≤.wav
320,192,111581,1,0,0:0:0:77:≥ε≤.wav
448,192,111684,1,0,0:0:0:77:≥ε≤.wav
320,192,111787,1,0,0:0:0:77:≥ε≤.wav
448,192,111889,128,0,112198:0:0:0:77:≥ε≤.wav
192,192,111889,128,0,112095:0:0:0:77:≥ε≤.wav
64,192,112095,128,0,112300:0:0:0:77:≥ε≤.wav
448,192,112300,1,0,0:0:0:77:≥ε≤.wav
192,192,112300,128,0,112609:0:0:0:77:≥ε≤.wav
320,192,112300,128,0,112403:0:0:0:77:≥ε≤.wav
64,192,112711,1,0,0:0:0:77:≥ε≤.wav
64,192,113122,1,0,0:0:0:77:≥ε≤.wav
320,192,113328,1,0,0:0:0:77:≥ε≤.wav
64,192,113533,1,0,0:0:0:77:≥ε≤.wav
64,192,113944,1,0,0:0:0:77:≥ε≤.wav
448,192,113944,1,0,0:0:0:77:≥ε≤.wav
192,192,114150,1,0,0:0:0:77:≥ε≤.wav
320,192,114252,1,0,0:0:0:77:≥ε≤.wav
64,192,114355,1,0,0:0:0:77:≥ε≤.wav
64,192,114766,1,0,0:0:0:77:≥ε≤.wav
448,192,114972,1,0,0:0:0:77:≥ε≤.wav
64,192,115177,1,0,0:0:0:77:≥ε≤.wav
64,192,115588,1,0,0:0:0:77:≥ε≤.wav
320,192,115588,1,0,0:0:0:77:≥ε≤.wav
64,192,115999,1,0,0:0:0:77:≥ε≤.wav
64,192,116410,1,0,0:0:0:77:≥ε≤.wav
448,192,116513,1,0,0:0:0:77:≥ε≤.wav
320,192,116615,1,0,0:0:0:77:≥ε≤.wav
448,192,116718,1,0,0:0:0:77:≥ε≤.wav
64,192,116821,1,0,0:0:0:77:≥ε≤.wav
320,192,117026,1,0,0:0:0:77:≥ε≤.wav
64,192,117232,1,0,0:0:0:77:≥ε≤.wav
448,192,117232,1,0,0:0:0:77:≥ε≤.wav
320,192,117540,1,0,0:0:0:77:≥ε≤.wav
64,192,117643,1,0,0:0:0:77:≥ε≤.wav
64,192,118054,1,0,0:0:0:77:≥ε≤.wav
448,192,118259,1,0,0:0:0:77:≥ε≤.wav
320,192,118362,1,0,0:0:0:77:≥ε≤.wav
64,192,118465,1,0,0:0:0:77:≥ε≤.wav
448,192,118670,1,0,0:0:0:77:≥ε≤.wav
64,192,118876,1,0,0:0:0:77:≥ε≤.wav
320,192,118876,1,0,0:0:0:77:≥ε≤.wav
64,192,119287,1,0,0:0:0:77:≥ε≤.wav
64,192,119698,1,0,0:0:0:77:≥ε≤.wav
320,192,119800,1,0,0:0:0:77:≥ε≤.wav
448,192,119903,1,0,0:0:0:77:≥ε≤.wav
320,192,120006,1,0,0:0:0:77:≥ε≤.wav
64,192,120109,1,0,0:0:0:77:≥ε≤.wav
320,192,120314,1,0,0:0:0:77:≥ε≤.wav
64,192,120519,1,0,0:0:0:77:≥ε≤.wav
448,192,120519,1,0,0:0:0:77:≥ε≤.wav
320,192,120828,1,0,0:0:0:77:≥ε≤.wav
64,192,120930,1,0,0:0:0:77:≥ε≤.wav
64,192,121341,1,0,0:0:0:77:≥ε≤.wav
320,192,121341,1,0,0:0:0:77:≥ε≤.wav
448,192,121650,1,0,0:0:0:77:≥ε≤.wav
64,192,121752,1,0,0:0:0:77:≥ε≤.wav
192,192,121958,1,0,0:0:0:77:≥ε≤.wav
64,192,122163,1,0,0:0:0:77:≥ε≤.wav
320,192,122163,1,0,0:0:0:77:≥ε≤.wav
64,192,122574,1,0,0:0:0:77:≥ε≤.wav
448,192,122574,1,0,0:0:0:77:≥ε≤.wav
64,192,122985,1,0,0:0:0:77:≥ε≤.wav
192,192,122985,1,0,0:0:0:77:≥ε≤.wav
192,192,123088,1,0,0:0:0:77:≥ε≤.wav
320,192,123293,1,0,0:0:0:77:≥ε≤.wav
64,192,123396,1,0,0:0:0:77:≥ε≤.wav
320,192,123396,1,0,0:0:0:77:≥ε≤.wav
448,192,123602,1,0,0:0:0:77:≥ε≤.wav
64,192,123807,1,0,0:0:0:77:≥ε≤.wav
320,192,123807,1,0,0:0:0:77:≥ε≤.wav
320,192,124115,1,0,0:0:0:77:≥ε≤.wav
64,192,124218,1,0,0:0:0:77:≥ε≤.wav
320,192,124218,1,0,0:0:0:77:≥ε≤.wav
64,192,124629,1,0,0:0:0:77:≥ε≤.wav
448,192,124629,1,0,0:0:0:77:≥ε≤.wav
448,192,124937,1,0,0:0:0:77:≥ε≤.wav
64,192,125040,1,0,0:0:0:77:≥ε≤.wav
448,192,125246,1,0,0:0:0:77:≥ε≤.wav
320,192,125451,128,0,125656:0:0:0:77:≥ε≤.wav
64,192,125451,128,0,125554:0:0:0:77:≥ε≤.wav
192,192,125656,1,0,0:0:0:77:≥ε≤.wav
64,192,125862,1,0,0:0:0:77:≥ε≤.wav
192,192,125862,1,0,0:0:0:77:≥ε≤.wav
320,192,125965,1,0,0:0:0:77:≥ε≤.wav
192,192,126067,1,0,0:0:0:77:≥ε≤.wav
448,192,126170,1,0,0:0:0:77:≥ε≤.wav
64,192,126273,1,0,0:0:0:77:≥ε≤.wav
192,192,126273,1,0,0:0:0:77:≥ε≤.wav
320,192,126376,1,0,0:0:0:77:≥ε≤.wav
448,192,126478,1,0,0:0:0:77:≥ε≤.wav
192,192,126581,1,0,0:0:0:77:≥ε≤.wav
64,192,126684,1,0,0:0:0:77:≥ε≤.wav
320,192,126684,1,0,0:0:0:77:≥ε≤.wav
448,192,126684,1,0,0:0:0:77:≥ε≤.wav
192,192,126889,1,0,0:0:0:77:≥ε≤.wav
448,192,126889,1,0,0:0:0:77:≥ε≤.wav
64,192,127095,128,0,127198:0:0:0:77:≥ε≤.wav
320,192,127095,128,0,127300:0:0:0:77:≥ε≤.wav
448,192,127300,1,0,0:0:0:77:≥ε≤.wav
64,192,127506,1,0,0:0:0:77:≥ε≤.wav
192,192,127506,1,0,0:0:0:77:≥ε≤.wav
320,192,127609,1,0,0:0:0:77:≥ε≤.wav
192,192,127711,1,0,0:0:0:77:≥ε≤.wav
448,192,127814,1,0,0:0:0:77:≥ε≤.wav
64,192,127917,1,0,0:0:0:77:≥ε≤.wav
192,192,127917,1,0,0:0:0:77:≥ε≤.wav
320,192,128019,1,0,0:0:0:77:≥ε≤.wav
448,192,128122,1,0,0:0:0:77:≥ε≤.wav
192,192,128225,1,0,0:0:0:77:≥ε≤.wav
64,192,128328,1,0,0:0:0:77:≥ε≤.wav
320,192,128328,1,0,0:0:0:77:≥ε≤.wav
448,192,128328,1,0,0:0:0:77:≥ε≤.wav
192,192,128533,1,0,0:0:0:77:≥ε≤.wav
320,192,128533,1,0,0:0:0:77:≥ε≤.wav
192,192,128739,128,0,128944:0:0:0:77:≥ε≤.wav
448,192,128739,128,0,128841:0:0:0:77:≥ε≤.wav
64,192,128944,1,0,0:0:0:77:≥ε≤.wav
320,192,129150,1,0,0:0:0:77:≥ε≤.wav
448,192,129150,1,0,0:0:0:77:≥ε≤.wav
192,192,129252,1,0,0:0:0:77:≥ε≤.wav
320,192,129355,1,0,0:0:0:77:≥ε≤.wav
64,192,129458,1,0,0:0:0:77:≥ε≤.wav
192,192,129561,1,0,0:0:0:77:≥ε≤.wav
448,192,129561,1,0,0:0:0:77:≥ε≤.wav
320,192,129663,1,0,0:0:0:77:≥ε≤.wav
448,192,129766,1,0,0:0:0:77:≥ε≤.wav
192,192,129869,1,0,0:0:0:77:≥ε≤.wav
64,192,129972,1,0,0:0:0:77:≥ε≤.wav
448,192,129972,1,0,0:0:0:77:≥ε≤.wav
320,192,129972,1,0,0:0:0:77:≥ε≤.wav
192,192,130177,1,0,0:0:0:77:≥ε≤.wav
320,192,130177,1,0,0:0:0:77:≥ε≤.wav
192,192,130383,128,0,130588:0:0:0:77:≥ε≤.wav
448,192,130383,128,0,130485:0:0:0:77:≥ε≤.wav
64,192,130588,1,0,0:0:0:77:≥ε≤.wav
320,192,130793,1,0,0:0:0:77:≥ε≤.wav
448,192,130793,1,0,0:0:0:77:≥ε≤.wav
192,192,130896,1,0,0:0:0:77:≥ε≤.wav
320,192,130999,1,0,0:0:0:77:≥ε≤.wav
64,192,131102,1,0,0:0:0:77:≥ε≤.wav
192,192,131204,1,0,0:0:0:77:≥ε≤.wav
448,192,131204,1,0,0:0:0:77:≥ε≤.wav
320,192,131307,1,0,0:0:0:77:≥ε≤.wav
448,192,131410,1,0,0:0:0:77:≥ε≤.wav
192,192,131513,1,0,0:0:0:77:≥ε≤.wav
64,192,131615,128,0,131821:0:0:0:77:≥ε≤.wav
320,192,131615,1,0,0:0:0:77:≥ε≤.wav
448,192,131615,1,0,0:0:0:77:≥ε≤.wav
448,192,131821,128,0,132026:0:0:0:77:≥ε≤.wav
64,192,132026,128,0,132129:0:0:0:77:≥ε≤.wav
320,192,132026,128,0,132232:0:0:0:77:≥ε≤.wav
192,192,132232,1,0,0:0:0:77:≥ε≤.wav
448,192,132335,1,0,0:0:0:77:≥ε≤.wav
64,192,132437,1,0,0:0:0:77:≥ε≤.wav
192,192,132437,1,0,0:0:0:77:≥ε≤.wav
320,192,132540,1,0,0:0:0:77:≥ε≤.wav
192,192,132643,1,0,0:0:0:77:≥ε≤.wav
64,192,132746,1,0,0:0:0:77:≥ε≤.wav
448,192,132746,1,0,0:0:0:77:≥ε≤.wav
192,192,132848,1,0,0:0:0:77:≥ε≤.wav
320,192,132848,1,0,0:0:0:77:≥ε≤.wav
448,192,132951,1,0,0:0:0:77:≥ε≤.wav
64,192,133054,1,0,0:0:0:77:≥ε≤.wav
192,192,133156,1,0,0:0:0:77:≥ε≤.wav
64,192,133259,1,0,0:0:0:77:≥ε≤.wav
320,192,133259,1,0,0:0:0:77:≥ε≤.wav
448,192,133259,1,0,0:0:0:77:≥ε≤.wav
192,192,133465,1,0,0:0:0:77:≥ε≤.wav
448,192,133465,1,0,0:0:0:77:≥ε≤.wav
64,192,133670,128,0,133773:0:0:0:77:≥ε≤.wav
320,192,133670,128,0,133876:0:0:0:77:≥ε≤.wav
192,192,133876,1,0,0:0:0:77:≥ε≤.wav
448,192,133978,1,0,0:0:0:77:≥ε≤.wav
64,192,133978,1,0,0:0:0:77:≥ε≤.wav
192,192,134081,1,0,0:0:0:77:≥ε≤.wav
320,192,134081,1,0,0:0:0:77:≥ε≤.wav
448,192,134184,1,0,0:0:0:77:≥ε≤.wav
64,192,134287,1,0,0:0:0:77:≥ε≤.wav
320,192,134287,1,0,0:0:0:77:≥ε≤.wav
448,192,134389,1,0,0:0:0:77:≥ε≤.wav
192,192,134492,1,0,0:0:0:77:≥ε≤.wav
64,192,134492,1,0,0:0:0:77:≥ε≤.wav
320,192,134595,1,0,0:0:0:77:≥ε≤.wav
448,192,134698,1,0,0:0:0:77:≥ε≤.wav
64,192,134698,1,0,0:0:0:77:≥ε≤.wav
192,192,134800,1,0,0:0:0:77:≥ε≤.wav
320,192,134800,1,0,0:0:0:77:≥ε≤.wav
64,192,134903,128,0,135109:0:0:0:77:≥ε≤.wav
448,192,134903,1,0,0:0:0:77:≥ε≤.wav
320,192,134903,1,0,0:0:0:77:≥ε≤.wav
320,192,135109,128,0,135314:0:0:0:77:≥ε≤.wav
64,192,135314,128,0,135417:0:0:0:77:≥ε≤.wav
448,192,135314,128,0,138191:0:0:0:77:≥ε≤.wav
320,192,135520,1,0,0:0:0:77:≥ε≤.wav
64,192,135725,1,0,0:0:0:77:≥ε≤.wav
192,192,135930,1,0,0:0:0:77:≥ε≤.wav
64,192,136136,1,0,0:0:0:77:≥ε≤.wav
320,192,136136,128,0,136341:0:0:0:77:≥ε≤.wav
64,192,136341,1,0,0:0:0:77:≥ε≤.wav
192,192,136444,1,0,0:0:0:77:≥ε≤.wav
64,192,136547,1,0,0:0:0:77:≥ε≤.wav
320,192,136547,128,0,136650:0:0:0:77:≥ε≤.wav
192,192,136650,1,0,0:0:0:77:≥ε≤.wav
320,192,136752,1,0,0:0:0:77:≥ε≤.wav
192,192,136855,1,0,0:0:0:77:≥ε≤.wav
320,192,136958,1,0,0:0:0:77:≥ε≤.wav
64,192,136958,128,0,137061:0:0:0:77:≥ε≤.wav
192,192,137061,1,0,0:0:0:77:≥ε≤.wav
320,192,137163,1,0,0:0:0:77:≥ε≤.wav
64,192,137163,1,0,0:0:0:77:≥ε≤.wav
192,192,137266,1,0,0:0:0:77:≥ε≤.wav
64,192,137369,1,0,0:0:0:77:≥ε≤.wav
320,192,137369,128,0,137472:0:0:0:77:≥ε≤.wav
192,192,137472,1,0,0:0:0:77:≥ε≤.wav
64,192,137574,1,0,0:0:0:77:≥ε≤.wav
320,192,137574,1,0,0:0:0:77:≥ε≤.wav
192,192,137677,1,0,0:0:0:77:≥ε≤.wav
320,192,137780,1,0,0:0:0:77:≥ε≤.wav
192,192,137831,1,0,0:0:0:77:≥ε≤.wav
64,192,137883,1,0,0:0:0:77:≥ε≤.wav
320,192,137934,1,0,0:0:0:77:≥ε≤.wav
192,192,137985,1,0,0:0:0:77:≥ε≤.wav
64,192,138037,1,0,0:0:0:77:≥ε≤.wav
320,192,138088,1,0,0:0:0:77:≥ε≤.wav
192,192,138139,1,0,0:0:0:77:≥ε≤.wav
64,192,138191,128,0,138396:0:0:0:77:≥ε≤.wav
320,192,138396,128,0,138499:0:0:0:77:≥ε≤.wav
192,192,138499,1,0,0:0:0:77:≥ε≤.wav
64,192,138499,128,0,138602:0:0:0:77:≥ε≤.wav
320,192,138602,128,0,138807:0:0:0:77:≥ε≤.wav
448,192,138602,1,0,0:0:0:77:≥ε≤.wav
192,192,138807,1,0,0:0:0:77:≥ε≤.wav
320,192,138910,1,0,0:0:0:77:≥ε≤.wav
64,192,139013,1,0,0:0:0:77:≥ε≤.wav
192,192,139013,1,0,0:0:0:77:≥ε≤.wav
448,192,139115,1,0,0:0:0:77:≥ε≤.wav
192,192,139218,1,0,0:0:0:77:≥ε≤.wav
320,192,139321,1,0,0:0:0:77:≥ε≤.wav
64,192,139424,1,0,0:0:0:77:≥ε≤.wav
192,192,139424,1,0,0:0:0:77:≥ε≤.wav
448,192,139526,128,0,139732:0:0:0:77:≥ε≤.wav
192,192,139629,1,0,0:0:0:77:≥ε≤.wav
320,192,139732,1,0,0:0:0:77:≥ε≤.wav
64,192,139835,1,0,0:0:0:77:≥ε≤.wav
448,192,139835,1,0,0:0:0:77:≥ε≤.wav
192,192,140040,1,0,0:0:0:77:≥ε≤.wav
320,192,140040,1,0,0:0:0:77:≥ε≤.wav
64,192,140246,128,0,140451:0:0:0:77:≥ε≤.wav
448,192,140246,1,0,0:0:0:77:≥ε≤.wav
320,192,140451,1,0,0:0:0:77:≥ε≤.wav
192,192,140554,1,0,0:0:0:77:≥ε≤.wav
320,192,140656,1,0,0:0:0:77:≥ε≤.wav
448,192,140656,1,0,0:0:0:77:≥ε≤.wav
64,192,140759,1,0,0:0:0:77:≥ε≤.wav
320,192,140862,1,0,0:0:0:77:≥ε≤.wav
192,192,140965,1,0,0:0:0:77:≥ε≤.wav
320,192,141067,1,0,0:0:0:77:≥ε≤.wav
448,192,141067,1,0,0:0:0:77:≥ε≤.wav
64,192,141170,128,0,141376:0:0:0:77:≥ε≤.wav
320,192,141273,1,0,0:0:0:77:≥ε≤.wav
448,192,141376,1,0,0:0:0:77:≥ε≤.wav
64,192,141478,1,0,0:0:0:77:≥ε≤.wav
192,192,141478,1,0,0:0:0:77:≥ε≤.wav
192,192,141684,1,0,0:0:0:77:≥ε≤.wav
320,192,141684,1,0,0:0:0:77:≥ε≤.wav
448,192,141889,128,0,142095:0:0:0:77:≥ε≤.wav
64,192,141889,1,0,0:0:0:77:≥ε≤.wav
320,192,142095,1,0,0:0:0:77:≥ε≤.wav
448,192,142198,1,0,0:0:0:77:≥ε≤.wav
320,192,142300,1,0,0:0:0:77:≥ε≤.wav
64,192,142300,1,0,0:0:0:77:≥ε≤.wav
448,192,142403,1,0,0:0:0:77:≥ε≤.wav
192,192,142506,1,0,0:0:0:77:≥ε≤.wav
320,192,142609,1,0,0:0:0:77:≥ε≤.wav
192,192,142711,1,0,0:0:0:77:≥ε≤.wav
64,192,142711,1,0,0:0:0:77:≥ε≤.wav
448,192,142814,128,0,143020:0:0:0:77:≥ε≤.wav
192,192,142917,128,0,143122:0:0:0:77:≥ε≤.wav
320,192,143020,1,0,0:0:0:77:≥ε≤.wav
448,192,143122,1,0,0:0:0:77:≥ε≤.wav
64,192,143122,1,0,0:0:0:77:≥ε≤.wav
192,192,143328,1,0,0:0:0:77:≥ε≤.wav
320,192,143328,1,0,0:0:0:77:≥ε≤.wav
64,192,143533,128,0,143739:0:0:0:77:≥ε≤.wav
448,192,143533,1,0,0:0:0:77:≥ε≤.wav
192,192,143739,1,0,0:0:0:77:≥ε≤.wav
64,192,143841,1,0,0:0:0:77:≥ε≤.wav
192,192,143944,1,0,0:0:0:77:≥ε≤.wav
448,192,143944,1,0,0:0:0:77:≥ε≤.wav
64,192,144047,1,0,0:0:0:77:≥ε≤.wav
320,192,144150,1,0,0:0:0:77:≥ε≤.wav
192,192,144252,1,0,0:0:0:77:≥ε≤.wav
320,192,144355,1,0,0:0:0:77:≥ε≤.wav
448,192,144355,1,0,0:0:0:77:≥ε≤.wav
64,192,144458,128,0,144663:0:0:0:77:≥ε≤.wav
320,192,144561,128,0,144766:0:0:0:77:≥ε≤.wav
448,192,144663,1,0,0:0:0:77:≥ε≤.wav
64,192,144766,1,0,0:0:0:77:≥ε≤.wav
192,192,144766,1,0,0:0:0:77:≥ε≤.wav
192,192,144972,1,0,0:0:0:77:≥ε≤.wav
320,192,144972,1,0,0:0:0:77:≥ε≤.wav
64,192,145177,1,0,0:0:0:77:≥ε≤.wav
320,192,145177,128,0,145280:0:0:0:77:≥ε≤.wav
448,192,145177,128,0,145383:0:0:0:77:≥ε≤.wav
192,192,145383,1,0,0:0:0:77:≥ε≤.wav
320,192,145485,1,0,0:0:0:77:≥ε≤.wav
64,192,145588,1,0,0:0:0:77:≥ε≤.wav
192,192,145588,1,0,0:0:0:77:≥ε≤.wav
448,192,145588,1,0,0:0:0:77:≥ε≤.wav
320,192,145691,1,0,0:0:0:77:≥ε≤.wav
64,192,145793,1,0,0:0:0:77:≥ε≤.wav
320,192,145896,1,0,0:0:0:77:≥ε≤.wav
64,192,145999,1,0,0:0:0:77:≥ε≤.wav
192,192,145999,1,0,0:0:0:77:≥ε≤.wav
448,192,146102,1,0,0:0:0:77:≥ε≤.wav
192,192,146204,128,0,146307:0:0:0:77:≥ε≤.wav
320,192,146307,1,0,0:0:0:77:≥ε≤.wav
64,192,146410,1,0,0:0:0:77:≥ε≤.wav
448,192,146410,1,0,0:0:0:77:≥ε≤.wav
192,192,146410,1,0,0:0:0:77:≥ε≤.wav
192,192,146615,1,0,0:0:0:77:≥ε≤.wav
320,192,146615,1,0,0:0:0:77:≥ε≤.wav
64,192,146821,128,0,147026:0:0:0:77:≥ε≤.wav
192,192,146821,1,0,0:0:0:77:≥ε≤.wav
320,192,147026,1,0,0:0:0:77:≥ε≤.wav
192,192,147129,1,0,0:0:0:77:≥ε≤.wav
320,192,147232,1,0,0:0:0:77:≥ε≤.wav
448,192,147232,1,0,0:0:0:77:≥ε≤.wav
64,192,147232,1,0,0:0:0:77:≥ε≤.wav
192,192,147335,1,0,0:0:0:77:≥ε≤.wav
448,192,147437,1,0,0:0:0:77:≥ε≤.wav
192,192,147540,1,0,0:0:0:77:≥ε≤.wav
320,192,147643,1,0,0:0:0:77:≥ε≤.wav
448,192,147643,1,0,0:0:0:77:≥ε≤.wav
64,192,147746,1,0,0:0:0:77:≥ε≤.wav
320,192,147848,128,0,147951:0:0:0:77:≥ε≤.wav
192,192,147951,1,0,0:0:0:77:≥ε≤.wav
448,192,148054,1,0,0:0:0:77:≥ε≤.wav
320,192,148054,1,0,0:0:0:77:≥ε≤.wav
64,192,148054,1,0,0:0:0:77:≥ε≤.wav
192,192,148259,1,0,0:0:0:77:≥ε≤.wav
320,192,148259,1,0,0:0:0:77:≥ε≤.wav
448,192,148465,128,0,148670:0:0:0:77:≥ε≤.wav
64,192,148465,1,0,0:0:0:77:≥ε≤.wav
192,192,148670,1,0,0:0:0:77:≥ε≤.wav
320,192,148773,1,0,0:0:0:77:≥ε≤.wav
64,192,148876,1,0,0:0:0:77:≥ε≤.wav
448,192,148876,1,0,0:0:0:77:≥ε≤.wav
192,192,148876,1,0,0:0:0:77:≥ε≤.wav
320,192,148978,1,0,0:0:0:77:≥ε≤.wav
64,192,149081,1,0,0:0:0:77:≥ε≤.wav
448,192,149081,1,0,0:0:0:77:≥ε≤.wav
192,192,149184,1,0,0:0:0:77:≥ε≤.wav
320,192,149184,1,0,0:0:0:77:≥ε≤.wav
448,192,149287,1,0,0:0:0:77:≥ε≤.wav
64,192,149389,128,0,149595:0:0:0:77:≥ε≤.wav
320,192,149492,128,0,149595:0:0:0:77:≥ε≤.wav
192,192,149595,1,0,0:0:0:77:≥ε≤.wav
64,192,149698,1,0,0:0:0:77:≥ε≤.wav
320,192,149698,1,0,0:0:0:77:≥ε≤.wav
448,192,149698,1,0,0:0:0:77:≥ε≤.wav
192,192,149903,1,0,0:0:0:77:≥ε≤.wav
320,192,149903,1,0,0:0:0:77:≥ε≤.wav
64,192,150109,128,0,150417:0:0:0:77:≥ε≤.wav
448,192,150109,1,0,0:0:0:77:≥ε≤.wav
192,192,150109,128,0,150314:0:0:0:77:≥ε≤.wav
320,192,150314,128,0,150417:0:0:0:77:≥ε≤.wav
448,192,150417,128,0,150725:0:0:0:77:≥ε≤.wav
192,192,150417,128,0,150622:0:0:0:77:≥ε≤.wav
64,192,150622,128,0,150725:0:0:0:77:≥ε≤.wav
192,192,150725,128,0,151033:0:0:0:77:≥ε≤.wav
320,192,150725,128,0,150930:0:0:0:77:≥ε≤.wav
64,192,150930,128,0,151033:0:0:0:77:≥ε≤.wav
448,192,151033,128,0,151341:0:0:0:77:≥ε≤.wav
320,192,151033,128,0,151239:0:0:0:77:≥ε≤.wav
192,192,151239,128,0,151341:0:0:0:77:≥ε≤.wav
320,192,151341,128,0,151547:0:0:0:77:≥ε≤.wav
64,192,151341,128,0,151444:0:0:0:77:≥ε≤.wav
192,192,151547,128,0,151752:0:0:0:77:≥ε≤.wav
64,192,151752,128,0,152163:0:0:0:77:≥ε≤.wav
192,192,151958,1,0,0:0:0:77:≥ε≤.wav
320,192,152061,1,0,0:0:0:77:≥ε≤.wav
192,192,152163,1,0,0:0:0:77:≥ε≤.wav
448,192,152163,128,0,152369:0:0:0:77:≥ε≤.wav
320,192,152266,1,0,0:0:0:77:≥ε≤.wav
192,192,152369,1,0,0:0:0:77:≥ε≤.wav
64,192,152472,1,0,0:0:0:77:≥ε≤.wav
448,192,152472,1,0,0:0:0:77:≥ε≤.wav
192,192,152574,1,0,0:0:0:77:≥ε≤.wav
320,192,152574,1,0,0:0:0:77:≥ε≤.wav
448,192,152677,1,0,0:0:0:77:≥ε≤.wav
192,192,152780,1,0,0:0:0:77:≥ε≤.wav
320,192,152883,1,0,0:0:0:77:≥ε≤.wav
192,192,152985,1,0,0:0:0:77:≥ε≤.wav
64,192,152985,128,0,153191:0:0:0:77:≥ε≤.wav
320,192,153191,1,0,0:0:0:77:≥ε≤.wav
64,192,153396,1,0,0:0:0:77:≥ε≤.wav
448,192,153396,128,0,153602:0:0:0:77:≥ε≤.wav
192,192,153602,1,0,0:0:0:77:≥ε≤.wav
320,192,153704,1,0,0:0:0:77:≥ε≤.wav
64,192,153807,1,0,0:0:0:77:≥ε≤.wav
192,192,153807,1,0,0:0:0:77:≥ε≤.wav
320,192,153910,1,0,0:0:0:77:≥ε≤.wav
192,192,154013,1,0,0:0:0:77:≥ε≤.wav
448,192,154115,1,0,0:0:0:77:≥ε≤.wav
64,192,154218,1,0,0:0:0:77:≥ε≤.wav
320,192,154218,1,0,0:0:0:77:≥ε≤.wav
448,192,154321,1,0,0:0:0:77:≥ε≤.wav
192,192,154424,1,0,0:0:0:77:≥ε≤.wav
320,192,154424,1,0,0:0:0:77:≥ε≤.wav
448,192,154526,1,0,0:0:0:77:≥ε≤.wav
64,192,154629,1,0,0:0:0:77:≥ε≤.wav
192,192,154629,128,0,154835:0:0:0:77:≥ε≤.wav
320,192,154835,128,0,155040:0:0:0:77:≥ε≤.wav
64,192,155040,128,0,155246:0:0:0:77:≥ε≤.wav
448,192,155040,1,0,0:0:0:77:≥ε≤.wav
320,192,155246,1,0,0:0:0:77:≥ε≤.wav
192,192,155348,1,0,0:0:0:77:≥ε≤.wav
64,192,155451,1,0,0:0:0:77:≥ε≤.wav
448,192,155451,1,0,0:0:0:77:≥ε≤.wav
320,192,155554,1,0,0:0:0:77:≥ε≤.wav
448,192,155656,1,0,0:0:0:77:≥ε≤.wav
192,192,155656,1,0,0:0:0:77:≥ε≤.wav
64,192,155759,1,0,0:0:0:77:≥ε≤.wav
448,192,155862,1,0,0:0:0:77:≥ε≤.wav
320,192,155862,1,0,0:0:0:77:≥ε≤.wav
64,192,155965,1,0,0:0:0:77:≥ε≤.wav
320,192,156067,1,0,0:0:0:77:≥ε≤.wav
192,192,156170,1,0,0:0:0:77:≥ε≤.wav
320,192,156273,1,0,0:0:0:77:≥ε≤.wav
448,192,156273,128,0,156478:0:0:0:77:≥ε≤.wav
192,192,156478,1,0,0:0:0:77:≥ε≤.wav
448,192,156684,1,0,0:0:0:77:≥ε≤.wav
64,192,156684,128,0,156889:0:0:0:77:≥ε≤.wav
320,192,156889,1,0,0:0:0:77:≥ε≤.wav
192,192,156992,1,0,0:0:0:77:≥ε≤.wav
320,192,157095,1,0,0:0:0:77:≥ε≤.wav
448,192,157095,1,0,0:0:0:77:≥ε≤.wav
192,192,157198,1,0,0:0:0:77:≥ε≤.wav
320,192,157300,1,0,0:0:0:77:≥ε≤.wav
64,192,157403,1,0,0:0:0:77:≥ε≤.wav
192,192,157506,1,0,0:0:0:77:≥ε≤.wav
448,192,157506,1,0,0:0:0:77:≥ε≤.wav
64,192,157609,1,0,0:0:0:77:≥ε≤.wav
192,192,157711,1,0,0:0:0:77:≥ε≤.wav
320,192,157711,1,0,0:0:0:77:≥ε≤.wav
64,192,157814,1,0,0:0:0:77:≥ε≤.wav
320,192,157917,128,0,158020:0:0:0:77:≥ε≤.wav
448,192,157917,1,0,0:0:0:77:≥ε≤.wav
192,192,158122,128,0,158225:0:0:0:77:≥ε≤.wav
320,192,158122,1,0,0:0:0:77:≥ε≤.wav
64,192,158328,128,0,158430:0:0:0:77:≥ε≤.wav
192,192,158328,128,0,158739:0:0:0:77:≥ε≤.wav
448,192,158328,1,0,0:0:0:77:≥ε≤.wav
320,192,158533,128,0,158739:0:0:0:77:≥ε≤.wav
64,192,158739,1,0,0:0:0:77:≥ε≤.wav
448,192,158739,1,0,0:0:0:77:≥ε≤.wav
192,192,158841,1,0,0:0:0:77:≥ε≤.wav
320,192,158841,1,0,0:0:0:77:≥ε≤.wav
448,192,158944,1,0,0:0:0:77:≥ε≤.wav
192,192,159047,1,0,0:0:0:77:≥ε≤.wav
320,192,159150,1,0,0:0:0:77:≥ε≤.wav
448,192,159150,1,0,0:0:0:77:≥ε≤.wav
64,192,159252,1,0,0:0:0:77:≥ε≤.wav
320,192,159355,1,0,0:0:0:77:≥ε≤.wav
192,192,159458,1,0,0:0:0:77:≥ε≤.wav
320,192,159561,1,0,0:0:0:77:≥ε≤.wav
448,192,159561,128,0,159766:0:0:0:77:≥ε≤.wav
192,192,159766,1,0,0:0:0:77:≥ε≤.wav
448,192,159972,1,0,0:0:0:77:≥ε≤.wav
64,192,159972,128,0,160177:0:0:0:77:≥ε≤.wav
192,192,160177,1,0,0:0:0:77:≥ε≤.wav
320,192,160280,1,0,0:0:0:77:≥ε≤.wav
64,192,160383,1,0,0:0:0:77:≥ε≤.wav
192,192,160383,1,0,0:0:0:77:≥ε≤.wav
448,192,160485,1,0,0:0:0:77:≥ε≤.wav
192,192,160588,1,0,0:0:0:77:≥ε≤.wav
320,192,160691,1,0,0:0:0:77:≥ε≤.wav
64,192,160793,1,0,0:0:0:77:≥ε≤.wav
192,192,160793,1,0,0:0:0:77:≥ε≤.wav
448,192,160793,1,0,0:0:0:77:≥ε≤.wav
320,192,160999,128,0,161204:0:0:0:77:≥ε≤.wav
448,192,161204,1,0,0:0:0:77:≥ε≤.wav
192,192,161204,128,0,161615:0:0:0:77:≥ε≤.wav
64,192,161410,128,0,161615:0:0:0:77:≥ε≤.wav
448,192,161615,128,0,164903:0:0:0:77:≥ε≤.wav
320,192,161615,1,0,0:0:0:77:≥ε≤.wav
64,192,162026,1,0,0:0:0:77:≥ε≤.wav
64,192,162437,1,0,0:0:0:77:≥ε≤.wav
64,192,162848,1,0,0:0:0:77:≥ε≤.wav
64,192,163259,1,0,0:0:0:77:≥ε≤.wav
192,192,163465,1,0,0:0:0:77:≥ε≤.wav
64,192,163670,1,0,0:0:0:77:≥ε≤.wav
192,192,163876,1,0,0:0:0:77:≥ε≤.wav
64,192,164081,1,0,0:0:0:77:≥ε≤.wav
192,192,164184,1,0,0:0:0:77:≥ε≤.wav
64,192,164287,1,0,0:0:0:77:≥ε≤.wav
192,192,164389,1,0,0:0:0:77:≥ε≤.wav
64,192,164492,1,0,0:0:0:77:≥ε≤.wav
192,192,164561,1,0,0:0:0:77:≥ε≤.wav
64,192,164629,1,0,0:0:0:77:≥ε≤.wav
192,192,164698,1,0,0:0:0:77:≥ε≤.wav
64,192,164766,1,0,0:0:0:77:≥ε≤.wav
192,192,164835,1,0,0:0:0:77:≥ε≤.wav
64,192,164903,128,0,171889:0:0:0:77:≥ε≤.wav
320,192,165211,128,0,165930:0:0:0:77:≥ε≤.wav
448,192,165622,128,0,166341:0:0:0:77:≥ε≤.wav
192,192,165930,128,0,166752:0:0:0:77:≥ε≤.wav
320,192,166341,128,0,167163:0:0:0:77:≥ε≤.wav
192,192,166958,128,0,167369:0:0:0:77:≥ε≤.wav
448,192,167163,128,0,167780:0:0:0:77:≥ε≤.wav
320,192,167574,128,0,168191:0:0:0:77:≥ε≤.wav
192,192,167985,128,0,169013:0:0:0:77:≥ε≤.wav
448,192,168191,128,0,168602:0:0:0:77:≥ε≤.wav
320,192,168807,128,0,169424:0:0:0:77:≥ε≤.wav
192,192,169218,128,0,170040:0:0:0:77:≥ε≤.wav
448,192,169629,128,0,170451:0:0:0:77:≥ε≤.wav
192,192,170246,128,0,171273:0:0:0:77:≥ε≤.wav
320,192,170451,128,0,170862:0:0:0:77:≥ε≤.wav
448,192,170862,128,0,177026:0:0:0:77:≥ε≤.wav
320,192,171478,128,0,172300:0:0:0:77:≥ε≤.wav
192,192,172095,128,0,172711:0:0:0:77:≥ε≤.wav
64,192,172506,128,0,173328:0:0:0:77:≥ε≤.wav
320,192,172917,128,0,173739:0:0:0:77:≥ε≤.wav
64,192,173533,128,0,174355:0:0:0:77:≥ε≤.wav
192,192,173739,128,0,174150:0:0:0:77:≥ε≤.wav
320,192,174150,128,0,174766:0:0:0:77:≥ε≤.wav
192,192,174561,128,0,175177:0:0:0:77:≥ε≤.wav
64,192,174766,128,0,175588:0:0:0:77:≥ε≤.wav
320,192,175383,128,0,175999:0:0:0:77:≥ε≤.wav
64,192,175793,128,0,176410:0:0:0:77:≥ε≤.wav
192,192,176204,128,0,177437:0:0:0:77:≥ε≤.wav
320,192,176821,128,0,177848:0:0:0:77:≥ε≤.wav
64,192,177026,128,0,178054:0:0:0:77:≥ε≤.wav
448,192,177437,128,0,178054:0:0:0:77:≥ε≤.wav
192,192,178054,1,0,0:0:0:77:≥ε≤.wav
320,192,178054,1,0,0:0:0:77:≥ε≤.wav
64,192,178259,1,0,0:0:0:77:≥ε≤.wav
320,192,178670,1,0,0:0:0:77:≥ε≤.wav
64,192,178876,1,0,0:0:0:77:≥ε≤.wav
448,192,179287,1,0,0:0:0:77:≥ε≤.wav
192,192,179492,1,0,0:0:0:77:≥ε≤.wav
448,192,179903,1,0,0:0:0:77:≥ε≤.wav
192,192,180109,1,0,0:0:0:77:≥ε≤.wav
448,192,180520,1,0,0:0:0:77:≥ε≤.wav
192,192,180725,1,0,0:0:0:77:≥ε≤.wav
448,192,181136,1,0,0:0:0:77:≥ε≤.wav
64,192,181341,1,0,0:0:0:77:≥ε≤.wav
448,192,181752,1,0,0:0:0:77:≥ε≤.wav
64,192,181958,1,0,0:0:0:77:≥ε≤.wav
448,192,182369,1,0,0:0:0:77:≥ε≤.wav
64,192,182574,1,0,0:0:0:77:≥ε≤.wav
320,192,182985,1,0,0:0:0:77:≥ε≤.wav
192,192,183191,1,0,0:0:0:77:≥ε≤.wav
448,192,183602,1,0,0:0:0:77:≥ε≤.wav
64,192,183807,1,0,0:0:0:77:≥ε≤.wav
192,192,184013,1,0,0:0:0:77:≥ε≤.wav
448,192,184218,1,0,0:0:0:77:≥ε≤.wav
320,192,184424,1,0,0:0:0:77:≥ε≤.wav
448,192,184629,1,0,0:0:0:77:≥ε≤.wav
192,192,184835,1,0,0:0:0:77:≥ε≤.wav
448,192,185246,1,0,0:0:0:77:≥ε≤.wav
192,192,185451,1,0,0:0:0:77:≥ε≤.wav
320,192,185862,1,0,0:0:0:77:≥ε≤.wav
64,192,186067,1,0,0:0:0:77:≥ε≤.wav
320,192,186478,1,0,0:0:0:77:≥ε≤.wav
64,192,186684,1,0,0:0:0:77:≥ε≤.wav
320,192,187095,1,0,0:0:0:77:≥ε≤.wav
64,192,187300,1,0,0:0:0:77:≥ε≤.wav
448,192,187711,1,0,0:0:0:77:≥ε≤.wav
64,192,187917,1,0,0:0:0:77:≥ε≤.wav
448,192,188328,1,0,0:0:0:77:≥ε≤.wav
64,192,188533,1,0,0:0:0:77:≥ε≤.wav
448,192,188944,1,0,0:0:0:77:≥ε≤.wav
64,192,189150,1,0,0:0:0:77:≥ε≤.wav
320,192,189561,1,0,0:0:0:77:≥ε≤.wav
192,192,189766,1,0,0:0:0:77:≥ε≤.wav
448,192,190177,1,0,0:0:0:77:≥ε≤.wav
64,192,190383,1,0,0:0:0:77:≥ε≤.wav
192,192,190588,1,0,0:0:0:77:≥ε≤.wav
320,192,190793,1,0,0:0:0:77:≥ε≤.wav
448,192,190999,1,0,0:0:0:77:≥ε≤.wav
64,192,191204,1,0,0:0:0:77:≥ε≤.wav
320,192,191204,1,0,0:0:0:77:≥ε≤.wav
64,192,191307,1,0,0:0:0:77:≥ε≤.wav
192,192,191410,1,0,0:0:0:77:≥ε≤.wav
64,192,191615,1,0,0:0:0:77:≥ε≤.wav
320,192,191615,1,0,0:0:0:77:≥ε≤.wav
64,192,191718,1,0,0:0:0:77:≥ε≤.wav
192,192,191821,1,0,0:0:0:77:≥ε≤.wav
64,192,192026,1,0,0:0:0:77:≥ε≤.wav
320,192,192026,1,0,0:0:0:77:≥ε≤.wav
64,192,192129,1,0,0:0:0:77:≥ε≤.wav
192,192,192232,1,0,0:0:0:77:≥ε≤.wav
64,192,192437,1,0,0:0:0:77:≥ε≤.wav
320,192,192437,1,0,0:0:0:77:≥ε≤.wav
64,192,192540,1,0,0:0:0:77:≥ε≤.wav
192,192,192643,1,0,0:0:0:77:≥ε≤.wav
64,192,192848,1,0,0:0:0:77:≥ε≤.wav
320,192,192848,1,0,0:0:0:77:≥ε≤.wav
320,192,192951,1,0,0:0:0:77:≥ε≤.wav
192,192,193054,1,0,0:0:0:77:≥ε≤.wav
64,192,193259,1,0,0:0:0:77:≥ε≤.wav
320,192,193259,1,0,0:0:0:77:≥ε≤.wav
320,192,193362,1,0,0:0:0:77:≥ε≤.wav
192,192,193465,1,0,0:0:0:77:≥ε≤.wav
192,192,193670,1,0,0:0:0:77:≥ε≤.wav
448,192,193670,1,0,0:0:0:77:≥ε≤.wav
448,192,193773,1,0,0:0:0:77:≥ε≤.wav
320,192,193876,1,0,0:0:0:77:≥ε≤.wav
192,192,194081,1,0,0:0:0:77:≥ε≤.wav
448,192,194081,1,0,0:0:0:77:≥ε≤.wav
448,192,194184,1,0,0:0:0:77:≥ε≤.wav
320,192,194287,1,0,0:0:0:77:≥ε≤.wav
192,192,194492,1,0,0:0:0:77:≥ε≤.wav
64,192,194492,1,0,0:0:0:77:≥ε≤.wav
192,192,194595,1,0,0:0:0:77:≥ε≤.wav
320,192,194698,1,0,0:0:0:77:≥ε≤.wav
64,192,194903,1,0,0:0:0:77:≥ε≤.wav
192,192,194903,1,0,0:0:0:77:≥ε≤.wav
192,192,195006,1,0,0:0:0:77:≥ε≤.wav
320,192,195109,1,0,0:0:0:77:≥ε≤.wav
64,192,195314,1,0,0:0:0:77:≥ε≤.wav
192,192,195314,1,0,0:0:0:77:≥ε≤.wav
192,192,195417,1,0,0:0:0:77:≥ε≤.wav
320,192,195520,1,0,0:0:0:77:≥ε≤.wav
64,192,195725,1,0,0:0:0:77:≥ε≤.wav
320,192,195725,1,0,0:0:0:77:≥ε≤.wav
320,192,195828,1,0,0:0:0:77:≥ε≤.wav
448,192,195930,1,0,0:0:0:77:≥ε≤.wav
320,192,196136,1,0,0:0:0:77:≥ε≤.wav
448,192,196136,1,0,0:0:0:77:≥ε≤.wav
320,192,196239,1,0,0:0:0:77:≥ε≤.wav
192,192,196341,1,0,0:0:0:77:≥ε≤.wav
320,192,196547,1,0,0:0:0:77:≥ε≤.wav
448,192,196547,1,0,0:0:0:77:≥ε≤.wav
320,192,196650,1,0,0:0:0:77:≥ε≤.wav
192,192,196752,1,0,0:0:0:77:≥ε≤.wav
64,192,196958,1,0,0:0:0:77:≥ε≤.wav
448,192,196958,1,0,0:0:0:77:≥ε≤.wav
448,192,197061,1,0,0:0:0:77:≥ε≤.wav
192,192,197163,1,0,0:0:0:77:≥ε≤.wav
64,192,197369,1,0,0:0:0:77:≥ε≤.wav
448,192,197369,1,0,0:0:0:77:≥ε≤.wav
448,192,197472,1,0,0:0:0:77:≥ε≤.wav
192,192,197574,1,0,0:0:0:77:≥ε≤.wav
192,192,197780,1,0,0:0:0:77:≥ε≤.wav
320,192,197780,1,0,0:0:0:77:≥ε≤.wav
320,192,197883,1,0,0:0:0:77:≥ε≤.wav
448,192,197985,1,0,0:0:0:77:≥ε≤.wav
192,192,198191,1,0,0:0:0:77:≥ε≤.wav
320,192,198191,1,0,0:0:0:77:≥ε≤.wav
320,192,198293,1,0,0:0:0:77:≥ε≤.wav
448,192,198396,1,0,0:0:0:77:≥ε≤.wav
192,192,198602,1,0,0:0:0:77:≥ε≤.wav
320,192,198602,1,0,0:0:0:77:≥ε≤.wav
320,192,198704,1,0,0:0:0:77:≥ε≤.wav
448,192,198807,1,0,0:0:0:77:≥ε≤.wav
192,192,199013,1,0,0:0:0:77:≥ε≤.wav
320,192,199013,1,0,0:0:0:77:≥ε≤.wav
320,192,199115,1,0,0:0:0:77:≥ε≤.wav
448,192,199218,1,0,0:0:0:77:≥ε≤.wav
64,192,199424,1,0,0:0:0:77:≥ε≤.wav
192,192,199424,1,0,0:0:0:77:≥ε≤.wav
192,192,199526,1,0,0:0:0:77:≥ε≤.wav
320,192,199629,1,0,0:0:0:77:≥ε≤.wav
64,192,199835,1,0,0:0:0:77:≥ε≤.wav
192,192,199835,1,0,0:0:0:77:≥ε≤.wav
192,192,199937,1,0,0:0:0:77:≥ε≤.wav
320,192,200040,1,0,0:0:0:77:≥ε≤.wav
64,192,200246,1,0,0:0:0:77:≥ε≤.wav
320,192,200246,1,0,0:0:0:77:≥ε≤.wav
320,192,200348,1,0,0:0:0:77:≥ε≤.wav
448,192,200451,1,0,0:0:0:77:≥ε≤.wav
64,192,200656,1,0,0:0:0:77:≥ε≤.wav
320,192,200656,1,0,0:0:0:77:≥ε≤.wav
320,192,200759,1,0,0:0:0:77:≥ε≤.wav
448,192,200862,1,0,0:0:0:77:≥ε≤.wav
64,192,201067,1,0,0:0:0:77:≥ε≤.wav
448,192,201067,1,0,0:0:0:77:≥ε≤.wav
448,192,201170,1,0,0:0:0:77:≥ε≤.wav
320,192,201273,1,0,0:0:0:77:≥ε≤.wav
64,192,201478,1,0,0:0:0:77:≥ε≤.wav
448,192,201478,1,0,0:0:0:77:≥ε≤.wav
448,192,201581,1,0,0:0:0:77:≥ε≤.wav
320,192,201684,1,0,0:0:0:77:≥ε≤.wav
64,192,201889,1,0,0:0:0:77:≥ε≤.wav
448,192,201889,1,0,0:0:0:77:≥ε≤.wav
448,192,201992,1,0,0:0:0:77:≥ε≤.wav
320,192,202095,1,0,0:0:0:77:≥ε≤.wav
320,192,202300,1,0,0:0:0:77:≥ε≤.wav
448,192,202300,1,0,0:0:0:77:≥ε≤.wav
448,192,202403,1,0,0:0:0:77:≥ε≤.wav
320,192,202506,1,0,0:0:0:77:≥ε≤.wav
64,192,202711,1,0,0:0:0:77:≥ε≤.wav
448,192,202711,1,0,0:0:0:77:≥ε≤.wav
64,192,202814,1,0,0:0:0:77:≥ε≤.wav
192,192,202917,1,0,0:0:0:77:≥ε≤.wav
64,192,203122,1,0,0:0:0:77:≥ε≤.wav
448,192,203122,1,0,0:0:0:77:≥ε≤.wav
64,192,203225,1,0,0:0:0:77:≥ε≤.wav
192,192,203328,1,0,0:0:0:77:≥ε≤.wav
320,192,203533,1,0,0:0:0:77:≥ε≤.wav
64,192,203533,1,0,0:0:0:77:≥ε≤.wav
320,192,203636,1,0,0:0:0:77:≥ε≤.wav
448,192,203739,1,0,0:0:0:77:≥ε≤.wav
64,192,203944,1,0,0:0:0:77:≥ε≤.wav
320,192,203944,1,0,0:0:0:77:≥ε≤.wav
320,192,204047,1,0,0:0:0:77:≥ε≤.wav
448,192,204150,1,0,0:0:0:77:≥ε≤.wav
64,192,204355,1,0,0:0:0:77:≥ε≤.wav
320,192,204355,128,0,204458:0:0:0:77:≥ε≤.wav
64,192,204458,1,0,0:0:0:77:≥ε≤.wav
192,192,204561,128,0,204663:0:0:0:77:≥ε≤.wav
64,192,204766,1,0,0:0:0:77:≥ε≤.wav
320,192,204766,1,0,0:0:0:77:≥ε≤.wav
64,192,204869,1,0,0:0:0:77:≥ε≤.wav
192,192,204972,128,0,205074:0:0:0:77:≥ε≤.wav
64,192,205177,1,0,0:0:0:77:≥ε≤.wav
320,192,205177,128,0,205280:0:0:0:77:≥ε≤.wav
64,192,205280,1,0,0:0:0:77:≥ε≤.wav
192,192,205383,1,0,0:0:0:77:≥ε≤.wav
64,192,205588,1,0,0:0:0:77:≥ε≤.wav
320,192,205588,128,0,205691:0:0:0:77:≥ε≤.wav
64,192,205691,1,0,0:0:0:77:≥ε≤.wav
192,192,205793,128,0,205896:0:0:0:77:≥ε≤.wav
448,192,205999,1,0,0:0:0:77:≥ε≤.wav
64,192,205999,1,0,0:0:0:77:≥ε≤.wav
448,192,206102,1,0,0:0:0:77:≥ε≤.wav
320,192,206204,128,0,206307:0:0:0:77:≥ε≤.wav
448,192,206410,1,0,0:0:0:77:≥ε≤.wav
64,192,206410,128,0,206513:0:0:0:77:≥ε≤.wav
448,192,206513,1,0,0:0:0:77:≥ε≤.wav
320,192,206615,1,0,0:0:0:77:≥ε≤.wav
448,192,206821,1,0,0:0:0:77:≥ε≤.wav
192,192,206821,128,0,206924:0:0:0:77:≥ε≤.wav
448,192,206924,1,0,0:0:0:77:≥ε≤.wav
320,192,207026,128,0,207129:0:0:0:77:≥ε≤.wav
192,192,207232,1,0,0:0:0:77:≥ε≤.wav
448,192,207232,1,0,0:0:0:77:≥ε≤.wav
448,192,207335,1,0,0:0:0:77:≥ε≤.wav
320,192,207437,128,0,207540:0:0:0:77:≥ε≤.wav
64,192,207643,1,0,0:0:0:77:≥ε≤.wav
448,192,207643,128,0,207746:0:0:0:77:≥ε≤.wav
64,192,207746,1,0,0:0:0:77:≥ε≤.wav
320,192,207848,1,0,0:0:0:77:≥ε≤.wav
448,192,208054,128,0,208156:0:0:0:77:≥ε≤.wav
64,192,208054,1,0,0:0:0:77:≥ε≤.wav
64,192,208156,1,0,0:0:0:77:≥ε≤.wav
320,192,208259,128,0,208362:0:0:0:77:≥ε≤.wav
64,192,208465,1,0,0:0:0:77:≥ε≤.wav
448,192,208465,1,0,0:0:0:77:≥ε≤.wav
64,192,208567,1,0,0:0:0:77:≥ε≤.wav
320,192,208670,128,0,208773:0:0:0:77:≥ε≤.wav
448,192,208876,1,0,0:0:0:77:≥ε≤.wav
64,192,208876,128,0,208978:0:0:0:77:≥ε≤.wav
448,192,208978,1,0,0:0:0:77:≥ε≤.wav
192,192,209081,1,0,0:0:0:77:≥ε≤.wav
320,192,209287,1,0,0:0:0:77:≥ε≤.wav
64,192,209287,128,0,209389:0:0:0:77:≥ε≤.wav
320,192,209389,1,0,0:0:0:77:≥ε≤.wav
192,192,209492,128,0,209595:0:0:0:77:≥ε≤.wav
64,192,209698,1,0,0:0:0:77:≥ε≤.wav
320,192,209698,1,0,0:0:0:77:≥ε≤.wav
320,192,209800,1,0,0:0:0:77:≥ε≤.wav
192,192,209903,128,0,210006:0:0:0:77:≥ε≤.wav
448,192,210109,1,0,0:0:0:77:≥ε≤.wav
64,192,210109,128,0,210211:0:0:0:77:≥ε≤.wav
448,192,210211,1,0,0:0:0:77:≥ε≤.wav
192,192,210314,128,0,210417:0:0:0:77:≥ε≤.wav
64,192,210519,128,0,210622:0:0:0:77:≥ε≤.wav
448,192,210519,1,0,0:0:0:77:≥ε≤.wav
448,192,210622,1,0,0:0:0:77:≥ε≤.wav
320,192,210725,128,0,210828:0:0:0:77:≥ε≤.wav
448,192,210930,128,0,211033:0:0:0:77:≥ε≤.wav
192,192,210930,1,0,0:0:0:77:≥ε≤.wav
192,192,211033,1,0,0:0:0:77:≥ε≤.wav
64,192,211136,128,0,211239:0:0:0:77:≥ε≤.wav
448,192,211341,1,0,0:0:0:77:≥ε≤.wav
192,192,211341,1,0,0:0:0:77:≥ε≤.wav
192,192,211444,1,0,0:0:0:77:≥ε≤.wav
64,192,211547,128,0,211650:0:0:0:77:≥ε≤.wav
448,192,211752,128,0,211855:0:0:0:77:≥ε≤.wav
192,192,211752,1,0,0:0:0:77:≥ε≤.wav
192,192,211855,1,0,0:0:0:77:≥ε≤.wav
64,192,211958,1,0,0:0:0:77:≥ε≤.wav
448,192,212163,128,0,212266:0:0:0:77:≥ε≤.wav
192,192,212163,1,0,0:0:0:77:≥ε≤.wav
192,192,212266,1,0,0:0:0:77:≥ε≤.wav
64,192,212369,128,0,212472:0:0:0:77:≥ε≤.wav
320,192,212574,1,0,0:0:0:77:≥ε≤.wav
192,192,212574,1,0,0:0:0:77:≥ε≤.wav
320,192,212677,1,0,0:0:0:77:≥ε≤.wav
448,192,212780,128,0,212883:0:0:0:77:≥ε≤.wav
192,192,212985,128,0,213088:0:0:0:77:≥ε≤.wav
320,192,212985,1,0,0:0:0:77:≥ε≤.wav
320,192,213088,1,0,0:0:0:77:≥ε≤.wav
448,192,213191,1,0,0:0:0:77:≥ε≤.wav
192,192,213396,128,0,213499:0:0:0:77:≥ε≤.wav
320,192,213396,1,0,0:0:0:77:≥ε≤.wav
320,192,213499,1,0,0:0:0:77:≥ε≤.wav
448,192,213602,128,0,213704:0:0:0:77:≥ε≤.wav
192,192,213807,1,0,0:0:0:77:≥ε≤.wav
320,192,213807,1,0,0:0:0:77:≥ε≤.wav
320,192,213910,1,0,0:0:0:77:≥ε≤.wav
192,192,214013,128,0,214115:0:0:0:77:≥ε≤.wav
448,192,214218,1,0,0:0:0:77:≥ε≤.wav
64,192,214218,128,0,214321:0:0:0:77:≥ε≤.wav
448,192,214321,1,0,0:0:0:77:≥ε≤.wav
320,192,214424,1,0,0:0:0:77:≥ε≤.wav
448,192,214629,1,0,0:0:0:77:≥ε≤.wav
64,192,214629,128,0,214732:0:0:0:77:≥ε≤.wav
448,192,214732,1,0,0:0:0:77:≥ε≤.wav
320,192,214835,128,0,214937:0:0:0:77:≥ε≤.wav
448,192,215040,1,0,0:0:0:77:≥ε≤.wav
64,192,215040,1,0,0:0:0:77:≥ε≤.wav
448,192,215143,1,0,0:0:0:77:≥ε≤.wav
320,192,215246,128,0,215348:0:0:0:77:≥ε≤.wav
448,192,215451,1,0,0:0:0:77:≥ε≤.wav
192,192,215451,128,0,215554:0:0:0:77:≥ε≤.wav
448,192,215554,1,0,0:0:0:77:≥ε≤.wav
320,192,215656,1,0,0:0:0:77:≥ε≤.wav
448,192,215862,128,0,215965:0:0:0:77:≥ε≤.wav
64,192,215862,1,0,0:0:0:77:≥ε≤.wav
64,192,215965,1,0,0:0:0:77:≥ε≤.wav
192,192,216067,128,0,216170:0:0:0:77:≥ε≤.wav
448,192,216273,1,0,0:0:0:77:≥ε≤.wav
64,192,216273,1,0,0:0:0:77:≥ε≤.wav
64,192,216376,1,0,0:0:0:77:≥ε≤.wav
192,192,216478,128,0,216581:0:0:0:77:≥ε≤.wav
320,192,216684,1,0,0:0:0:77:≥ε≤.wav
64,192,216684,128,0,216787:0:0:0:77:≥ε≤.wav
320,192,216787,1,0,0:0:0:77:≥ε≤.wav
192,192,216889,128,0,216992:0:0:0:77:≥ε≤.wav
64,192,217095,1,0,0:0:0:77:≥ε≤.wav
320,192,217095,128,0,217198:0:0:0:77:≥ε≤.wav
64,192,217198,1,0,0:0:0:77:≥ε≤.wav
448,192,217300,128,0,217403:0:0:0:77:≥ε≤.wav
64,192,217506,128,0,217711:0:0:0:77:≥ε≤.wav
320,192,217506,1,0,0:0:0:77:≥ε≤.wav
192,192,217506,128,0,217609:0:0:0:77:≥ε≤.wav
448,192,217711,128,0,217814:0:0:0:77:≥ε≤.wav
320,192,217711,1,0,0:0:0:77:≥ε≤.wav
448,192,218122,128,0,218225:0:0:0:77:≥ε≤.wav
192,192,218122,1,0,0:0:0:77:≥ε≤.wav
64,192,218328,128,0,218430:0:0:0:77:≥ε≤.wav
192,192,218328,1,0,0:0:0:77:≥ε≤.wav
320,192,218328,1,0,0:0:0:77:≥ε≤.wav
320,192,218739,1,0,0:0:0:77:≥ε≤.wav
448,192,218739,128,0,218841:0:0:0:77:≥ε≤.wav
64,192,218944,1,0,0:0:0:77:≥ε≤.wav
192,192,218944,128,0,219047:0:0:0:77:≥ε≤.wav
64,192,219355,1,0,0:0:0:77:≥ε≤.wav
320,192,219355,1,0,0:0:0:77:≥ε≤.wav
448,192,219355,128,0,219458:0:0:0:77:≥ε≤.wav
64,192,219561,128,0,219663:0:0:0:77:≥ε≤.wav
192,192,219561,1,0,0:0:0:77:≥ε≤.wav
192,192,219972,1,0,0:0:0:77:≥ε≤.wav
320,192,219972,128,0,220074:0:0:0:77:≥ε≤.wav
448,192,219972,1,0,0:0:0:77:≥ε≤.wav
64,192,220177,128,0,220280:0:0:0:77:≥ε≤.wav
192,192,220177,1,0,0:0:0:77:≥ε≤.wav
64,192,220588,1,0,0:0:0:77:≥ε≤.wav
448,192,220588,1,0,0:0:0:77:≥ε≤.wav
320,192,220588,128,0,220691:0:0:0:77:≥ε≤.wav
64,192,220793,128,0,220896:0:0:0:77:≥ε≤.wav
192,192,220793,1,0,0:0:0:77:≥ε≤.wav
448,192,220793,1,0,0:0:0:77:≥ε≤.wav
448,192,221204,128,0,221307:0:0:0:77:≥ε≤.wav
192,192,221204,1,0,0:0:0:77:≥ε≤.wav
64,192,221410,128,0,221513:0:0:0:77:≥ε≤.wav
320,192,221410,1,0,0:0:0:77:≥ε≤.wav
192,192,221615,1,0,0:0:0:77:≥ε≤.wav
320,192,221615,1,0,0:0:0:77:≥ε≤.wav
448,192,221615,1,0,0:0:0:77:≥ε≤.wav
64,192,221821,1,0,0:0:0:77:≥ε≤.wav
448,192,221821,128,0,221924:0:0:0:77:≥ε≤.wav
192,192,222026,128,0,222129:0:0:0:77:≥ε≤.wav
320,192,222026,1,0,0:0:0:77:≥ε≤.wav
192,192,222437,1,0,0:0:0:77:≥ε≤.wav
448,192,222437,128,0,222540:0:0:0:77:≥ε≤.wav
192,192,222643,128,0,222746:0:0:0:77:≥ε≤.wav
64,192,222643,1,0,0:0:0:77:≥ε≤.wav
320,192,222643,1,0,0:0:0:77:≥ε≤.wav
64,192,222848,1,0,0:0:0:77:≥ε≤.wav
320,192,222848,1,0,0:0:0:77:≥ε≤.wav
448,192,222848,1,0,0:0:0:77:≥ε≤.wav
192,192,223054,1,0,0:0:0:77:≥ε≤.wav
448,192,223054,128,0,223156:0:0:0:77:≥ε≤.wav
64,192,223259,128,0,223362:0:0:0:77:≥ε≤.wav
320,192,223259,1,0,0:0:0:77:≥ε≤.wav
192,192,223259,1,0,0:0:0:77:≥ε≤.wav
320,192,223465,128,0,223567:0:0:0:77:≥ε≤.wav
448,192,223465,1,0,0:0:0:77:≥ε≤.wav
192,192,223670,128,0,223773:0:0:0:77:≥ε≤.wav
64,192,223670,1,0,0:0:0:77:≥ε≤.wav
320,192,223876,1,0,0:0:0:77:≥ε≤.wav
448,192,223876,128,0,223978:0:0:0:77:≥ε≤.wav
64,192,223876,1,0,0:0:0:77:≥ε≤.wav
64,192,224081,128,0,224287:0:0:0:77:≥ε≤.wav
192,192,224081,128,0,224184:0:0:0:77:≥ε≤.wav
320,192,224081,1,0,0:0:0:77:≥ε≤.wav
320,192,224287,128,0,224389:0:0:0:77:≥ε≤.wav
448,192,224287,1,0,0:0:0:77:≥ε≤.wav
192,192,224698,1,0,0:0:0:77:≥ε≤.wav
448,192,224698,128,0,224800:0:0:0:77:≥ε≤.wav
64,192,224903,128,0,225006:0:0:0:77:≥ε≤.wav
192,192,224903,1,0,0:0:0:77:≥ε≤.wav
320,192,224903,1,0,0:0:0:77:≥ε≤.wav
320,192,225314,128,0,225417:0:0:0:77:≥ε≤.wav
448,192,225314,1,0,0:0:0:77:≥ε≤.wav
64,192,225519,128,0,225622:0:0:0:77:≥ε≤.wav
192,192,225519,1,0,0:0:0:77:≥ε≤.wav
320,192,225930,128,0,226033:0:0:0:77:≥ε≤.wav
448,192,225930,1,0,0:0:0:77:≥ε≤.wav
64,192,225930,1,0,0:0:0:77:≥ε≤.wav
64,192,226136,128,0,226239:0:0:0:77:≥ε≤.wav
192,192,226136,1,0,0:0:0:77:≥ε≤.wav
64,192,226547,1,0,0:0:0:77:≥ε≤.wav
320,192,226547,1,0,0:0:0:77:≥ε≤.wav
448,192,226547,128,0,226650:0:0:0:77:≥ε≤.wav
64,192,226752,1,0,0:0:0:77:≥ε≤.wav
192,192,226752,128,0,226855:0:0:0:77:≥ε≤.wav
320,192,227163,128,0,227266:0:0:0:77:≥ε≤.wav
192,192,227163,1,0,0:0:0:77:≥ε≤.wav
448,192,227163,1,0,0:0:0:77:≥ε≤.wav
64,192,227369,128,0,227472:0:0:0:77:≥ε≤.wav
192,192,227369,1,0,0:0:0:77:≥ε≤.wav
448,192,227369,1,0,0:0:0:77:≥ε≤.wav
192,192,227780,1,0,0:0:0:77:≥ε≤.wav
448,192,227780,128,0,227883:0:0:0:77:≥ε≤.wav
64,192,227985,128,0,228088:0:0:0:77:≥ε≤.wav
320,192,227985,1,0,0:0:0:77:≥ε≤.wav
192,192,228191,1,0,0:0:0:77:≥ε≤.wav
320,192,228191,1,0,0:0:0:77:≥ε≤.wav
448,192,228191,1,0,0:0:0:77:≥ε≤.wav
64,192,228396,1,0,0:0:0:77:≥ε≤.wav
448,192,228396,128,0,228499:0:0:0:77:≥ε≤.wav
192,192,228602,128,0,228704:0:0:0:77:≥ε≤.wav
320,192,228602,1,0,0:0:0:77:≥ε≤.wav
64,192,229013,1,0,0:0:0:77:≥ε≤.wav
320,192,229013,128,0,229115:0:0:0:77:≥ε≤.wav
448,192,229013,128,0,229218:0:0:0:77:≥ε≤.wav
64,192,229115,1,0,0:0:0:77:≥ε≤.wav
192,192,229218,1,0,0:0:0:77:≥ε≤.wav
320,192,229321,1,0,0:0:0:77:≥ε≤.wav
448,192,229424,1,0,0:0:0:77:≥ε≤.wav
192,192,229424,1,0,0:0:0:77:≥ε≤.wav
192,192,229526,1,0,0:0:0:77:≥ε≤.wav
320,192,229629,1,0,0:0:0:77:≥ε≤.wav
448,192,229732,1,0,0:0:0:77:≥ε≤.wav
64,192,229835,1,0,0:0:0:77:≥ε≤.wav
320,192,229835,1,0,0:0:0:77:≥ε≤.wav
64,192,229937,1,0,0:0:0:77:≥ε≤.wav
192,192,230040,1,0,0:0:0:77:≥ε≤.wav
320,192,230143,1,0,0:0:0:77:≥ε≤.wav
64,192,230246,1,0,0:0:0:77:≥ε≤.wav
448,192,230246,1,0,0:0:0:77:≥ε≤.wav
448,192,230348,1,0,0:0:0:77:≥ε≤.wav
192,192,230451,1,0,0:0:0:77:≥ε≤.wav
320,192,230554,1,0,0:0:0:77:≥ε≤.wav
64,192,230656,1,0,0:0:0:77:≥ε≤.wav
448,192,230656,1,0,0:0:0:77:≥ε≤.wav
64,192,231067,1,0,0:0:0:77:≥ε≤.wav
64,192,231478,1,0,0:0:0:77:≥ε≤.wav
64,192,231889,1,0,0:0:0:77:≥ε≤.wav
64,192,232300,1,0,0:0:0:77:≥ε≤.wav
192,192,232403,1,0,0:0:0:77:≥ε≤.wav
320,192,232506,1,0,0:0:0:77:≥ε≤.wav
448,192,232609,1,0,0:0:0:77:≥ε≤.wav
64,192,232711,1,0,0:0:0:77:≥ε≤.wav
192,192,232917,1,0,0:0:0:77:≥ε≤.wav
320,192,233019,1,0,0:0:0:77:≥ε≤.wav
64,192,233122,1,0,0:0:0:77:≥ε≤.wav
448,192,233225,1,0,0:0:0:77:≥ε≤.wav
320,192,233328,1,0,0:0:0:77:≥ε≤.wav
192,192,233430,1,0,0:0:0:77:≥ε≤.wav
64,192,233533,128,0,233739:0:0:0:77:≥ε≤.wav
320,192,233533,1,0,0:0:0:77:≥ε≤.wav
192,192,233739,1,0,0:0:0:77:≥ε≤.wav
448,192,233739,128,0,233944:0:0:0:77:≥ε≤.wav
64,192,233944,1,0,0:0:0:77:≥ε≤.wav
192,192,234047,1,0,0:0:0:77:≥ε≤.wav
320,192,234150,1,0,0:0:0:77:≥ε≤.wav
448,192,234252,1,0,0:0:0:77:≥ε≤.wav
64,192,234355,1,0,0:0:0:77:≥ε≤.wav
448,192,234458,1,0,0:0:0:77:≥ε≤.wav
192,192,234561,1,0,0:0:0:77:≥ε≤.wav
320,192,234663,1,0,0:0:0:77:≥ε≤.wav
64,192,234766,1,0,0:0:0:77:≥ε≤.wav
192,192,234869,1,0,0:0:0:77:≥ε≤.wav
320,192,234972,1,0,0:0:0:77:≥ε≤.wav
448,192,235074,1,0,0:0:0:77:≥ε≤.wav
64,192,235177,1,0,0:0:0:77:≥ε≤.wav
320,192,235280,1,0,0:0:0:77:≥ε≤.wav
192,192,235383,1,0,0:0:0:77:≥ε≤.wav
448,192,235485,1,0,0:0:0:77:≥ε≤.wav
64,192,235588,1,0,0:0:0:77:≥ε≤.wav
192,192,235691,1,0,0:0:0:77:≥ε≤.wav
320,192,235793,1,0,0:0:0:77:≥ε≤.wav
448,192,235896,1,0,0:0:0:77:≥ε≤.wav
64,192,235999,1,0,0:0:0:77:≥ε≤.wav
448,192,236102,1,0,0:0:0:77:≥ε≤.wav
192,192,236204,1,0,0:0:0:77:≥ε≤.wav
320,192,236307,1,0,0:0:0:77:≥ε≤.wav
64,192,236410,1,0,0:0:0:77:≥ε≤.wav
192,192,236513,1,0,0:0:0:77:≥ε≤.wav
320,192,236615,1,0,0:0:0:77:≥ε≤.wav
448,192,236718,1,0,0:0:0:77:≥ε≤.wav
64,192,236821,128,0,237026:0:0:0:77:≥ε≤.wav
320,192,236821,1,0,0:0:0:77:≥ε≤.wav
192,192,237026,1,0,0:0:0:77:≥ε≤.wav
448,192,237026,128,0,237232:0:0:0:77:≥ε≤.wav
64,192,237232,1,0,0:0:0:77:≥ε≤.wav
192,192,237335,1,0,0:0:0:77:≥ε≤.wav
320,192,237437,1,0,0:0:0:77:≥ε≤.wav
448,192,237540,1,0,0:0:0:77:≥ε≤.wav
64,192,237643,1,0,0:0:0:77:≥ε≤.wav
448,192,237746,1,0,0:0:0:77:≥ε≤.wav
192,192,237848,1,0,0:0:0:77:≥ε≤.wav
320,192,237951,1,0,0:0:0:77:≥ε≤.wav
64,192,238054,1,0,0:0:0:77:≥ε≤.wav
192,192,238156,1,0,0:0:0:77:≥ε≤.wav
320,192,238259,1,0,0:0:0:77:≥ε≤.wav
448,192,238362,1,0,0:0:0:77:≥ε≤.wav
64,192,238465,1,0,0:0:0:77:≥ε≤.wav
320,192,238567,1,0,0:0:0:77:≥ε≤.wav
192,192,238670,1,0,0:0:0:77:≥ε≤.wav
448,192,238773,1,0,0:0:0:77:≥ε≤.wav
64,192,238876,1,0,0:0:0:77:≥ε≤.wav
192,192,238978,1,0,0:0:0:77:≥ε≤.wav
320,192,239081,1,0,0:0:0:77:≥ε≤.wav
448,192,239184,1,0,0:0:0:77:≥ε≤.wav
64,192,239287,1,0,0:0:0:77:≥ε≤.wav
448,192,239389,1,0,0:0:0:77:≥ε≤.wav
192,192,239492,1,0,0:0:0:77:≥ε≤.wav
320,192,239595,1,0,0:0:0:77:≥ε≤.wav
64,192,239698,1,0,0:0:0:77:≥ε≤.wav
192,192,239800,1,0,0:0:0:77:≥ε≤.wav
320,192,239903,1,0,0:0:0:77:≥ε≤.wav
448,192,240006,1,0,0:0:0:77:≥ε≤.wav
64,192,240109,128,0,240314:0:0:0:77:≥ε≤.wav
320,192,240109,1,0,0:0:0:77:≥ε≤.wav
192,192,240314,1,0,0:0:0:77:≥ε≤.wav
448,192,240314,128,0,240519:0:0:0:77:≥ε≤.wav
64,192,240519,1,0,0:0:0:77:≥ε≤.wav
320,192,240519,1,0,0:0:0:77:≥ε≤.wav
192,192,240622,1,0,0:0:0:77:≥ε≤.wav
320,192,240725,1,0,0:0:0:77:≥ε≤.wav
448,192,240828,1,0,0:0:0:77:≥ε≤.wav
64,192,240930,1,0,0:0:0:77:≥ε≤.wav
192,192,240930,1,0,0:0:0:77:≥ε≤.wav
448,192,241033,1,0,0:0:0:77:≥ε≤.wav
192,192,241136,1,0,0:0:0:77:≥ε≤.wav
320,192,241239,1,0,0:0:0:77:≥ε≤.wav
64,192,241341,1,0,0:0:0:77:≥ε≤.wav
448,192,241341,1,0,0:0:0:77:≥ε≤.wav
192,192,241444,1,0,0:0:0:77:≥ε≤.wav
320,192,241547,1,0,0:0:0:77:≥ε≤.wav
448,192,241650,1,0,0:0:0:77:≥ε≤.wav
64,192,241752,1,0,0:0:0:77:≥ε≤.wav
192,192,241752,1,0,0:0:0:77:≥ε≤.wav
320,192,241855,1,0,0:0:0:77:≥ε≤.wav
192,192,241958,1,0,0:0:0:77:≥ε≤.wav
448,192,242061,1,0,0:0:0:77:≥ε≤.wav
64,192,242163,1,0,0:0:0:77:≥ε≤.wav
320,192,242163,1,0,0:0:0:77:≥ε≤.wav
192,192,242266,1,0,0:0:0:77:≥ε≤.wav
320,192,242369,1,0,0:0:0:77:≥ε≤.wav
448,192,242472,1,0,0:0:0:77:≥ε≤.wav
64,192,242574,1,0,0:0:0:77:≥ε≤.wav
192,192,242574,1,0,0:0:0:77:≥ε≤.wav
448,192,242677,1,0,0:0:0:77:≥ε≤.wav
192,192,242780,1,0,0:0:0:77:≥ε≤.wav
320,192,242883,1,0,0:0:0:77:≥ε≤.wav
64,192,242985,1,0,0:0:0:77:≥ε≤.wav
448,192,242985,1,0,0:0:0:77:≥ε≤.wav
192,192,243088,1,0,0:0:0:77:≥ε≤.wav
320,192,243191,1,0,0:0:0:77:≥ε≤.wav
448,192,243293,1,0,0:0:0:77:≥ε≤.wav
64,192,243396,128,0,243602:0:0:0:77:≥ε≤.wav
320,192,243396,1,0,0:0:0:77:≥ε≤.wav
192,192,243602,1,0,0:0:0:77:≥ε≤.wav
448,192,243602,128,0,243807:0:0:0:77:≥ε≤.wav
320,192,243807,1,0,0:0:0:77:≥ε≤.wav
64,192,243807,1,0,0:0:0:77:≥ε≤.wav
192,192,244013,1,0,0:0:0:77:≥ε≤.wav
320,192,244115,1,0,0:0:0:77:≥ε≤.wav
64,192,244218,1,0,0:0:0:77:≥ε≤.wav
192,192,244218,1,0,0:0:0:77:≥ε≤.wav
448,192,244321,1,0,0:0:0:77:≥ε≤.wav
192,192,244424,1,0,0:0:0:77:≥ε≤.wav
320,192,244526,1,0,0:0:0:77:≥ε≤.wav
64,192,244629,1,0,0:0:0:77:≥ε≤.wav
192,192,244629,1,0,0:0:0:77:≥ε≤.wav
320,192,244732,1,0,0:0:0:77:≥ε≤.wav
192,192,244835,1,0,0:0:0:77:≥ε≤.wav
448,192,244937,1,0,0:0:0:77:≥ε≤.wav
64,192,245040,1,0,0:0:0:77:≥ε≤.wav
320,192,245040,1,0,0:0:0:77:≥ε≤.wav
192,192,245246,1,0,0:0:0:77:≥ε≤.wav
448,192,245246,1,0,0:0:0:77:≥ε≤.wav
64,192,245451,1,0,0:0:0:77:≥ε≤.wav
320,192,245451,1,0,0:0:0:77:≥ε≤.wav
192,192,245656,1,0,0:0:0:77:≥ε≤.wav
320,192,245759,1,0,0:0:0:77:≥ε≤.wav
64,192,245862,1,0,0:0:0:77:≥ε≤.wav
192,192,245862,1,0,0:0:0:77:≥ε≤.wav
448,192,245965,1,0,0:0:0:77:≥ε≤.wav
192,192,246067,1,0,0:0:0:77:≥ε≤.wav
320,192,246170,1,0,0:0:0:77:≥ε≤.wav
64,192,246273,1,0,0:0:0:77:≥ε≤.wav
448,192,246273,1,0,0:0:0:77:≥ε≤.wav
192,192,246376,1,0,0:0:0:77:≥ε≤.wav
320,192,246478,1,0,0:0:0:77:≥ε≤.wav
448,192,246581,1,0,0:0:0:77:≥ε≤.wav
64,192,246684,1,0,0:0:0:77:≥ε≤.wav
320,192,246684,128,0,246889:0:0:0:77:≥ε≤.wav
448,192,246889,1,0,0:0:0:77:≥ε≤.wav
192,192,246889,128,0,247095:0:0:0:77:≥ε≤.wav
64,192,247095,1,0,0:0:0:77:≥ε≤.wav
448,192,247095,1,0,0:0:0:77:≥ε≤.wav
320,192,247300,1,0,0:0:0:77:≥ε≤.wav
192,192,247403,1,0,0:0:0:77:≥ε≤.wav
320,192,247506,1,0,0:0:0:77:≥ε≤.wav
448,192,247506,1,0,0:0:0:77:≥ε≤.wav
64,192,247609,1,0,0:0:0:77:≥ε≤.wav
320,192,247711,1,0,0:0:0:77:≥ε≤.wav
192,192,247814,1,0,0:0:0:77:≥ε≤.wav
320,192,247917,1,0,0:0:0:77:≥ε≤.wav
448,192,247917,1,0,0:0:0:77:≥ε≤.wav
192,192,248019,1,0,0:0:0:77:≥ε≤.wav
320,192,248122,1,0,0:0:0:77:≥ε≤.wav
64,192,248225,1,0,0:0:0:77:≥ε≤.wav
192,192,248328,1,0,0:0:0:77:≥ε≤.wav
448,192,248328,1,0,0:0:0:77:≥ε≤.wav
64,192,248533,1,0,0:0:0:77:≥ε≤.wav
320,192,248533,1,0,0:0:0:77:≥ε≤.wav
192,192,248739,1,0,0:0:0:77:≥ε≤.wav
448,192,248739,1,0,0:0:0:77:≥ε≤.wav
320,192,248944,1,0,0:0:0:77:≥ε≤.wav
192,192,249047,1,0,0:0:0:77:≥ε≤.wav
320,192,249150,1,0,0:0:0:77:≥ε≤.wav
448,192,249150,1,0,0:0:0:77:≥ε≤.wav
64,192,249252,1,0,0:0:0:77:≥ε≤.wav
320,192,249355,1,0,0:0:0:77:≥ε≤.wav
192,192,249458,1,0,0:0:0:77:≥ε≤.wav
64,192,249561,1,0,0:0:0:77:≥ε≤.wav
448,192,249561,1,0,0:0:0:77:≥ε≤.wav
320,192,249663,1,0,0:0:0:77:≥ε≤.wav
192,192,249766,1,0,0:0:0:77:≥ε≤.wav
64,192,249869,1,0,0:0:0:77:≥ε≤.wav
448,192,249972,1,0,0:0:0:77:≥ε≤.wav
192,192,249972,128,0,250177:0:0:0:77:≥ε≤.wav
64,192,250177,1,0,0:0:0:77:≥ε≤.wav
320,192,250177,128,0,250383:0:0:0:77:≥ε≤.wav
64,192,250383,1,0,0:0:0:77:≥ε≤.wav
448,192,250383,1,0,0:0:0:77:≥ε≤.wav
192,192,250588,1,0,0:0:0:77:≥ε≤.wav
320,192,250691,1,0,0:0:0:77:≥ε≤.wav
64,192,250793,1,0,0:0:0:77:≥ε≤.wav
192,192,250793,1,0,0:0:0:77:≥ε≤.wav
448,192,250896,1,0,0:0:0:77:≥ε≤.wav
192,192,250999,1,0,0:0:0:77:≥ε≤.wav
320,192,251102,1,0,0:0:0:77:≥ε≤.wav
192,192,251204,1,0,0:0:0:77:≥ε≤.wav
64,192,251204,1,0,0:0:0:77:≥ε≤.wav
320,192,251307,1,0,0:0:0:77:≥ε≤.wav
192,192,251410,1,0,0:0:0:77:≥ε≤.wav
448,192,251513,1,0,0:0:0:77:≥ε≤.wav
64,192,251615,1,0,0:0:0:77:≥ε≤.wav
320,192,251615,1,0,0:0:0:77:≥ε≤.wav
192,192,251821,1,0,0:0:0:77:≥ε≤.wav
64,192,251821,1,0,0:0:0:77:≥ε≤.wav
64,192,252026,1,0,0:0:0:77:≥ε≤.wav
320,192,252026,1,0,0:0:0:77:≥ε≤.wav
192,192,252232,1,0,0:0:0:77:≥ε≤.wav
320,192,252335,1,0,0:0:0:77:≥ε≤.wav
64,192,252437,1,0,0:0:0:77:≥ε≤.wav
192,192,252437,1,0,0:0:0:77:≥ε≤.wav
448,192,252540,1,0,0:0:0:77:≥ε≤.wav
192,192,252643,1,0,0:0:0:77:≥ε≤.wav
320,192,252746,1,0,0:0:0:77:≥ε≤.wav
64,192,252848,1,0,0:0:0:77:≥ε≤.wav
448,192,252848,1,0,0:0:0:77:≥ε≤.wav
192,192,252951,1,0,0:0:0:77:≥ε≤.wav
320,192,253054,1,0,0:0:0:77:≥ε≤.wav
448,192,253156,1,0,0:0:0:77:≥ε≤.wav
64,192,253259,1,0,0:0:0:77:≥ε≤.wav
320,192,253259,128,0,253465:0:0:0:77:≥ε≤.wav
192,192,253465,128,0,253670:0:0:0:77:≥ε≤.wav
448,192,253465,1,0,0:0:0:77:≥ε≤.wav
448,192,253670,1,0,0:0:0:77:≥ε≤.wav
64,192,253670,1,0,0:0:0:77:≥ε≤.wav
320,192,253876,1,0,0:0:0:77:≥ε≤.wav
192,192,253978,1,0,0:0:0:77:≥ε≤.wav
320,192,254081,1,0,0:0:0:77:≥ε≤.wav
448,192,254081,1,0,0:0:0:77:≥ε≤.wav
64,192,254184,1,0,0:0:0:77:≥ε≤.wav
320,192,254287,1,0,0:0:0:77:≥ε≤.wav
192,192,254389,1,0,0:0:0:77:≥ε≤.wav
320,192,254492,1,0,0:0:0:77:≥ε≤.wav
448,192,254492,1,0,0:0:0:77:≥ε≤.wav
192,192,254595,1,0,0:0:0:77:≥ε≤.wav
320,192,254698,1,0,0:0:0:77:≥ε≤.wav
64,192,254800,1,0,0:0:0:77:≥ε≤.wav
192,192,254903,1,0,0:0:0:77:≥ε≤.wav
448,192,254903,1,0,0:0:0:77:≥ε≤.wav
64,192,255109,1,0,0:0:0:77:≥ε≤.wav
320,192,255109,1,0,0:0:0:77:≥ε≤.wav
192,192,255314,1,0,0:0:0:77:≥ε≤.wav
448,192,255314,1,0,0:0:0:77:≥ε≤.wav
320,192,255519,1,0,0:0:0:77:≥ε≤.wav
192,192,255622,1,0,0:0:0:77:≥ε≤.wav
320,192,255725,1,0,0:0:0:77:≥ε≤.wav
448,192,255725,1,0,0:0:0:77:≥ε≤.wav
64,192,255828,1,0,0:0:0:77:≥ε≤.wav
320,192,255930,1,0,0:0:0:77:≥ε≤.wav
192,192,256033,1,0,0:0:0:77:≥ε≤.wav
64,192,256136,1,0,0:0:0:77:≥ε≤.wav
448,192,256136,1,0,0:0:0:77:≥ε≤.wav
320,192,256239,1,0,0:0:0:77:≥ε≤.wav
192,192,256341,1,0,0:0:0:77:≥ε≤.wav
64,192,256444,1,0,0:0:0:77:≥ε≤.wav
192,192,256547,128,0,256752:0:0:0:77:≥ε≤.wav
448,192,256547,1,0,0:0:0:77:≥ε≤.wav
64,192,256752,1,0,0:0:0:77:≥ε≤.wav
320,192,256752,128,0,256958:0:0:0:77:≥ε≤.wav
64,192,256958,1,0,0:0:0:77:≥ε≤.wav
448,192,256958,1,0,0:0:0:77:≥ε≤.wav
320,192,257061,1,0,0:0:0:77:≥ε≤.wav
64,192,257163,1,0,0:0:0:77:≥ε≤.wav
192,192,257163,1,0,0:0:0:77:≥ε≤.wav
320,192,257266,1,0,0:0:0:77:≥ε≤.wav
64,192,257369,1,0,0:0:0:77:≥ε≤.wav
192,192,257369,1,0,0:0:0:77:≥ε≤.wav
448,192,257472,1,0,0:0:0:77:≥ε≤.wav
64,192,257574,1,0,0:0:0:77:≥ε≤.wav
192,192,257574,1,0,0:0:0:77:≥ε≤.wav
320,192,257677,1,0,0:0:0:77:≥ε≤.wav
448,192,257780,1,0,0:0:0:77:≥ε≤.wav
64,192,257780,1,0,0:0:0:77:≥ε≤.wav
192,192,257883,1,0,0:0:0:77:≥ε≤.wav
64,192,257985,1,0,0:0:0:77:≥ε≤.wav
320,192,257985,1,0,0:0:0:77:≥ε≤.wav
448,192,258088,1,0,0:0:0:77:≥ε≤.wav
64,192,258191,1,0,0:0:0:77:≥ε≤.wav
320,192,258191,1,0,0:0:0:77:≥ε≤.wav
192,192,258396,1,0,0:0:0:77:≥ε≤.wav
64,192,258396,1,0,0:0:0:77:≥ε≤.wav
64,192,258602,1,0,0:0:0:77:≥ε≤.wav
320,192,258602,1,0,0:0:0:77:≥ε≤.wav
192,192,258704,1,0,0:0:0:77:≥ε≤.wav
320,192,258807,1,0,0:0:0:77:≥ε≤.wav
448,192,258807,1,0,0:0:0:77:≥ε≤.wav
192,192,258910,1,0,0:0:0:77:≥ε≤.wav
320,192,259013,1,0,0:0:0:77:≥ε≤.wav
448,192,259013,1,0,0:0:0:77:≥ε≤.wav
64,192,259115,1,0,0:0:0:77:≥ε≤.wav
320,192,259218,1,0,0:0:0:77:≥ε≤.wav
448,192,259218,1,0,0:0:0:77:≥ε≤.wav
192,192,259321,1,0,0:0:0:77:≥ε≤.wav
64,192,259424,1,0,0:0:0:77:≥ε≤.wav
448,192,259424,1,0,0:0:0:77:≥ε≤.wav
320,192,259526,1,0,0:0:0:77:≥ε≤.wav
192,192,259629,1,0,0:0:0:77:≥ε≤.wav
448,192,259629,1,0,0:0:0:77:≥ε≤.wav
64,192,259732,1,0,0:0:0:77:≥ε≤.wav
192,192,259835,1,0,0:0:0:77:≥ε≤.wav
448,192,259835,1,0,0:0:0:77:≥ε≤.wav
448,192,260040,1,0,0:0:0:77:≥ε≤.wav
320,192,260040,1,0,0:0:0:77:≥ε≤.wav
192,192,260246,1,0,0:0:0:77:≥ε≤.wav
448,192,260246,1,0,0:0:0:77:≥ε≤.wav
64,192,260348,1,0,0:0:0:77:≥ε≤.wav
320,192,260348,1,0,0:0:0:77:≥ε≤.wav
192,192,260451,1,0,0:0:0:77:≥ε≤.wav
64,192,260554,1,0,0:0:0:77:≥ε≤.wav
320,192,260656,1,0,0:0:0:77:≥ε≤.wav
448,192,260656,1,0,0:0:0:77:≥ε≤.wav
64,192,260759,1,0,0:0:0:77:≥ε≤.wav
320,192,260862,1,0,0:0:0:77:≥ε≤.wav
448,192,260862,1,0,0:0:0:77:≥ε≤.wav
192,192,260965,1,0,0:0:0:77:≥ε≤.wav
64,192,261067,1,0,0:0:0:77:≥ε≤.wav
448,192,261067,1,0,0:0:0:77:≥ε≤.wav
192,192,261170,1,0,0:0:0:77:≥ε≤.wav
64,192,261273,1,0,0:0:0:77:≥ε≤.wav
320,192,261273,1,0,0:0:0:77:≥ε≤.wav
448,192,261376,1,0,0:0:0:77:≥ε≤.wav
64,192,261478,1,0,0:0:0:77:≥ε≤.wav
320,192,261478,1,0,0:0:0:77:≥ε≤.wav
192,192,261684,1,0,0:0:0:77:≥ε≤.wav
64,192,261684,1,0,0:0:0:77:≥ε≤.wav
64,192,261889,1,0,0:0:0:77:≥ε≤.wav
320,192,261889,1,0,0:0:0:77:≥ε≤.wav
192,192,261992,1,0,0:0:0:77:≥ε≤.wav
448,192,261992,1,0,0:0:0:77:≥ε≤.wav
320,192,262095,1,0,0:0:0:77:≥ε≤.wav
448,192,262198,1,0,0:0:0:77:≥ε≤.wav
64,192,262300,1,0,0:0:0:77:≥ε≤.wav
192,192,262300,1,0,0:0:0:77:≥ε≤.wav
448,192,262403,1,0,0:0:0:77:≥ε≤.wav
64,192,262506,1,0,0:0:0:77:≥ε≤.wav
192,192,262506,1,0,0:0:0:77:≥ε≤.wav
320,192,262609,1,0,0:0:0:77:≥ε≤.wav
64,192,262711,1,0,0:0:0:77:≥ε≤.wav
448,192,262711,1,0,0:0:0:77:≥ε≤.wav
192,192,262814,1,0,0:0:0:77:≥ε≤.wav
64,192,262917,1,0,0:0:0:77:≥ε≤.wav
320,192,262917,1,0,0:0:0:77:≥ε≤.wav
448,192,263020,1,0,0:0:0:77:≥ε≤.wav
64,192,263122,1,0,0:0:0:77:≥ε≤.wav
320,192,263122,128,0,263328:0:0:0:77:≥ε≤.wav
192,192,263122,1,0,0:0:0:77:≥ε≤.wav
192,192,263328,128,0,263533:0:0:0:77:≥ε≤.wav
448,192,263328,1,0,0:0:0:77:≥ε≤.wav
64,192,263533,1,0,0:0:0:77:≥ε≤.wav
320,192,263533,1,0,0:0:0:77:≥ε≤.wav
448,192,263533,1,0,0:0:0:77:≥ε≤.wav
192,192,263636,1,0,0:0:0:77:≥ε≤.wav
320,192,263739,1,0,0:0:0:77:≥ε≤.wav
448,192,263739,1,0,0:0:0:77:≥ε≤.wav
64,192,263841,1,0,0:0:0:77:≥ε≤.wav
192,192,263944,1,0,0:0:0:77:≥ε≤.wav
448,192,263944,1,0,0:0:0:77:≥ε≤.wav
320,192,264047,1,0,0:0:0:77:≥ε≤.wav
448,192,264150,1,0,0:0:0:77:≥ε≤.wav
64,192,264150,1,0,0:0:0:77:≥ε≤.wav
192,192,264252,1,0,0:0:0:77:≥ε≤.wav
64,192,264355,1,0,0:0:0:77:≥ε≤.wav
320,192,264355,1,0,0:0:0:77:≥ε≤.wav
192,192,264458,1,0,0:0:0:77:≥ε≤.wav
448,192,264458,1,0,0:0:0:77:≥ε≤.wav
320,192,264561,1,0,0:0:0:77:≥ε≤.wav
448,192,264663,1,0,0:0:0:77:≥ε≤.wav
64,192,264766,1,0,0:0:0:77:≥ε≤.wav
192,192,264766,1,0,0:0:0:77:≥ε≤.wav
320,192,264766,128,0,264869:0:0:0:77:≥ε≤.wav
192,192,264972,128,0,265074:0:0:0:77:≥ε≤.wav
320,192,264972,1,0,0:0:0:77:≥ε≤.wav
448,192,264972,1,0,0:0:0:77:≥ε≤.wav
448,192,265177,1,0,0:0:0:77:≥ε≤.wav
64,192,265177,128,0,265383:0:0:0:77:≥ε≤.wav
320,192,265177,128,0,265280:0:0:0:77:≥ε≤.wav
192,192,265383,1,0,0:0:0:77:≥ε≤.wav
320,192,265485,1,0,0:0:0:77:≥ε≤.wav
64,192,265588,1,0,0:0:0:77:≥ε≤.wav
192,192,265588,1,0,0:0:0:77:≥ε≤.wav
320,192,265691,1,0,0:0:0:77:≥ε≤.wav
64,192,265793,1,0,0:0:0:77:≥ε≤.wav
448,192,265793,1,0,0:0:0:77:≥ε≤.wav
192,192,265999,1,0,0:0:0:77:≥ε≤.wav
320,192,265999,1,0,0:0:0:77:≥ε≤.wav
192,192,266102,1,0,0:0:0:77:≥ε≤.wav
448,192,266204,1,0,0:0:0:77:≥ε≤.wav
320,192,266204,1,0,0:0:0:77:≥ε≤.wav
192,192,266307,1,0,0:0:0:77:≥ε≤.wav
448,192,266410,1,0,0:0:0:77:≥ε≤.wav
320,192,266410,128,0,266821:0:0:0:77:≥ε≤.wav
192,192,266615,1,0,0:0:0:77:≥ε≤.wav
448,192,266821,1,0,0:0:0:77:≥ε≤.wav
192,192,266821,128,0,267129:0:0:0:77:≥ε≤.wav
64,192,267026,128,0,267335:0:0:0:77:≥ε≤.wav
320,192,267129,128,0,267437:0:0:0:77:≥ε≤.wav
448,192,267129,1,0,0:0:0:77:≥ε≤.wav
448,192,267335,128,0,267643:0:0:0:77:≥ε≤.wav
64,192,267437,128,0,267746:0:0:0:77:≥ε≤.wav
192,192,267437,1,0,0:0:0:77:≥ε≤.wav
192,192,267643,128,0,267951:0:0:0:77:≥ε≤.wav
320,192,267746,1,0,0:0:0:77:≥ε≤.wav
448,192,267746,128,0,268054:0:0:0:77:≥ε≤.wav
320,192,267951,128,0,268156:0:0:0:77:≥ε≤.wav
192,192,268054,128,0,268259:0:0:0:77:≥ε≤.wav
64,192,268054,1,0,0:0:0:77:≥ε≤.wav
64,192,268259,128,0,268362:0:0:0:77:≥ε≤.wav
320,192,268259,1,0,0:0:0:77:≥ε≤.wav
448,192,268259,128,0,268465:0:0:0:77:≥ε≤.wav
192,192,268465,128,0,268567:0:0:0:77:≥ε≤.wav
320,192,268465,1,0,0:0:0:77:≥ε≤.wav
320,192,268567,128,0,268670:0:0:0:77:≥ε≤.wav
448,192,268567,1,0,0:0:0:77:≥ε≤.wav
64,192,268670,128,0,268773:0:0:0:77:≥ε≤.wav
192,192,268670,1,0,0:0:0:77:≥ε≤.wav
320,192,268773,128,0,268876:0:0:0:77:≥ε≤.wav
448,192,268773,1,0,0:0:0:77:≥ε≤.wav
64,192,268876,1,0,0:0:0:77:≥ε≤.wav
192,192,268876,128,0,268978:0:0:0:77:≥ε≤.wav
320,192,268978,128,0,269081:0:0:0:77:≥ε≤.wav
64,192,269081,1,0,0:0:0:77:≥ε≤.wav
448,192,269081,128,0,269184:0:0:0:77:≥ε≤.wav
192,192,269184,1,0,0:0:0:77:≥ε≤.wav
320,192,269184,128,0,269287:0:0:0:77:≥ε≤.wav
64,192,269287,1,0,0:0:0:77:≥ε≤.wav
448,192,269287,128,0,270109:0:0:0:77:≥ε≤.wav
192,192,269338,1,0,0:0:0:77:≥ε≤.wav
320,192,269389,1,0,0:0:0:77:≥ε≤.wav
64,192,269441,1,0,0:0:0:77:≥ε≤.wav
192,192,269492,1,0,0:0:0:77:≥ε≤.wav
320,192,269543,1,0,0:0:0:77:≥ε≤.wav
64,192,269595,1,0,0:0:0:77:≥ε≤.wav
192,192,269646,1,0,0:0:0:77:≥ε≤.wav
320,192,269698,1,0,0:0:0:77:≥ε≤.wav
64,192,269749,1,0,0:0:0:77:≥ε≤.wav
192,192,269800,1,0,0:0:0:77:≥ε≤.wav
320,192,269852,1,0,0:0:0:77:≥ε≤.wav
64,192,269903,1,0,0:0:0:0:
192,192,269954,1,0,0:0:0:0:
320,192,270006,1,0,0:0:0:0:
64,192,270057,1,0,0:0:0:0:
192,192,270109,128,0,274218:0:0:0:77:≥ε≤.wav
320,192,270109,128,0,270211:0:0:0:77:≥ε≤.wav
64,192,274218,1,0,0:0:0:77:≥ε≤.wav
448,192,274218,128,0,274629:0:0:0:77:≥ε≤.wav
320,192,274218,128,0,274424:0:0:0:77:≥ε≤.wav
192,192,274424,128,0,274629:0:0:0:77:≥ε≤.wav
320,192,274629,128,0,275040:0:0:0:77:≥ε≤.wav
64,192,274629,128,0,274732:0:0:0:77:≥ε≤.wav
192,192,275040,128,0,275143:0:0:0:77:≥ε≤.wav
448,192,275040,128,0,275246:0:0:0:77:≥ε≤.wav
64,192,275040,1,0,0:0:0:77:≥ε≤.wav
192,192,275246,1,0,0:0:0:77:≥ε≤.wav
320,192,275348,1,0,0:0:0:77:≥ε≤.wav
64,192,275451,1,0,0:0:0:77:≥ε≤.wav
192,192,275451,1,0,0:0:0:77:≥ε≤.wav
448,192,275554,1,0,0:0:0:77:≥ε≤.wav
320,192,275656,1,0,0:0:0:77:≥ε≤.wav
192,192,275759,1,0,0:0:0:77:≥ε≤.wav
64,192,275862,1,0,0:0:0:77:≥ε≤.wav
320,192,275862,1,0,0:0:0:77:≥ε≤.wav
448,192,275965,1,0,0:0:0:77:≥ε≤.wav
192,192,276067,1,0,0:0:0:77:≥ε≤.wav
320,192,276170,1,0,0:0:0:77:≥ε≤.wav
64,192,276273,1,0,0:0:0:77:≥ε≤.wav
448,192,276273,1,0,0:0:0:77:≥ε≤.wav
192,192,276478,1,0,0:0:0:77:≥ε≤.wav
320,192,276478,1,0,0:0:0:77:≥ε≤.wav
64,192,276684,1,0,0:0:0:77:≥ε≤.wav
448,192,276684,1,0,0:0:0:77:≥ε≤.wav
192,192,276889,1,0,0:0:0:77:≥ε≤.wav
320,192,276992,1,0,0:0:0:77:≥ε≤.wav
64,192,277095,1,0,0:0:0:77:≥ε≤.wav
192,192,277095,1,0,0:0:0:77:≥ε≤.wav
448,192,277198,1,0,0:0:0:77:≥ε≤.wav
320,192,277300,1,0,0:0:0:77:≥ε≤.wav
192,192,277403,1,0,0:0:0:77:≥ε≤.wav
64,192,277506,1,0,0:0:0:77:≥ε≤.wav
320,192,277506,1,0,0:0:0:77:≥ε≤.wav
192,192,277609,1,0,0:0:0:77:≥ε≤.wav
448,192,277711,1,0,0:0:0:77:≥ε≤.wav
320,192,277814,1,0,0:0:0:77:≥ε≤.wav
64,192,277917,1,0,0:0:0:77:≥ε≤.wav
448,192,277917,1,0,0:0:0:77:≥ε≤.wav
192,192,278122,1,0,0:0:0:77:≥ε≤.wav
320,192,278122,1,0,0:0:0:77:≥ε≤.wav
64,192,278328,1,0,0:0:0:77:≥ε≤.wav
448,192,278328,1,0,0:0:0:77:≥ε≤.wav
320,192,278533,1,0,0:0:0:77:≥ε≤.wav
192,192,278636,1,0,0:0:0:77:≥ε≤.wav
448,192,278739,1,0,0:0:0:77:≥ε≤.wav
320,192,278739,1,0,0:0:0:77:≥ε≤.wav
64,192,278841,1,0,0:0:0:77:≥ε≤.wav
192,192,278944,1,0,0:0:0:77:≥ε≤.wav
64,192,279047,1,0,0:0:0:77:≥ε≤.wav
192,192,279150,1,0,0:0:0:77:≥ε≤.wav
448,192,279150,1,0,0:0:0:77:≥ε≤.wav
64,192,279252,1,0,0:0:0:77:≥ε≤.wav
320,192,279355,1,0,0:0:0:77:≥ε≤.wav
192,192,279458,1,0,0:0:0:77:≥ε≤.wav
64,192,279561,1,0,0:0:0:77:≥ε≤.wav
448,192,279561,1,0,0:0:0:77:≥ε≤.wav
192,192,279766,1,0,0:0:0:77:≥ε≤.wav
320,192,279766,1,0,0:0:0:77:≥ε≤.wav
64,192,279972,1,0,0:0:0:77:≥ε≤.wav
448,192,279972,1,0,0:0:0:77:≥ε≤.wav
320,192,280177,1,0,0:0:0:77:≥ε≤.wav
192,192,280280,1,0,0:0:0:77:≥ε≤.wav
320,192,280383,1,0,0:0:0:77:≥ε≤.wav
448,192,280383,1,0,0:0:0:77:≥ε≤.wav
64,192,280485,1,0,0:0:0:77:≥ε≤.wav
192,192,280588,1,0,0:0:0:77:≥ε≤.wav
320,192,280691,1,0,0:0:0:77:≥ε≤.wav
64,192,280793,1,0,0:0:0:77:≥ε≤.wav
448,192,280793,1,0,0:0:0:77:≥ε≤.wav
320,192,280896,1,0,0:0:0:77:≥ε≤.wav
192,192,280999,1,0,0:0:0:77:≥ε≤.wav
320,192,281102,1,0,0:0:0:77:≥ε≤.wav
64,192,281204,1,0,0:0:0:77:≥ε≤.wav
448,192,281204,1,0,0:0:0:77:≥ε≤.wav
192,192,281410,1,0,0:0:0:77:≥ε≤.wav
320,192,281410,1,0,0:0:0:77:≥ε≤.wav
320,192,281615,1,0,0:0:0:77:≥ε≤.wav
64,192,281615,128,0,281718:0:0:0:77:≥ε≤.wav
448,192,281615,128,0,281821:0:0:0:77:≥ε≤.wav
192,192,281821,1,0,0:0:0:77:≥ε≤.wav
320,192,281924,1,0,0:0:0:77:≥ε≤.wav
64,192,282026,1,0,0:0:0:77:≥ε≤.wav
192,192,282026,1,0,0:0:0:77:≥ε≤.wav
448,192,282129,1,0,0:0:0:77:≥ε≤.wav
320,192,282232,1,0,0:0:0:77:≥ε≤.wav
192,192,282335,1,0,0:0:0:77:≥ε≤.wav
64,192,282437,1,0,0:0:0:77:≥ε≤.wav
320,192,282437,1,0,0:0:0:77:≥ε≤.wav
448,192,282540,1,0,0:0:0:77:≥ε≤.wav
192,192,282643,1,0,0:0:0:77:≥ε≤.wav
320,192,282746,1,0,0:0:0:77:≥ε≤.wav
64,192,282848,1,0,0:0:0:77:≥ε≤.wav
448,192,282848,1,0,0:0:0:77:≥ε≤.wav
192,192,283054,1,0,0:0:0:77:≥ε≤.wav
320,192,283054,1,0,0:0:0:77:≥ε≤.wav
64,192,283259,1,0,0:0:0:77:≥ε≤.wav
448,192,283259,1,0,0:0:0:77:≥ε≤.wav
192,192,283465,1,0,0:0:0:77:≥ε≤.wav
320,192,283567,1,0,0:0:0:77:≥ε≤.wav
64,192,283670,1,0,0:0:0:77:≥ε≤.wav
192,192,283670,1,0,0:0:0:77:≥ε≤.wav
448,192,283773,1,0,0:0:0:77:≥ε≤.wav
320,192,283876,1,0,0:0:0:77:≥ε≤.wav
192,192,283978,1,0,0:0:0:77:≥ε≤.wav
64,192,284081,1,0,0:0:0:77:≥ε≤.wav
320,192,284081,1,0,0:0:0:77:≥ε≤.wav
192,192,284184,1,0,0:0:0:77:≥ε≤.wav
448,192,284287,1,0,0:0:0:77:≥ε≤.wav
320,192,284389,1,0,0:0:0:77:≥ε≤.wav
64,192,284492,1,0,0:0:0:77:≥ε≤.wav
448,192,284492,1,0,0:0:0:77:≥ε≤.wav
192,192,284698,1,0,0:0:0:77:≥ε≤.wav
320,192,284698,1,0,0:0:0:77:≥ε≤.wav
64,192,284903,1,0,0:0:0:77:≥ε≤.wav
448,192,284903,1,0,0:0:0:77:≥ε≤.wav
320,192,285109,1,0,0:0:0:77:≥ε≤.wav
192,192,285211,1,0,0:0:0:77:≥ε≤.wav
320,192,285314,1,0,0:0:0:77:≥ε≤.wav
448,192,285314,1,0,0:0:0:77:≥ε≤.wav
64,192,285417,1,0,0:0:0:77:≥ε≤.wav
192,192,285520,1,0,0:0:0:77:≥ε≤.wav
64,192,285622,1,0,0:0:0:77:≥ε≤.wav
192,192,285725,1,0,0:0:0:77:≥ε≤.wav
448,192,285725,1,0,0:0:0:77:≥ε≤.wav
64,192,285828,1,0,0:0:0:77:≥ε≤.wav
320,192,285930,1,0,0:0:0:77:≥ε≤.wav
192,192,286033,1,0,0:0:0:77:≥ε≤.wav
64,192,286136,1,0,0:0:0:77:≥ε≤.wav
448,192,286136,1,0,0:0:0:77:≥ε≤.wav
192,192,286341,1,0,0:0:0:77:≥ε≤.wav
320,192,286341,1,0,0:0:0:77:≥ε≤.wav
192,192,286547,1,0,0:0:0:77:≥ε≤.wav
64,192,286547,128,0,286752:0:0:0:77:≥ε≤.wav
448,192,286547,128,0,286650:0:0:0:77:≥ε≤.wav
320,192,286752,1,0,0:0:0:77:≥ε≤.wav
192,192,286855,1,0,0:0:0:77:≥ε≤.wav
320,192,286958,1,0,0:0:0:77:≥ε≤.wav
448,192,286958,1,0,0:0:0:77:≥ε≤.wav
192,192,287061,1,0,0:0:0:77:≥ε≤.wav
64,192,287163,1,0,0:0:0:77:≥ε≤.wav
320,192,287266,1,0,0:0:0:77:≥ε≤.wav
192,192,287369,1,0,0:0:0:77:≥ε≤.wav
448,192,287369,1,0,0:0:0:77:≥ε≤.wav
64,192,287472,1,0,0:0:0:77:≥ε≤.wav
320,192,287574,1,0,0:0:0:77:≥ε≤.wav
192,192,287677,1,0,0:0:0:77:≥ε≤.wav
64,192,287780,1,0,0:0:0:77:≥ε≤.wav
448,192,287780,1,0,0:0:0:77:≥ε≤.wav
320,192,287883,1,0,0:0:0:77:≥ε≤.wav
192,192,287985,1,0,0:0:0:77:≥ε≤.wav
64,192,287985,1,0,0:0:0:77:≥ε≤.wav
320,192,288088,1,0,0:0:0:77:≥ε≤.wav
64,192,288191,1,0,0:0:0:77:≥ε≤.wav
192,192,288191,128,0,288293:0:0:0:77:≥ε≤.wav
448,192,288191,128,0,288396:0:0:0:77:≥ε≤.wav
192,192,288396,1,0,0:0:0:77:≥ε≤.wav
320,192,288499,1,0,0:0:0:77:≥ε≤.wav
64,192,288602,1,0,0:0:0:77:≥ε≤.wav
192,192,288602,128,0,288807:0:0:0:77:≥ε≤.wav
448,192,288704,1,0,0:0:0:77:≥ε≤.wav
320,192,288807,1,0,0:0:0:77:≥ε≤.wav
192,192,288910,1,0,0:0:0:77:≥ε≤.wav
64,192,289013,1,0,0:0:0:77:≥ε≤.wav
320,192,289013,1,0,0:0:0:77:≥ε≤.wav
448,192,289115,128,0,289218:0:0:0:77:≥ε≤.wav
64,192,289115,1,0,0:0:0:77:≥ε≤.wav
192,192,289218,1,0,0:0:0:77:≥ε≤.wav
320,192,289321,1,0,0:0:0:77:≥ε≤.wav
448,192,289424,1,0,0:0:0:77:≥ε≤.wav
64,192,289424,1,0,0:0:0:77:≥ε≤.wav
192,192,289629,128,0,289835:0:0:0:77:≥ε≤.wav
320,192,289629,1,0,0:0:0:77:≥ε≤.wav
64,192,289835,1,0,0:0:0:77:≥ε≤.wav
448,192,289835,1,0,0:0:0:77:≥ε≤.wav
192,192,290040,1,0,0:0:0:77:≥ε≤.wav
320,192,290143,1,0,0:0:0:77:≥ε≤.wav
64,192,290246,1,0,0:0:0:77:≥ε≤.wav
192,192,290246,128,0,290451:0:0:0:77:≥ε≤.wav
448,192,290348,1,0,0:0:0:77:≥ε≤.wav
320,192,290451,1,0,0:0:0:77:≥ε≤.wav
192,192,290554,1,0,0:0:0:77:≥ε≤.wav
64,192,290656,1,0,0:0:0:77:≥ε≤.wav
320,192,290656,1,0,0:0:0:77:≥ε≤.wav
192,192,290759,128,0,290862:0:0:0:77:≥ε≤.wav
320,192,290759,1,0,0:0:0:77:≥ε≤.wav
448,192,290862,1,0,0:0:0:77:≥ε≤.wav
320,192,290965,1,0,0:0:0:77:≥ε≤.wav
64,192,291067,1,0,0:0:0:77:≥ε≤.wav
448,192,291067,1,0,0:0:0:77:≥ε≤.wav
192,192,291273,1,0,0:0:0:77:≥ε≤.wav
320,192,291273,128,0,291478:0:0:0:77:≥ε≤.wav
64,192,291478,1,0,0:0:0:77:≥ε≤.wav
448,192,291478,1,0,0:0:0:77:≥ε≤.wav
320,192,291684,1,0,0:0:0:77:≥ε≤.wav
192,192,291787,1,0,0:0:0:77:≥ε≤.wav
320,192,291889,128,0,292198:0:0:0:77:≥ε≤.wav
448,192,291889,1,0,0:0:0:77:≥ε≤.wav
64,192,291992,1,0,0:0:0:77:≥ε≤.wav
192,192,292095,1,0,0:0:0:77:≥ε≤.wav
64,192,292198,1,0,0:0:0:77:≥ε≤.wav
192,192,292300,1,0,0:0:0:77:≥ε≤.wav
448,192,292300,1,0,0:0:0:77:≥ε≤.wav
64,192,292403,128,0,292506:0:0:0:77:≥ε≤.wav
448,192,292403,1,0,0:0:0:77:≥ε≤.wav
320,192,292506,1,0,0:0:0:77:≥ε≤.wav
192,192,292609,1,0,0:0:0:77:≥ε≤.wav
64,192,292711,1,0,0:0:0:77:≥ε≤.wav
448,192,292711,1,0,0:0:0:77:≥ε≤.wav
320,192,292917,1,0,0:0:0:77:≥ε≤.wav
192,192,292917,128,0,293122:0:0:0:77:≥ε≤.wav
64,192,293122,1,0,0:0:0:77:≥ε≤.wav
448,192,293122,1,0,0:0:0:77:≥ε≤.wav
320,192,293328,1,0,0:0:0:77:≥ε≤.wav
192,192,293430,1,0,0:0:0:77:≥ε≤.wav
448,192,293533,1,0,0:0:0:77:≥ε≤.wav
320,192,293533,128,0,293739:0:0:0:77:≥ε≤.wav
64,192,293636,1,0,0:0:0:77:≥ε≤.wav
192,192,293739,1,0,0:0:0:77:≥ε≤.wav
320,192,293841,1,0,0:0:0:77:≥ε≤.wav
64,192,293944,1,0,0:0:0:77:≥ε≤.wav
448,192,293944,1,0,0:0:0:77:≥ε≤.wav
320,192,294047,128,0,294150:0:0:0:77:≥ε≤.wav
192,192,294047,1,0,0:0:0:77:≥ε≤.wav
192,192,294150,1,0,0:0:0:77:≥ε≤.wav
320,192,294252,1,0,0:0:0:77:≥ε≤.wav
64,192,294355,1,0,0:0:0:77:≥ε≤.wav
448,192,294355,1,0,0:0:0:77:≥ε≤.wav
192,192,294561,1,0,0:0:0:77:≥ε≤.wav
320,192,294561,128,0,294766:0:0:0:77:≥ε≤.wav
64,192,294766,1,0,0:0:0:77:≥ε≤.wav
192,192,294766,128,0,294869:0:0:0:77:≥ε≤.wav
448,192,294766,128,0,294972:0:0:0:77:≥ε≤.wav
192,192,294972,1,0,0:0:0:77:≥ε≤.wav
320,192,295074,1,0,0:0:0:77:≥ε≤.wav
64,192,295177,1,0,0:0:0:77:≥ε≤.wav
192,192,295177,128,0,295383:0:0:0:77:≥ε≤.wav
448,192,295280,1,0,0:0:0:77:≥ε≤.wav
320,192,295383,1,0,0:0:0:77:≥ε≤.wav
192,192,295485,1,0,0:0:0:77:≥ε≤.wav
64,192,295588,1,0,0:0:0:77:≥ε≤.wav
320,192,295588,1,0,0:0:0:77:≥ε≤.wav
448,192,295691,128,0,295793:0:0:0:77:≥ε≤.wav
64,192,295691,1,0,0:0:0:77:≥ε≤.wav
192,192,295793,1,0,0:0:0:77:≥ε≤.wav
320,192,295896,1,0,0:0:0:77:≥ε≤.wav
64,192,295999,1,0,0:0:0:77:≥ε≤.wav
448,192,295999,1,0,0:0:0:77:≥ε≤.wav
320,192,296204,1,0,0:0:0:77:≥ε≤.wav
192,192,296204,128,0,296410:0:0:0:77:≥ε≤.wav
64,192,296410,1,0,0:0:0:77:≥ε≤.wav
448,192,296410,1,0,0:0:0:77:≥ε≤.wav
192,192,296615,1,0,0:0:0:77:≥ε≤.wav
320,192,296718,1,0,0:0:0:77:≥ε≤.wav
64,192,296821,1,0,0:0:0:77:≥ε≤.wav
192,192,296821,128,0,297026:0:0:0:77:≥ε≤.wav
448,192,296924,1,0,0:0:0:77:≥ε≤.wav
320,192,297026,1,0,0:0:0:77:≥ε≤.wav
192,192,297129,1,0,0:0:0:77:≥ε≤.wav
64,192,297232,1,0,0:0:0:77:≥ε≤.wav
320,192,297232,1,0,0:0:0:77:≥ε≤.wav
192,192,297335,128,0,297437:0:0:0:77:≥ε≤.wav
320,192,297335,1,0,0:0:0:77:≥ε≤.wav
448,192,297437,1,0,0:0:0:77:≥ε≤.wav
320,192,297540,1,0,0:0:0:77:≥ε≤.wav
64,192,297643,1,0,0:0:0:77:≥ε≤.wav
448,192,297643,1,0,0:0:0:77:≥ε≤.wav
192,192,297848,1,0,0:0:0:77:≥ε≤.wav
320,192,297848,128,0,298054:0:0:0:77:≥ε≤.wav
64,192,298054,128,0,298259:0:0:0:77:≥ε≤.wav
448,192,298054,128,0,298156:0:0:0:77:≥ε≤.wav
192,192,298054,1,0,0:0:0:77:≥ε≤.wav
320,192,298259,1,0,0:0:0:77:≥ε≤.wav
192,192,298362,1,0,0:0:0:77:≥ε≤.wav
448,192,298465,1,0,0:0:0:77:≥ε≤.wav
320,192,298465,128,0,298773:0:0:0:77:≥ε≤.wav
64,192,298567,1,0,0:0:0:77:≥ε≤.wav
192,192,298670,1,0,0:0:0:77:≥ε≤.wav
64,192,298773,1,0,0:0:0:77:≥ε≤.wav
192,192,298876,1,0,0:0:0:77:≥ε≤.wav
448,192,298876,1,0,0:0:0:77:≥ε≤.wav
64,192,298978,128,0,299081:0:0:0:77:≥ε≤.wav
448,192,298978,1,0,0:0:0:77:≥ε≤.wav
320,192,299081,1,0,0:0:0:77:≥ε≤.wav
192,192,299184,1,0,0:0:0:77:≥ε≤.wav
64,192,299287,1,0,0:0:0:77:≥ε≤.wav
448,192,299287,1,0,0:0:0:77:≥ε≤.wav
192,192,299492,128,0,299698:0:0:0:77:≥ε≤.wav
320,192,299492,1,0,0:0:0:77:≥ε≤.wav
64,192,299698,1,0,0:0:0:77:≥ε≤.wav
448,192,299698,1,0,0:0:0:77:≥ε≤.wav
320,192,299903,1,0,0:0:0:77:≥ε≤.wav
192,192,300006,1,0,0:0:0:77:≥ε≤.wav
320,192,300109,1,0,0:0:0:77:≥ε≤.wav
448,192,300109,1,0,0:0:0:77:≥ε≤.wav
192,192,300211,1,0,0:0:0:77:≥ε≤.wav
64,192,300314,1,0,0:0:0:77:≥ε≤.wav
320,192,300417,1,0,0:0:0:77:≥ε≤.wav
192,192,300520,1,0,0:0:0:77:≥ε≤.wav
448,192,300520,1,0,0:0:0:77:≥ε≤.wav
64,192,300520,1,0,0:0:0:77:≥ε≤.wav
64,192,300622,1,0,0:0:0:77:≥ε≤.wav
320,192,300622,1,0,0:0:0:77:≥ε≤.wav
448,192,300622,1,0,0:0:0:77:≥ε≤.wav
192,192,300725,128,0,300828:0:0:0:77:≥ε≤.wav
320,192,300828,128,0,300930:0:0:0:77:≥ε≤.wav
64,192,300828,1,0,0:0:0:77:≥ε≤.wav
448,192,300828,1,0,0:0:0:77:≥ε≤.wav
192,192,300930,1,0,0:0:0:77:≥ε≤.wav
320,192,301033,1,0,0:0:0:77:≥ε≤.wav
448,192,301033,1,0,0:0:0:77:≥ε≤.wav
64,192,301136,1,0,0:0:0:77:≥ε≤.wav
448,192,301136,1,0,0:0:0:77:≥ε≤.wav
192,192,301239,1,0,0:0:0:77:≥ε≤.wav
64,192,301341,1,0,0:0:0:77:≥ε≤.wav
320,192,301341,1,0,0:0:0:77:≥ε≤.wav
448,192,301341,1,0,0:0:0:77:≥ε≤.wav
192,192,301547,1,0,0:0:0:77:≥ε≤.wav
320,192,301650,1,0,0:0:0:77:≥ε≤.wav
64,192,301752,1,0,0:0:0:77:≥ε≤.wav
192,192,301752,128,0,301958:0:0:0:77:≥ε≤.wav
448,192,301855,1,0,0:0:0:77:≥ε≤.wav
320,192,301958,1,0,0:0:0:77:≥ε≤.wav
192,192,302061,1,0,0:0:0:77:≥ε≤.wav
64,192,302163,1,0,0:0:0:77:≥ε≤.wav
320,192,302163,1,0,0:0:0:77:≥ε≤.wav
64,192,302266,1,0,0:0:0:77:≥ε≤.wav
448,192,302266,128,0,302369:0:0:0:77:≥ε≤.wav
192,192,302369,1,0,0:0:0:77:≥ε≤.wav
320,192,302472,1,0,0:0:0:77:≥ε≤.wav
320,192,302574,1,0,0:0:0:77:≥ε≤.wav
64,192,302574,1,0,0:0:0:77:≥ε≤.wav
448,192,302574,1,0,0:0:0:77:≥ε≤.wav
192,192,302780,128,0,302985:0:0:0:77:≥ε≤.wav
320,192,302780,1,0,0:0:0:77:≥ε≤.wav
64,192,302985,1,0,0:0:0:77:≥ε≤.wav
448,192,302985,1,0,0:0:0:77:≥ε≤.wav
320,192,302985,1,0,0:0:0:77:≥ε≤.wav
192,192,303191,1,0,0:0:0:77:≥ε≤.wav
320,192,303293,1,0,0:0:0:77:≥ε≤.wav
192,192,303396,128,0,303602:0:0:0:77:≥ε≤.wav
64,192,303396,1,0,0:0:0:77:≥ε≤.wav
448,192,303499,1,0,0:0:0:77:≥ε≤.wav
320,192,303602,1,0,0:0:0:77:≥ε≤.wav
192,192,303704,1,0,0:0:0:77:≥ε≤.wav
64,192,303807,1,0,0:0:0:77:≥ε≤.wav
320,192,303807,1,0,0:0:0:77:≥ε≤.wav
320,192,303910,1,0,0:0:0:77:≥ε≤.wav
192,192,303910,128,0,304013:0:0:0:77:≥ε≤.wav
448,192,304013,1,0,0:0:0:77:≥ε≤.wav
320,192,304115,1,0,0:0:0:77:≥ε≤.wav
64,192,304218,1,0,0:0:0:77:≥ε≤.wav
448,192,304218,1,0,0:0:0:77:≥ε≤.wav
192,192,304218,1,0,0:0:0:77:≥ε≤.wav
192,192,304424,1,0,0:0:0:77:≥ε≤.wav
320,192,304424,128,0,304629:0:0:0:77:≥ε≤.wav
64,192,304629,1,0,0:0:0:77:≥ε≤.wav
448,192,304629,1,0,0:0:0:77:≥ε≤.wav
192,192,304629,1,0,0:0:0:77:≥ε≤.wav
320,192,304835,1,0,0:0:0:77:≥ε≤.wav
192,192,304937,1,0,0:0:0:77:≥ε≤.wav
448,192,305040,1,0,0:0:0:77:≥ε≤.wav
320,192,305040,128,0,305348:0:0:0:77:≥ε≤.wav
64,192,305143,1,0,0:0:0:77:≥ε≤.wav
192,192,305246,1,0,0:0:0:77:≥ε≤.wav
64,192,305348,1,0,0:0:0:77:≥ε≤.wav
192,192,305451,1,0,0:0:0:77:≥ε≤.wav
448,192,305451,1,0,0:0:0:77:≥ε≤.wav
64,192,305554,128,0,305656:0:0:0:77:≥ε≤.wav
448,192,305554,1,0,0:0:0:77:≥ε≤.wav
320,192,305656,1,0,0:0:0:77:≥ε≤.wav
192,192,305759,1,0,0:0:0:77:≥ε≤.wav
64,192,305862,1,0,0:0:0:77:≥ε≤.wav
448,192,305862,1,0,0:0:0:77:≥ε≤.wav
192,192,305862,1,0,0:0:0:77:≥ε≤.wav
192,192,306067,128,0,306273:0:0:0:77:≥ε≤.wav
320,192,306067,1,0,0:0:0:77:≥ε≤.wav
64,192,306273,1,0,0:0:0:77:≥ε≤.wav
320,192,306273,1,0,0:0:0:77:≥ε≤.wav
448,192,306273,1,0,0:0:0:77:≥ε≤.wav
320,192,306478,1,0,0:0:0:77:≥ε≤.wav
192,192,306581,1,0,0:0:0:77:≥ε≤.wav
448,192,306684,1,0,0:0:0:77:≥ε≤.wav
320,192,306684,128,0,306889:0:0:0:77:≥ε≤.wav
64,192,306787,1,0,0:0:0:77:≥ε≤.wav
192,192,306889,1,0,0:0:0:77:≥ε≤.wav
320,192,306992,1,0,0:0:0:77:≥ε≤.wav
64,192,307095,1,0,0:0:0:77:≥ε≤.wav
448,192,307095,1,0,0:0:0:77:≥ε≤.wav
320,192,307198,128,0,307300:0:0:0:77:≥ε≤.wav
192,192,307198,1,0,0:0:0:77:≥ε≤.wav
192,192,307300,1,0,0:0:0:77:≥ε≤.wav
320,192,307403,1,0,0:0:0:77:≥ε≤.wav
64,192,307506,1,0,0:0:0:77:≥ε≤.wav
448,192,307506,1,0,0:0:0:77:≥ε≤.wav
192,192,307506,1,0,0:0:0:77:≥ε≤.wav
192,192,307711,1,0,0:0:0:77:≥ε≤.wav
320,192,307711,128,0,307917:0:0:0:77:≥ε≤.wav
192,192,307917,1,0,0:0:0:77:≥ε≤.wav
64,192,307917,128,0,308020:0:0:0:77:≥ε≤.wav
448,192,307917,128,0,308122:0:0:0:77:≥ε≤.wav
192,192,308122,1,0,0:0:0:77:≥ε≤.wav
320,192,308225,1,0,0:0:0:77:≥ε≤.wav
64,192,308328,1,0,0:0:0:77:≥ε≤.wav
448,192,308328,1,0,0:0:0:77:≥ε≤.wav
192,192,308328,128,0,308533:0:0:0:77:≥ε≤.wav
448,192,308430,1,0,0:0:0:77:≥ε≤.wav
320,192,308533,1,0,0:0:0:77:≥ε≤.wav
192,192,308636,1,0,0:0:0:77:≥ε≤.wav
64,192,308739,1,0,0:0:0:77:≥ε≤.wav
320,192,308739,1,0,0:0:0:77:≥ε≤.wav
64,192,308841,1,0,0:0:0:77:≥ε≤.wav
448,192,308841,128,0,308944:0:0:0:77:≥ε≤.wav
192,192,308944,1,0,0:0:0:77:≥ε≤.wav
320,192,309047,1,0,0:0:0:77:≥ε≤.wav
64,192,309150,1,0,0:0:0:77:≥ε≤.wav
320,192,309150,1,0,0:0:0:77:≥ε≤.wav
448,192,309150,1,0,0:0:0:77:≥ε≤.wav
192,192,309355,128,0,309561:0:0:0:77:≥ε≤.wav
320,192,309355,1,0,0:0:0:77:≥ε≤.wav
320,192,309561,1,0,0:0:0:77:≥ε≤.wav
64,192,309561,128,0,309766:0:0:0:77:≥ε≤.wav
448,192,309561,128,0,309663:0:0:0:77:≥ε≤.wav
192,192,309766,1,0,0:0:0:77:≥ε≤.wav
320,192,309869,1,0,0:0:0:77:≥ε≤.wav
64,192,309972,1,0,0:0:0:77:≥ε≤.wav
192,192,309972,128,0,310177:0:0:0:77:≥ε≤.wav
448,192,309972,1,0,0:0:0:77:≥ε≤.wav
448,192,310074,1,0,0:0:0:77:≥ε≤.wav
320,192,310177,1,0,0:0:0:77:≥ε≤.wav
192,192,310280,1,0,0:0:0:77:≥ε≤.wav
64,192,310383,1,0,0:0:0:77:≥ε≤.wav
320,192,310383,1,0,0:0:0:77:≥ε≤.wav
192,192,310485,128,0,310588:0:0:0:77:≥ε≤.wav
448,192,310485,1,0,0:0:0:77:≥ε≤.wav
64,192,310588,1,0,0:0:0:77:≥ε≤.wav
320,192,310691,1,0,0:0:0:77:≥ε≤.wav
192,192,310691,1,0,0:0:0:77:≥ε≤.wav
64,192,310793,1,0,0:0:0:77:≥ε≤.wav
320,192,310793,1,0,0:0:0:77:≥ε≤.wav
448,192,310793,1,0,0:0:0:77:≥ε≤.wav
192,192,310999,1,0,0:0:0:77:≥ε≤.wav
320,192,310999,128,0,311204:0:0:0:77:≥ε≤.wav
448,192,311204,1,0,0:0:0:77:≥ε≤.wav
64,192,311204,128,0,311410:0:0:0:77:≥ε≤.wav
192,192,311204,128,0,311307:0:0:0:77:≥ε≤.wav
320,192,311410,1,0,0:0:0:77:≥ε≤.wav
448,192,311410,1,0,0:0:0:77:≥ε≤.wav
192,192,311513,1,0,0:0:0:77:≥ε≤.wav
320,192,311615,128,0,311924:0:0:0:77:≥ε≤.wav
448,192,311615,1,0,0:0:0:77:≥ε≤.wav
64,192,311718,1,0,0:0:0:77:≥ε≤.wav
192,192,311821,1,0,0:0:0:77:≥ε≤.wav
448,192,311821,1,0,0:0:0:77:≥ε≤.wav
64,192,311924,1,0,0:0:0:77:≥ε≤.wav
192,192,312026,1,0,0:0:0:77:≥ε≤.wav
448,192,312026,128,0,312129:0:0:0:77:≥ε≤.wav
192,192,312129,1,0,0:0:0:77:≥ε≤.wav
320,192,312232,1,0,0:0:0:77:≥ε≤.wav
64,192,312232,1,0,0:0:0:77:≥ε≤.wav
448,192,312335,1,0,0:0:0:77:≥ε≤.wav
64,192,312437,1,0,0:0:0:77:≥ε≤.wav
192,192,312437,1,0,0:0:0:77:≥ε≤.wav
448,192,312437,1,0,0:0:0:77:≥ε≤.wav
192,192,312643,128,0,312848:0:0:0:77:≥ε≤.wav
320,192,312643,1,0,0:0:0:77:≥ε≤.wav
64,192,312848,1,0,0:0:0:77:≥ε≤.wav
320,192,312848,1,0,0:0:0:77:≥ε≤.wav
448,192,312848,1,0,0:0:0:77:≥ε≤.wav
320,192,313054,1,0,0:0:0:77:≥ε≤.wav
64,192,313054,1,0,0:0:0:77:≥ε≤.wav
448,192,313054,128,0,313156:0:0:0:77:≥ε≤.wav
192,192,313156,1,0,0:0:0:77:≥ε≤.wav
64,192,313259,1,0,0:0:0:77:≥ε≤.wav
448,192,313259,1,0,0:0:0:77:≥ε≤.wav
448,192,313362,1,0,0:0:0:77:≥ε≤.wav
192,192,313362,1,0,0:0:0:77:≥ε≤.wav
320,192,313465,1,0,0:0:0:77:≥ε≤.wav
64,192,313465,1,0,0:0:0:77:≥ε≤.wav
192,192,313567,1,0,0:0:0:77:≥ε≤.wav
320,192,313567,1,0,0:0:0:77:≥ε≤.wav
64,192,313670,1,0,0:0:0:77:≥ε≤.wav
448,192,313670,128,0,313876:0:0:0:77:≥ε≤.wav
64,192,313773,1,0,0:0:0:77:≥ε≤.wav
320,192,313876,128,0,314492:0:0:0:77:≥ε≤.wav
192,192,313876,1,0,0:0:0:77:≥ε≤.wav
448,192,313978,1,0,0:0:0:77:≥ε≤.wav
64,192,314081,1,0,0:0:0:77:≥ε≤.wav
192,192,314184,1,0,0:0:0:77:≥ε≤.wav
448,192,314287,1,0,0:0:0:77:≥ε≤.wav
64,192,314389,1,0,0:0:0:77:≥ε≤.wav
192,192,314492,1,0,0:0:0:77:≥ε≤.wav
448,192,314492,128,0,314800:0:0:0:77:≥ε≤.wav
320,192,314595,128,0,314903:0:0:0:77:≥ε≤.wav
192,192,314800,1,0,0:0:0:77:≥ε≤.wav
64,192,314903,1,0,0:0:0:77:≥ε≤.wav
448,192,314903,1,0,0:0:0:77:≥ε≤.wav
192,192,315109,1,0,0:0:0:77:≥ε≤.wav
448,192,315109,1,0,0:0:0:77:≥ε≤.wav
64,192,315314,1,0,0:0:0:77:≥ε≤.wav
320,192,315314,1,0,0:0:0:77:≥ε≤.wav
64,192,315417,1,0,0:0:0:77:≥ε≤.wav
448,192,315417,1,0,0:0:0:77:≥ε≤.wav
192,192,315520,1,0,0:0:0:77:≥ε≤.wav
320,192,315622,1,0,0:0:0:77:≥ε≤.wav
64,192,315725,1,0,0:0:0:77:≥ε≤.wav
448,192,315725,1,0,0:0:0:77:≥ε≤.wav
192,192,315930,1,0,0:0:0:77:≥ε≤.wav
320,192,315930,1,0,0:0:0:77:≥ε≤.wav
448,192,316136,1,0,0:0:0:77:≥ε≤.wav
64,192,316136,128,0,316444:0:0:0:77:≥ε≤.wav
192,192,316239,128,0,316547:0:0:0:77:≥ε≤.wav
320,192,316444,1,0,0:0:0:77:≥ε≤.wav
64,192,316547,1,0,0:0:0:77:≥ε≤.wav
448,192,316547,1,0,0:0:0:77:≥ε≤.wav
64,192,316752,1,0,0:0:0:77:≥ε≤.wav
320,192,316752,1,0,0:0:0:77:≥ε≤.wav
448,192,316958,1,0,0:0:0:77:≥ε≤.wav
64,192,316958,1,0,0:0:0:77:≥ε≤.wav
192,192,317061,1,0,0:0:0:77:≥ε≤.wav
320,192,317163,1,0,0:0:0:77:≥ε≤.wav
448,192,317266,1,0,0:0:0:77:≥ε≤.wav
192,192,317266,1,0,0:0:0:77:≥ε≤.wav
448,192,317369,1,0,0:0:0:77:≥ε≤.wav
64,192,317369,1,0,0:0:0:77:≥ε≤.wav
192,192,317574,1,0,0:0:0:77:≥ε≤.wav
320,192,317574,1,0,0:0:0:77:≥ε≤.wav
64,192,317780,1,0,0:0:0:77:≥ε≤.wav
448,192,317780,128,0,318088:0:0:0:77:≥ε≤.wav
192,192,317883,128,0,318191:0:0:0:77:≥ε≤.wav
320,192,318088,1,0,0:0:0:77:≥ε≤.wav
64,192,318191,1,0,0:0:0:77:≥ε≤.wav
448,192,318191,1,0,0:0:0:77:≥ε≤.wav
192,192,318396,1,0,0:0:0:77:≥ε≤.wav
448,192,318396,1,0,0:0:0:77:≥ε≤.wav
64,192,318602,1,0,0:0:0:77:≥ε≤.wav
320,192,318602,1,0,0:0:0:77:≥ε≤.wav
64,192,318704,1,0,0:0:0:77:≥ε≤.wav
448,192,318704,1,0,0:0:0:77:≥ε≤.wav
192,192,318807,1,0,0:0:0:77:≥ε≤.wav
320,192,318910,1,0,0:0:0:77:≥ε≤.wav
64,192,319013,1,0,0:0:0:77:≥ε≤.wav
448,192,319013,1,0,0:0:0:77:≥ε≤.wav
192,192,319218,1,0,0:0:0:77:≥ε≤.wav
320,192,319218,1,0,0:0:0:77:≥ε≤.wav
448,192,319424,1,0,0:0:0:77:≥ε≤.wav
64,192,319424,128,0,319732:0:0:0:77:≥ε≤.wav
320,192,319526,128,0,319835:0:0:0:77:≥ε≤.wav
192,192,319732,1,0,0:0:0:77:≥ε≤.wav
64,192,319835,1,0,0:0:0:77:≥ε≤.wav
448,192,319835,1,0,0:0:0:77:≥ε≤.wav
320,192,320040,1,0,0:0:0:77:≥ε≤.wav
64,192,320040,1,0,0:0:0:77:≥ε≤.wav
192,192,320246,1,0,0:0:0:77:≥ε≤.wav
448,192,320246,1,0,0:0:0:77:≥ε≤.wav
448,192,320348,1,0,0:0:0:77:≥ε≤.wav
64,192,320348,1,0,0:0:0:77:≥ε≤.wav
320,192,320451,1,0,0:0:0:77:≥ε≤.wav
448,192,320554,1,0,0:0:0:77:≥ε≤.wav
192,192,320554,1,0,0:0:0:77:≥ε≤.wav
64,192,320656,1,0,0:0:0:77:≥ε≤.wav
320,192,320656,1,0,0:0:0:77:≥ε≤.wav
192,192,320862,1,0,0:0:0:77:≥ε≤.wav
448,192,320862,1,0,0:0:0:77:≥ε≤.wav
64,192,321067,128,0,321376:0:0:0:77:≥ε≤.wav
448,192,321067,128,0,321170:0:0:0:77:≥ε≤.wav
320,192,321067,1,0,0:0:0:77:≥ε≤.wav
192,192,321170,128,0,321478:0:0:0:77:≥ε≤.wav
320,192,321376,1,0,0:0:0:77:≥ε≤.wav
64,192,321478,1,0,0:0:0:77:≥ε≤.wav
448,192,321478,1,0,0:0:0:77:≥ε≤.wav
192,192,321684,1,0,0:0:0:77:≥ε≤.wav
448,192,321684,1,0,0:0:0:77:≥ε≤.wav
64,192,321889,1,0,0:0:0:77:≥ε≤.wav
320,192,321889,1,0,0:0:0:77:≥ε≤.wav
64,192,321992,1,0,0:0:0:77:≥ε≤.wav
448,192,321992,1,0,0:0:0:77:≥ε≤.wav
192,192,322095,1,0,0:0:0:77:≥ε≤.wav
320,192,322198,1,0,0:0:0:77:≥ε≤.wav
64,192,322300,1,0,0:0:0:77:≥ε≤.wav
448,192,322300,1,0,0:0:0:77:≥ε≤.wav
192,192,322506,1,0,0:0:0:77:≥ε≤.wav
320,192,322506,1,0,0:0:0:77:≥ε≤.wav
448,192,322711,128,0,323020:0:0:0:77:≥ε≤.wav
64,192,322711,1,0,0:0:0:77:≥ε≤.wav
320,192,322814,128,0,323122:0:0:0:77:≥ε≤.wav
192,192,323020,1,0,0:0:0:77:≥ε≤.wav
64,192,323122,1,0,0:0:0:77:≥ε≤.wav
448,192,323122,1,0,0:0:0:77:≥ε≤.wav
64,192,323328,1,0,0:0:0:77:≥ε≤.wav
320,192,323328,1,0,0:0:0:77:≥ε≤.wav
448,192,323533,1,0,0:0:0:77:≥ε≤.wav
64,192,323533,1,0,0:0:0:77:≥ε≤.wav
192,192,323636,1,0,0:0:0:77:≥ε≤.wav
320,192,323739,1,0,0:0:0:77:≥ε≤.wav
192,192,323841,1,0,0:0:0:77:≥ε≤.wav
448,192,323841,1,0,0:0:0:77:≥ε≤.wav
64,192,323944,1,0,0:0:0:77:≥ε≤.wav
448,192,323944,1,0,0:0:0:77:≥ε≤.wav
192,192,324150,1,0,0:0:0:77:≥ε≤.wav
320,192,324150,1,0,0:0:0:77:≥ε≤.wav
64,192,324355,128,0,324663:0:0:0:77:≥ε≤.wav
192,192,324355,128,0,324458:0:0:0:77:≥ε≤.wav
320,192,324355,1,0,0:0:0:77:≥ε≤.wav
448,192,324458,128,0,324766:0:0:0:77:≥ε≤.wav
192,192,324663,1,0,0:0:0:77:≥ε≤.wav
64,192,324766,1,0,0:0:0:77:≥ε≤.wav
320,192,324766,1,0,0:0:0:77:≥ε≤.wav
192,192,324972,1,0,0:0:0:77:≥ε≤.wav
320,192,324972,1,0,0:0:0:77:≥ε≤.wav
64,192,325177,1,0,0:0:0:77:≥ε≤.wav
320,192,325177,1,0,0:0:0:77:≥ε≤.wav
448,192,325280,1,0,0:0:0:77:≥ε≤.wav
64,192,325280,1,0,0:0:0:77:≥ε≤.wav
192,192,325383,1,0,0:0:0:77:≥ε≤.wav
448,192,325383,1,0,0:0:0:77:≥ε≤.wav
64,192,325485,1,0,0:0:0:77:≥ε≤.wav
320,192,325485,1,0,0:0:0:77:≥ε≤.wav
192,192,325588,1,0,0:0:0:77:≥ε≤.wav
448,192,325588,1,0,0:0:0:77:≥ε≤.wav
192,192,325793,1,0,0:0:0:77:≥ε≤.wav
320,192,325793,1,0,0:0:0:77:≥ε≤.wav
64,192,325999,128,0,326067:0:0:0:77:≥ε≤.wav
320,192,325999,1,0,0:0:0:77:≥ε≤.wav
448,192,325999,128,0,326136:0:0:0:77:≥ε≤.wav
64,192,326204,128,0,326341:0:0:0:77:≥ε≤.wav
192,192,326204,128,0,326273:0:0:0:77:≥ε≤.wav
448,192,326204,1,0,0:0:0:77:≥ε≤.wav
192,192,326410,1,0,0:0:0:77:≥ε≤.wav
320,192,326410,128,0,326478:0:0:0:77:≥ε≤.wav
448,192,326410,128,0,326547:0:0:0:77:≥ε≤.wav
64,192,326615,128,0,327643:0:0:0:77:≥ε≤.wav
192,192,326615,128,0,326684:0:0:0:77:≥ε≤.wav
448,192,326615,1,0,0:0:0:77:≥ε≤.wav
320,192,327026,1,0,0:0:0:77:≥ε≤.wav
192,192,327232,1,0,0:0:0:77:≥ε≤.wav
448,192,327232,128,0,327437:0:0:0:77:≥ε≤.wav
320,192,327437,128,0,327643:0:0:0:77:≥ε≤.wav
448,192,327643,1,0,0:0:0:77:≥ε≤.wav
192,192,327643,128,0,327951:0:0:0:77:≥ε≤.wav
64,192,327746,128,0,328054:0:0:0:77:≥ε≤.wav
320,192,327951,1,0,0:0:0:77:≥ε≤.wav
192,192,328054,1,0,0:0:0:77:≥ε≤.wav
448,192,328054,1,0,0:0:0:77:≥ε≤.wav
64,192,328259,1,0,0:0:0:77:≥ε≤.wav
448,192,328259,128,0,328362:0:0:0:77:≥ε≤.wav
192,192,328362,1,0,0:0:0:77:≥ε≤.wav
64,192,328465,1,0,0:0:0:77:≥ε≤.wav
320,192,328465,1,0,0:0:0:77:≥ε≤.wav
64,192,328567,1,0,0:0:0:77:≥ε≤.wav
448,192,328567,128,0,328670:0:0:0:77:≥ε≤.wav
192,192,328670,1,0,0:0:0:77:≥ε≤.wav
320,192,328773,1,0,0:0:0:77:≥ε≤.wav
64,192,328876,1,0,0:0:0:77:≥ε≤.wav
448,192,328876,1,0,0:0:0:77:≥ε≤.wav
192,192,329081,128,0,329184:0:0:0:77:≥ε≤.wav
320,192,329081,1,0,0:0:0:77:≥ε≤.wav
64,192,329287,1,0,0:0:0:77:≥ε≤.wav
320,192,329287,128,0,329595:0:0:0:77:≥ε≤.wav
448,192,329389,128,0,329698:0:0:0:77:≥ε≤.wav
192,192,329595,1,0,0:0:0:77:≥ε≤.wav
64,192,329698,1,0,0:0:0:77:≥ε≤.wav
320,192,329698,1,0,0:0:0:77:≥ε≤.wav
192,192,329903,128,0,330006:0:0:0:77:≥ε≤.wav
448,192,329903,1,0,0:0:0:77:≥ε≤.wav
320,192,330006,1,0,0:0:0:77:≥ε≤.wav
448,192,330109,1,0,0:0:0:77:≥ε≤.wav
64,192,330109,1,0,0:0:0:77:≥ε≤.wav
192,192,330211,1,0,0:0:0:77:≥ε≤.wav
320,192,330314,1,0,0:0:0:77:≥ε≤.wav
448,192,330417,1,0,0:0:0:77:≥ε≤.wav
64,192,330417,1,0,0:0:0:77:≥ε≤.wav
192,192,330520,1,0,0:0:0:77:≥ε≤.wav
448,192,330520,1,0,0:0:0:77:≥ε≤.wav
192,192,330725,1,0,0:0:0:77:≥ε≤.wav
320,192,330725,1,0,0:0:0:77:≥ε≤.wav
448,192,330930,128,0,331239:0:0:0:77:≥ε≤.wav
64,192,330930,1,0,0:0:0:77:≥ε≤.wav
192,192,331033,128,0,331341:0:0:0:77:≥ε≤.wav
320,192,331239,1,0,0:0:0:77:≥ε≤.wav
64,192,331341,1,0,0:0:0:77:≥ε≤.wav
448,192,331341,1,0,0:0:0:77:≥ε≤.wav
64,192,331547,1,0,0:0:0:77:≥ε≤.wav
448,192,331547,128,0,331650:0:0:0:77:≥ε≤.wav
192,192,331650,1,0,0:0:0:77:≥ε≤.wav
64,192,331752,1,0,0:0:0:77:≥ε≤.wav
320,192,331752,1,0,0:0:0:77:≥ε≤.wav
64,192,331855,1,0,0:0:0:77:≥ε≤.wav
448,192,331855,1,0,0:0:0:77:≥ε≤.wav
192,192,331958,1,0,0:0:0:77:≥ε≤.wav
64,192,332061,1,0,0:0:0:77:≥ε≤.wav
320,192,332061,1,0,0:0:0:77:≥ε≤.wav
320,192,332163,1,0,0:0:0:77:≥ε≤.wav
448,192,332163,1,0,0:0:0:77:≥ε≤.wav
192,192,332163,128,0,332266:0:0:0:77:≥ε≤.wav
64,192,332369,1,0,0:0:0:77:≥ε≤.wav
448,192,332369,128,0,332472:0:0:0:77:≥ε≤.wav
320,192,332369,1,0,0:0:0:77:≥ε≤.wav
320,192,332574,128,0,333396:0:0:0:77:≥ε≤.wav
64,192,332574,128,0,332677:0:0:0:77:≥ε≤.wav
192,192,332677,1,0,0:0:0:77:≥ε≤.wav
448,192,332780,128,0,332883:0:0:0:77:≥ε≤.wav
64,192,332883,1,0,0:0:0:77:≥ε≤.wav
192,192,332985,128,0,333088:0:0:0:77:≥ε≤.wav
448,192,333088,1,0,0:0:0:77:≥ε≤.wav
192,192,333191,1,0,0:0:0:77:≥ε≤.wav
64,192,333293,1,0,0:0:0:77:≥ε≤.wav
192,192,333396,1,0,0:0:0:77:≥ε≤.wav
448,192,333396,128,0,333499:0:0:0:77:≥ε≤.wav
192,192,333499,1,0,0:0:0:77:≥ε≤.wav
320,192,333602,1,0,0:0:0:77:≥ε≤.wav
192,192,333704,1,0,0:0:0:77:≥ε≤.wav
448,192,333807,1,0,0:0:0:77:≥ε≤.wav
64,192,333807,128,0,334115:0:0:0:77:≥ε≤.wav
320,192,334013,1,0,0:0:0:77:≥ε≤.wav
192,192,334013,1,0,0:0:0:77:≥ε≤.wav
64,192,334218,1,0,0:0:0:77:≥ε≤.wav
320,192,334218,128,0,334321:0:0:0:77:≥ε≤.wav
448,192,334218,128,0,334424:0:0:0:77:≥ε≤.wav
192,192,334424,1,0,0:0:0:77:≥ε≤.wav
320,192,334526,1,0,0:0:0:77:≥ε≤.wav
64,192,334629,1,0,0:0:0:77:≥ε≤.wav
192,192,334629,1,0,0:0:0:77:≥ε≤.wav
448,192,334732,1,0,0:0:0:77:≥ε≤.wav
64,192,334732,1,0,0:0:0:77:≥ε≤.wav
320,192,334835,1,0,0:0:0:77:≥ε≤.wav
192,192,334937,1,0,0:0:0:77:≥ε≤.wav
64,192,335040,1,0,0:0:0:77:≥ε≤.wav
448,192,335040,1,0,0:0:0:77:≥ε≤.wav
448,192,335143,1,0,0:0:0:77:≥ε≤.wav
192,192,335246,1,0,0:0:0:77:≥ε≤.wav
320,192,335348,1,0,0:0:0:77:≥ε≤.wav
64,192,335451,1,0,0:0:0:77:≥ε≤.wav
448,192,335451,1,0,0:0:0:77:≥ε≤.wav
192,192,335656,1,0,0:0:0:77:≥ε≤.wav
320,192,335656,1,0,0:0:0:77:≥ε≤.wav
64,192,335862,128,0,336067:0:0:0:77:≥ε≤.wav
192,192,335862,128,0,335965:0:0:0:77:≥ε≤.wav
448,192,335862,1,0,0:0:0:77:≥ε≤.wav
320,192,336067,1,0,0:0:0:77:≥ε≤.wav
192,192,336170,1,0,0:0:0:77:≥ε≤.wav
448,192,336273,128,0,337506:0:0:0:77:≥ε≤.wav
320,192,336273,128,0,336376:0:0:0:77:≥ε≤.wav
192,192,336478,1,0,0:0:0:77:≥ε≤.wav
320,192,336581,1,0,0:0:0:77:≥ε≤.wav
64,192,336684,1,0,0:0:0:77:≥ε≤.wav
192,192,336735,1,0,0:0:0:77:≥ε≤.wav
320,192,336787,1,0,0:0:0:77:≥ε≤.wav
192,192,336889,1,0,0:0:0:77:≥ε≤.wav
64,192,336992,1,0,0:0:0:77:≥ε≤.wav
192,192,336992,1,0,0:0:0:77:≥ε≤.wav
320,192,337095,1,0,0:0:0:77:≥ε≤.wav
64,192,337198,1,0,0:0:0:77:≥ε≤.wav
192,192,337300,1,0,0:0:0:77:≥ε≤.wav
320,192,337300,1,0,0:0:0:77:≥ε≤.wav
64,192,337506,1,0,0:0:0:77:≥ε≤.wav
320,192,337506,1,0,0:0:0:77:≥ε≤.wav
192,192,337609,1,0,0:0:0:77:≥ε≤.wav
64,192,337711,1,0,0:0:0:77:≥ε≤.wav
448,192,337711,1,0,0:0:0:77:≥ε≤.wav
320,192,337814,1,0,0:0:0:77:≥ε≤.wav
192,192,337917,1,0,0:0:0:77:≥ε≤.wav
448,192,337917,1,0,0:0:0:77:≥ε≤.wav
64,192,338020,1,0,0:0:0:77:≥ε≤.wav
320,192,338122,1,0,0:0:0:77:≥ε≤.wav
448,192,338122,1,0,0:0:0:77:≥ε≤.wav
192,192,338225,1,0,0:0:0:77:≥ε≤.wav
64,192,338328,1,0,0:0:0:77:≥ε≤.wav
448,192,338328,1,0,0:0:0:77:≥ε≤.wav
320,192,338396,1,0,0:0:0:77:≥ε≤.wav
192,192,338465,1,0,0:0:0:77:≥ε≤.wav
64,192,338533,1,0,0:0:0:77:≥ε≤.wav
320,192,338533,1,0,0:0:0:77:≥ε≤.wav
192,192,338636,1,0,0:0:0:77:≥ε≤.wav
448,192,338636,1,0,0:0:0:77:≥ε≤.wav
64,192,338739,1,0,0:0:0:77:≥ε≤.wav
320,192,338739,1,0,0:0:0:77:≥ε≤.wav
192,192,338841,1,0,0:0:0:77:≥ε≤.wav
448,192,338841,1,0,0:0:0:77:≥ε≤.wav
64,192,338944,1,0,0:0:0:77:≥ε≤.wav
320,192,338944,1,0,0:0:0:77:≥ε≤.wav
192,192,339047,1,0,0:0:0:77:≥ε≤.wav
64,192,339150,1,0,0:0:0:77:≥ε≤.wav
448,192,339150,128,0,339869:0:0:0:77:≥ε≤.wav
64,192,339972,1,0,0:0:0:77:≥ε≤.wav
448,192,339972,128,0,340074:0:0:0:77:≥ε≤.wav
192,192,340074,1,0,0:0:0:77:≥ε≤.wav
320,192,340177,128,0,340280:0:0:0:77:≥ε≤.wav
64,192,340177,1,0,0:0:0:77:≥ε≤.wav
448,192,340280,1,0,0:0:0:77:≥ε≤.wav
64,192,340383,1,0,0:0:0:77:≥ε≤.wav
192,192,340383,128,0,340793:0:0:0:77:≥ε≤.wav
448,192,340485,1,0,0:0:0:77:≥ε≤.wav
64,192,340588,1,0,0:0:0:77:≥ε≤.wav
320,192,340691,1,0,0:0:0:77:≥ε≤.wav
64,192,340793,128,0,342437:0:0:0:77:≥ε≤.wav
448,192,340793,128,0,340896:0:0:0:77:≥ε≤.wav
320,192,340999,1,0,0:0:0:77:≥ε≤.wav
192,192,341102,1,0,0:0:0:77:≥ε≤.wav
448,192,341204,1,0,0:0:0:77:≥ε≤.wav
320,192,341410,1,0,0:0:0:77:≥ε≤.wav
192,192,341513,1,0,0:0:0:77:≥ε≤.wav
448,192,341615,1,0,0:0:0:77:≥ε≤.wav
192,192,341718,1,0,0:0:0:77:≥ε≤.wav
320,192,341821,1,0,0:0:0:77:≥ε≤.wav
192,192,341924,1,0,0:0:0:77:≥ε≤.wav
448,192,342026,1,0,0:0:0:77:≥ε≤.wav
320,192,342129,1,0,0:0:0:77:≥ε≤.wav
192,192,342232,1,0,0:0:0:77:≥ε≤.wav
320,192,342335,1,0,0:0:0:77:≥ε≤.wav
448,192,342437,1,0,0:0:0:77:≥ε≤.wav
192,192,342643,1,0,0:0:0:77:≥ε≤.wav
192,192,342746,1,0,0:0:0:77:≥ε≤.wav
448,192,342848,1,0,0:0:0:77:≥ε≤.wav
320,192,342848,1,0,0:0:0:77:≥ε≤.wav
192,192,342951,1,0,0:0:0:77:≥ε≤.wav
64,192,343054,1,0,0:0:0:77:≥ε≤.wav
192,192,343122,1,0,0:0:0:77:≥ε≤.wav
320,192,343191,1,0,0:0:0:77:≥ε≤.wav
192,192,343259,1,0,0:0:0:77:≥ε≤.wav
448,192,343259,1,0,0:0:0:77:≥ε≤.wav
320,192,343362,1,0,0:0:0:77:≥ε≤.wav
320,192,343465,1,0,0:0:0:77:≥ε≤.wav
320,192,343567,1,0,0:0:0:77:≥ε≤.wav
64,192,343670,1,0,0:0:0:77:≥ε≤.wav
192,192,343670,1,0,0:0:0:77:≥ε≤.wav
448,192,343773,1,0,0:0:0:77:≥ε≤.wav
320,192,343876,1,0,0:0:0:77:≥ε≤.wav
192,192,343978,1,0,0:0:0:77:≥ε≤.wav
64,192,344081,1,0,0:0:0:77:≥ε≤.wav
448,192,344081,1,0,0:0:0:77:≥ε≤.wav
192,192,344287,1,0,0:0:0:77:≥ε≤.wav
320,192,344389,1,0,0:0:0:77:≥ε≤.wav
64,192,344492,1,0,0:0:0:77:≥ε≤.wav
192,192,344492,1,0,0:0:0:77:≥ε≤.wav
448,192,344595,1,0,0:0:0:77:≥ε≤.wav
192,192,344698,1,0,0:0:0:77:≥ε≤.wav
320,192,344800,1,0,0:0:0:77:≥ε≤.wav
64,192,344903,1,0,0:0:0:77:≥ε≤.wav
448,192,344903,1,0,0:0:0:77:≥ε≤.wav
320,192,345006,1,0,0:0:0:77:≥ε≤.wav
192,192,345109,1,0,0:0:0:77:≥ε≤.wav
320,192,345211,1,0,0:0:0:77:≥ε≤.wav
64,192,345314,1,0,0:0:0:77:≥ε≤.wav
448,192,345314,1,0,0:0:0:77:≥ε≤.wav
320,192,345417,1,0,0:0:0:77:≥ε≤.wav
192,192,345520,1,0,0:0:0:77:≥ε≤.wav
448,192,345622,1,0,0:0:0:77:≥ε≤.wav
64,192,345725,1,0,0:0:0:77:≥ε≤.wav
192,192,345725,1,0,0:0:0:77:≥ε≤.wav
320,192,345930,1,0,0:0:0:77:≥ε≤.wav
320,192,346033,1,0,0:0:0:77:≥ε≤.wav
64,192,346136,1,0,0:0:0:77:≥ε≤.wav
192,192,346136,1,0,0:0:0:77:≥ε≤.wav
320,192,346239,1,0,0:0:0:77:≥ε≤.wav
448,192,346341,1,0,0:0:0:77:≥ε≤.wav
320,192,346410,1,0,0:0:0:77:≥ε≤.wav
192,192,346478,1,0,0:0:0:77:≥ε≤.wav
320,192,346547,1,0,0:0:0:77:≥ε≤.wav
64,192,346547,1,0,0:0:0:77:≥ε≤.wav
192,192,346650,1,0,0:0:0:77:≥ε≤.wav
192,192,346752,1,0,0:0:0:77:≥ε≤.wav
192,192,346855,1,0,0:0:0:77:≥ε≤.wav
448,192,346958,1,0,0:0:0:77:≥ε≤.wav
320,192,346958,1,0,0:0:0:77:≥ε≤.wav
64,192,347061,1,0,0:0:0:77:≥ε≤.wav
192,192,347163,1,0,0:0:0:77:≥ε≤.wav
320,192,347266,1,0,0:0:0:77:≥ε≤.wav
448,192,347369,1,0,0:0:0:77:≥ε≤.wav
64,192,347369,1,0,0:0:0:77:≥ε≤.wav
320,192,347574,1,0,0:0:0:77:≥ε≤.wav
192,192,347677,1,0,0:0:0:77:≥ε≤.wav
448,192,347780,1,0,0:0:0:77:≥ε≤.wav
320,192,347780,1,0,0:0:0:77:≥ε≤.wav
64,192,347883,1,0,0:0:0:77:≥ε≤.wav
320,192,347985,1,0,0:0:0:77:≥ε≤.wav
192,192,348088,1,0,0:0:0:77:≥ε≤.wav
448,192,348191,1,0,0:0:0:77:≥ε≤.wav
64,192,348191,1,0,0:0:0:77:≥ε≤.wav
192,192,348293,1,0,0:0:0:77:≥ε≤.wav
320,192,348396,1,0,0:0:0:77:≥ε≤.wav
192,192,348499,1,0,0:0:0:77:≥ε≤.wav
448,192,348602,1,0,0:0:0:77:≥ε≤.wav
64,192,348602,1,0,0:0:0:77:≥ε≤.wav
192,192,348704,1,0,0:0:0:77:≥ε≤.wav
320,192,348807,1,0,0:0:0:77:≥ε≤.wav
64,192,348910,1,0,0:0:0:77:≥ε≤.wav
448,192,349013,1,0,0:0:0:77:≥ε≤.wav
320,192,349013,1,0,0:0:0:77:≥ε≤.wav
192,192,349218,1,0,0:0:0:77:≥ε≤.wav
192,192,349321,1,0,0:0:0:77:≥ε≤.wav
448,192,349424,1,0,0:0:0:77:≥ε≤.wav
320,192,349424,1,0,0:0:0:77:≥ε≤.wav
192,192,349526,1,0,0:0:0:77:≥ε≤.wav
64,192,349629,1,0,0:0:0:77:≥ε≤.wav
192,192,349698,1,0,0:0:0:77:≥ε≤.wav
320,192,349766,1,0,0:0:0:77:≥ε≤.wav
192,192,349835,1,0,0:0:0:77:≥ε≤.wav
448,192,349835,1,0,0:0:0:77:≥ε≤.wav
320,192,349937,1,0,0:0:0:77:≥ε≤.wav
320,192,350040,1,0,0:0:0:77:≥ε≤.wav
320,192,350143,1,0,0:0:0:77:≥ε≤.wav
64,192,350246,1,0,0:0:0:77:≥ε≤.wav
192,192,350246,1,0,0:0:0:77:≥ε≤.wav
448,192,350348,1,0,0:0:0:77:≥ε≤.wav
320,192,350451,1,0,0:0:0:77:≥ε≤.wav
192,192,350554,1,0,0:0:0:77:≥ε≤.wav
64,192,350656,1,0,0:0:0:77:≥ε≤.wav
448,192,350656,1,0,0:0:0:77:≥ε≤.wav
192,192,350862,1,0,0:0:0:77:≥ε≤.wav
320,192,350965,1,0,0:0:0:77:≥ε≤.wav
64,192,351067,1,0,0:0:0:77:≥ε≤.wav
192,192,351067,1,0,0:0:0:77:≥ε≤.wav
448,192,351170,1,0,0:0:0:77:≥ε≤.wav
192,192,351273,1,0,0:0:0:77:≥ε≤.wav
320,192,351376,1,0,0:0:0:77:≥ε≤.wav
64,192,351478,1,0,0:0:0:77:≥ε≤.wav
448,192,351478,1,0,0:0:0:77:≥ε≤.wav
320,192,351581,1,0,0:0:0:77:≥ε≤.wav
192,192,351684,1,0,0:0:0:77:≥ε≤.wav
320,192,351787,1,0,0:0:0:77:≥ε≤.wav
64,192,351889,1,0,0:0:0:77:≥ε≤.wav
448,192,351889,1,0,0:0:0:77:≥ε≤.wav
320,192,351992,1,0,0:0:0:77:≥ε≤.wav
192,192,352095,1,0,0:0:0:77:≥ε≤.wav
448,192,352198,1,0,0:0:0:77:≥ε≤.wav
64,192,352300,1,0,0:0:0:77:≥ε≤.wav
192,192,352300,1,0,0:0:0:77:≥ε≤.wav
320,192,352506,1,0,0:0:0:77:≥ε≤.wav
320,192,352609,1,0,0:0:0:77:≥ε≤.wav
64,192,352711,1,0,0:0:0:77:≥ε≤.wav
192,192,352711,1,0,0:0:0:77:≥ε≤.wav
320,192,352814,1,0,0:0:0:77:≥ε≤.wav
448,192,352917,1,0,0:0:0:77:≥ε≤.wav
320,192,352985,1,0,0:0:0:77:≥ε≤.wav
192,192,353054,1,0,0:0:0:77:≥ε≤.wav
320,192,353122,1,0,0:0:0:77:≥ε≤.wav
64,192,353122,1,0,0:0:0:77:≥ε≤.wav
192,192,353225,1,0,0:0:0:77:≥ε≤.wav
192,192,353328,1,0,0:0:0:77:≥ε≤.wav
192,192,353430,1,0,0:0:0:77:≥ε≤.wav
448,192,353533,1,0,0:0:0:77:≥ε≤.wav
320,192,353533,1,0,0:0:0:77:≥ε≤.wav
64,192,353636,1,0,0:0:0:77:≥ε≤.wav
192,192,353739,1,0,0:0:0:77:≥ε≤.wav
320,192,353841,1,0,0:0:0:77:≥ε≤.wav
448,192,353944,1,0,0:0:0:77:≥ε≤.wav
64,192,353944,1,0,0:0:0:77:≥ε≤.wav
192,192,353944,1,0,0:0:0:77:≥ε≤.wav
320,192,354150,1,0,0:0:0:77:≥ε≤.wav
192,192,354252,1,0,0:0:0:77:≥ε≤.wav
320,192,354355,1,0,0:0:0:77:≥ε≤.wav
448,192,354355,1,0,0:0:0:77:≥ε≤.wav
64,192,354458,1,0,0:0:0:77:≥ε≤.wav
320,192,354561,1,0,0:0:0:77:≥ε≤.wav
192,192,354663,1,0,0:0:0:77:≥ε≤.wav
64,192,354766,1,0,0:0:0:77:≥ε≤.wav
448,192,354766,1,0,0:0:0:77:≥ε≤.wav
192,192,354869,1,0,0:0:0:77:≥ε≤.wav
320,192,354972,1,0,0:0:0:77:≥ε≤.wav
192,192,355074,1,0,0:0:0:77:≥ε≤.wav
64,192,355177,1,0,0:0:0:77:≥ε≤.wav
448,192,355177,1,0,0:0:0:77:≥ε≤.wav
192,192,355280,1,0,0:0:0:77:≥ε≤.wav
320,192,355383,1,0,0:0:0:77:≥ε≤.wav
64,192,355485,1,0,0:0:0:77:≥ε≤.wav
448,192,355588,1,0,0:0:0:77:≥ε≤.wav
320,192,355588,1,0,0:0:0:77:≥ε≤.wav
192,192,355793,1,0,0:0:0:77:≥ε≤.wav
192,192,355896,1,0,0:0:0:77:≥ε≤.wav
320,192,355999,1,0,0:0:0:77:≥ε≤.wav
448,192,355999,1,0,0:0:0:77:≥ε≤.wav
192,192,356102,1,0,0:0:0:77:≥ε≤.wav
64,192,356204,1,0,0:0:0:77:≥ε≤.wav
192,192,356273,1,0,0:0:0:77:≥ε≤.wav
320,192,356341,1,0,0:0:0:77:≥ε≤.wav
192,192,356410,1,0,0:0:0:77:≥ε≤.wav
448,192,356410,1,0,0:0:0:77:≥ε≤.wav
320,192,356513,1,0,0:0:0:77:≥ε≤.wav
320,192,356615,1,0,0:0:0:77:≥ε≤.wav
320,192,356718,1,0,0:0:0:77:≥ε≤.wav
192,192,356821,1,0,0:0:0:77:≥ε≤.wav
64,192,356821,1,0,0:0:0:77:≥ε≤.wav
448,192,356924,1,0,0:0:0:77:≥ε≤.wav
320,192,357026,1,0,0:0:0:77:≥ε≤.wav
192,192,357129,1,0,0:0:0:77:≥ε≤.wav
64,192,357232,1,0,0:0:0:77:≥ε≤.wav
448,192,357232,1,0,0:0:0:77:≥ε≤.wav
192,192,357437,1,0,0:0:0:77:≥ε≤.wav
320,192,357540,1,0,0:0:0:77:≥ε≤.wav
64,192,357643,1,0,0:0:0:77:≥ε≤.wav
192,192,357643,1,0,0:0:0:77:≥ε≤.wav
448,192,357746,1,0,0:0:0:77:≥ε≤.wav
192,192,357848,1,0,0:0:0:77:≥ε≤.wav
320,192,357951,1,0,0:0:0:77:≥ε≤.wav
448,192,358054,1,0,0:0:0:77:≥ε≤.wav
64,192,358054,1,0,0:0:0:77:≥ε≤.wav
320,192,358156,1,0,0:0:0:77:≥ε≤.wav
192,192,358259,1,0,0:0:0:77:≥ε≤.wav
320,192,358362,1,0,0:0:0:77:≥ε≤.wav
448,192,358465,1,0,0:0:0:77:≥ε≤.wav
64,192,358465,1,0,0:0:0:77:≥ε≤.wav
320,192,358567,1,0,0:0:0:77:≥ε≤.wav
192,192,358670,1,0,0:0:0:77:≥ε≤.wav
448,192,358773,1,0,0:0:0:77:≥ε≤.wav
64,192,358876,1,0,0:0:0:77:≥ε≤.wav
192,192,358876,1,0,0:0:0:77:≥ε≤.wav
320,192,359081,1,0,0:0:0:77:≥ε≤.wav
320,192,359184,1,0,0:0:0:77:≥ε≤.wav
64,192,359287,1,0,0:0:0:77:≥ε≤.wav
192,192,359287,1,0,0:0:0:77:≥ε≤.wav
320,192,359389,1,0,0:0:0:77:≥ε≤.wav
448,192,359492,1,0,0:0:0:77:≥ε≤.wav
320,192,359561,1,0,0:0:0:77:≥ε≤.wav
192,192,359629,1,0,0:0:0:77:≥ε≤.wav
64,192,359698,1,0,0:0:0:77:≥ε≤.wav
320,192,359698,1,0,0:0:0:77:≥ε≤.wav
192,192,359800,1,0,0:0:0:77:≥ε≤.wav
192,192,359903,1,0,0:0:0:77:≥ε≤.wav
192,192,360006,1,0,0:0:0:77:≥ε≤.wav
448,192,360109,1,0,0:0:0:77:≥ε≤.wav
320,192,360109,1,0,0:0:0:77:≥ε≤.wav
64,192,360211,1,0,0:0:0:77:≥ε≤.wav
192,192,360314,1,0,0:0:0:77:≥ε≤.wav
320,192,360417,1,0,0:0:0:77:≥ε≤.wav
64,192,360520,1,0,0:0:0:77:≥ε≤.wav
448,192,360520,1,0,0:0:0:77:≥ε≤.wav
320,192,360725,1,0,0:0:0:77:≥ε≤.wav
192,192,360828,1,0,0:0:0:77:≥ε≤.wav
320,192,360930,1,0,0:0:0:77:≥ε≤.wav
448,192,360930,1,0,0:0:0:77:≥ε≤.wav
64,192,361033,1,0,0:0:0:77:≥ε≤.wav
320,192,361136,1,0,0:0:0:77:≥ε≤.wav
192,192,361239,1,0,0:0:0:77:≥ε≤.wav
64,192,361341,1,0,0:0:0:77:≥ε≤.wav
448,192,361341,1,0,0:0:0:77:≥ε≤.wav
192,192,361444,1,0,0:0:0:77:≥ε≤.wav
320,192,361547,1,0,0:0:0:77:≥ε≤.wav
192,192,361650,1,0,0:0:0:77:≥ε≤.wav
64,192,361752,1,0,0:0:0:77:≥ε≤.wav
448,192,361752,1,0,0:0:0:77:≥ε≤.wav
192,192,361855,1,0,0:0:0:77:≥ε≤.wav
320,192,361958,1,0,0:0:0:77:≥ε≤.wav
64,192,362061,1,0,0:0:0:77:≥ε≤.wav
320,192,362163,1,0,0:0:0:77:≥ε≤.wav
448,192,362163,1,0,0:0:0:77:≥ε≤.wav
192,192,362369,1,0,0:0:0:77:≥ε≤.wav
192,192,362472,1,0,0:0:0:77:≥ε≤.wav
320,192,362574,1,0,0:0:0:77:≥ε≤.wav
448,192,362574,1,0,0:0:0:77:≥ε≤.wav
192,192,362677,1,0,0:0:0:77:≥ε≤.wav
64,192,362780,1,0,0:0:0:77:≥ε≤.wav
192,192,362848,1,0,0:0:0:77:≥ε≤.wav
320,192,362917,1,0,0:0:0:77:≥ε≤.wav
192,192,362985,1,0,0:0:0:77:≥ε≤.wav
448,192,362985,1,0,0:0:0:77:≥ε≤.wav
320,192,363088,1,0,0:0:0:77:≥ε≤.wav
320,192,363191,1,0,0:0:0:77:≥ε≤.wav
320,192,363293,1,0,0:0:0:77:≥ε≤.wav
64,192,363396,1,0,0:0:0:77:≥ε≤.wav
192,192,363396,1,0,0:0:0:77:≥ε≤.wav
448,192,363499,1,0,0:0:0:77:≥ε≤.wav
320,192,363602,1,0,0:0:0:77:≥ε≤.wav
192,192,363704,1,0,0:0:0:77:≥ε≤.wav
64,192,363807,1,0,0:0:0:77:≥ε≤.wav
448,192,363807,1,0,0:0:0:77:≥ε≤.wav
192,192,364013,1,0,0:0:0:77:≥ε≤.wav
320,192,364115,1,0,0:0:0:77:≥ε≤.wav
64,192,364218,1,0,0:0:0:77:≥ε≤.wav
192,192,364218,1,0,0:0:0:77:≥ε≤.wav
448,192,364321,1,0,0:0:0:77:≥ε≤.wav
192,192,364424,1,0,0:0:0:77:≥ε≤.wav
320,192,364526,1,0,0:0:0:77:≥ε≤.wav
448,192,364629,1,0,0:0:0:77:≥ε≤.wav
64,192,364629,1,0,0:0:0:77:≥ε≤.wav
320,192,364732,1,0,0:0:0:77:≥ε≤.wav
192,192,364835,1,0,0:0:0:77:≥ε≤.wav
320,192,364937,1,0,0:0:0:77:≥ε≤.wav
448,192,365040,1,0,0:0:0:77:≥ε≤.wav
64,192,365040,1,0,0:0:0:77:≥ε≤.wav
320,192,365143,1,0,0:0:0:77:≥ε≤.wav
192,192,365246,1,0,0:0:0:77:≥ε≤.wav
448,192,365348,1,0,0:0:0:77:≥ε≤.wav
64,192,365451,1,0,0:0:0:77:≥ε≤.wav
192,192,365451,1,0,0:0:0:77:≥ε≤.wav
448,192,365451,1,0,0:0:0:77:≥ε≤.wav
320,192,365656,1,0,0:0:0:77:≥ε≤.wav
320,192,365759,1,0,0:0:0:77:≥ε≤.wav
192,192,365759,1,0,0:0:0:77:≥ε≤.wav
64,192,365862,1,0,0:0:0:77:≥ε≤.wav
448,192,365862,1,0,0:0:0:77:≥ε≤.wav
192,192,365965,1,0,0:0:0:77:≥ε≤.wav
448,192,366067,1,0,0:0:0:77:≥ε≤.wav
192,192,366067,1,0,0:0:0:77:≥ε≤.wav
320,192,366170,1,0,0:0:0:77:≥ε≤.wav
64,192,366273,1,0,0:0:0:77:≥ε≤.wav
448,192,366376,1,0,0:0:0:77:≥ε≤.wav
192,192,366376,1,0,0:0:0:77:≥ε≤.wav
320,192,366478,1,0,0:0:0:77:≥ε≤.wav
192,192,366581,1,0,0:0:0:77:≥ε≤.wav
64,192,366684,1,0,0:0:0:77:≥ε≤.wav
448,192,366684,1,0,0:0:0:77:≥ε≤.wav
320,192,366787,1,0,0:0:0:77:≥ε≤.wav
192,192,366889,1,0,0:0:0:77:≥ε≤.wav
320,192,366992,1,0,0:0:0:77:≥ε≤.wav
64,192,367095,128,0,367232:0:0:0:77:≥ε≤.wav
448,192,367095,128,0,367163:0:0:0:77:≥ε≤.wav
192,192,367095,1,0,0:0:0:77:≥ε≤.wav
320,192,367300,1,0,0:0:0:77:≥ε≤.wav
192,192,367403,1,0,0:0:0:77:≥ε≤.wav
64,192,367506,1,0,0:0:0:77:≥ε≤.wav
448,192,367506,1,0,0:0:0:77:≥ε≤.wav
320,192,367609,1,0,0:0:0:77:≥ε≤.wav
192,192,367711,1,0,0:0:0:77:≥ε≤.wav
320,192,367814,1,0,0:0:0:77:≥ε≤.wav
448,192,367917,1,0,0:0:0:77:≥ε≤.wav
64,192,367917,1,0,0:0:0:77:≥ε≤.wav
192,192,368020,1,0,0:0:0:77:≥ε≤.wav
64,192,368122,1,0,0:0:0:77:≥ε≤.wav
192,192,368225,1,0,0:0:0:77:≥ε≤.wav
64,192,368328,1,0,0:0:0:77:≥ε≤.wav
448,192,368328,1,0,0:0:0:77:≥ε≤.wav
320,192,368430,1,0,0:0:0:77:≥ε≤.wav
192,192,368533,1,0,0:0:0:77:≥ε≤.wav
320,192,368636,1,0,0:0:0:77:≥ε≤.wav
64,192,368739,1,0,0:0:0:77:≥ε≤.wav
448,192,368739,1,0,0:0:0:77:≥ε≤.wav
192,192,368944,1,0,0:0:0:77:≥ε≤.wav
320,192,369047,1,0,0:0:0:77:≥ε≤.wav
64,192,369150,1,0,0:0:0:77:≥ε≤.wav
448,192,369150,1,0,0:0:0:77:≥ε≤.wav
192,192,369252,1,0,0:0:0:77:≥ε≤.wav
320,192,369355,1,0,0:0:0:77:≥ε≤.wav
192,192,369458,1,0,0:0:0:77:≥ε≤.wav
64,192,369561,1,0,0:0:0:77:≥ε≤.wav
448,192,369561,1,0,0:0:0:77:≥ε≤.wav
320,192,369663,1,0,0:0:0:77:≥ε≤.wav
448,192,369766,1,0,0:0:0:77:≥ε≤.wav
320,192,369869,1,0,0:0:0:77:≥ε≤.wav
64,192,369972,1,0,0:0:0:77:≥ε≤.wav
448,192,369972,1,0,0:0:0:77:≥ε≤.wav
192,192,370074,1,0,0:0:0:77:≥ε≤.wav
320,192,370177,1,0,0:0:0:77:≥ε≤.wav
192,192,370280,1,0,0:0:0:77:≥ε≤.wav
64,192,370383,1,0,0:0:0:77:≥ε≤.wav
320,192,370588,1,0,0:0:0:77:≥ε≤.wav
192,192,370691,1,0,0:0:0:77:≥ε≤.wav
64,192,370793,1,0,0:0:0:77:≥ε≤.wav
320,192,370896,1,0,0:0:0:77:≥ε≤.wav
192,192,370999,1,0,0:0:0:77:≥ε≤.wav
320,192,371102,1,0,0:0:0:77:≥ε≤.wav
448,192,371204,1,0,0:0:0:77:≥ε≤.wav
192,192,371307,1,0,0:0:0:77:≥ε≤.wav
320,192,371410,1,0,0:0:0:77:≥ε≤.wav
192,192,371513,1,0,0:0:0:77:≥ε≤.wav
448,192,371615,1,0,0:0:0:77:≥ε≤.wav
320,192,371718,1,0,0:0:0:77:≥ε≤.wav
192,192,371821,1,0,0:0:0:77:≥ε≤.wav
64,192,371924,1,0,0:0:0:77:≥ε≤.wav
448,192,372026,1,0,0:0:0:77:≥ε≤.wav
192,192,372232,1,0,0:0:0:77:≥ε≤.wav
320,192,372335,1,0,0:0:0:77:≥ε≤.wav
448,192,372437,1,0,0:0:0:77:≥ε≤.wav
192,192,372540,1,0,0:0:0:77:≥ε≤.wav
320,192,372643,1,0,0:0:0:77:≥ε≤.wav
192,192,372746,1,0,0:0:0:77:≥ε≤.wav
64,192,372848,1,0,0:0:0:77:≥ε≤.wav
320,192,372951,1,0,0:0:0:77:≥ε≤.wav
192,192,373054,1,0,0:0:0:77:≥ε≤.wav
320,192,373156,1,0,0:0:0:77:≥ε≤.wav
64,192,373259,1,0,0:0:0:77:≥ε≤.wav
192,192,373362,1,0,0:0:0:77:≥ε≤.wav
320,192,373465,1,0,0:0:0:77:≥ε≤.wav
448,192,373567,1,0,0:0:0:77:≥ε≤.wav
64,192,373670,1,0,0:0:0:77:≥ε≤.wav
320,192,373876,1,0,0:0:0:77:≥ε≤.wav
192,192,373978,1,0,0:0:0:77:≥ε≤.wav
448,192,374081,1,0,0:0:0:77:≥ε≤.wav
192,192,374184,1,0,0:0:0:77:≥ε≤.wav
320,192,374287,1,0,0:0:0:77:≥ε≤.wav
192,192,374389,1,0,0:0:0:77:≥ε≤.wav
448,192,374492,1,0,0:0:0:77:≥ε≤.wav
320,192,374595,1,0,0:0:0:77:≥ε≤.wav
192,192,374698,1,0,0:0:0:77:≥ε≤.wav
320,192,374800,1,0,0:0:0:77:≥ε≤.wav
448,192,374903,1,0,0:0:0:77:≥ε≤.wav
192,192,375006,1,0,0:0:0:77:≥ε≤.wav
320,192,375109,1,0,0:0:0:77:≥ε≤.wav
192,192,375211,1,0,0:0:0:77:≥ε≤.wav
448,192,375314,1,0,0:0:0:77:≥ε≤.wav
192,192,375520,1,0,0:0:0:77:≥ε≤.wav
320,192,375622,1,0,0:0:0:77:≥ε≤.wav
64,192,375725,1,0,0:0:0:77:≥ε≤.wav
320,192,375828,1,0,0:0:0:77:≥ε≤.wav
192,192,375930,1,0,0:0:0:77:≥ε≤.wav
320,192,376033,1,0,0:0:0:77:≥ε≤.wav
64,192,376136,1,0,0:0:0:77:≥ε≤.wav
192,192,376239,1,0,0:0:0:77:≥ε≤.wav
320,192,376341,1,0,0:0:0:77:≥ε≤.wav
192,192,376444,1,0,0:0:0:77:≥ε≤.wav
64,192,376547,1,0,0:0:0:77:≥ε≤.wav
320,192,376650,1,0,0:0:0:77:≥ε≤.wav
192,192,376752,1,0,0:0:0:77:≥ε≤.wav
320,192,376855,1,0,0:0:0:77:≥ε≤.wav
64,192,376958,1,0,0:0:0:77:≥ε≤.wav
448,192,377266,1,0,0:0:0:77:≥ε≤.wav
64,192,377369,1,0,0:0:0:77:≥ε≤.wav
64,192,377780,1,0,0:0:0:77:≥ε≤.wav
320,192,378088,1,0,0:0:0:77:≥ε≤.wav
64,192,378191,1,0,0:0:0:77:≥ε≤.wav
64,192,378602,1,0,0:0:0:77:≥ε≤.wav
192,192,378910,1,0,0:0:0:77:≥ε≤.wav
64,192,379013,1,0,0:0:0:77:≥ε≤.wav
64,192,379424,1,0,0:0:0:77:≥ε≤.wav
64,192,379835,1,0,0:0:0:77:≥ε≤.wav
