osu file format v12

[General]
AudioFilename: Insane Techniques.mp3
AudioLeadIn: 0
PreviewTime: 95902
Countdown: 0
SampleSet: Soft
StackLeniency: 0.7
Mode: 3
LetterboxInBreaks: 0
SpecialStyle: 0
WidescreenStoryboard: 1

[Editor]
DistanceSpacing: 1
BeatDivisor: 4
GridSize: 4
TimelineZoom: 1.3

[Metadata]
Title:Insane Techniques
TitleUnicode:Insane Techniques
Artist:kors k
ArtistUnicode:kors k
Creator:Aposke
Version:8K Normal
Source:Beatmania IIDX 21 SPADA
Tags:bemani konami SPADA Electronic
BeatmapID:418807
BeatmapSetID:173328

[Difficulty]
HPDrainRate:8
CircleSize:8
OverallDifficulty:7
ApproachRate:5
SliderMultiplier:1.4
SliderTickRate:1

[Events]
//Background and Video events
Video,-1120,"bga.avi"
0,0,"bg3.png",0,0
//Break Periods
//Storyboard Layer 0 (Background)
//Storyboard Layer 1 (Fail)
//Storyboard Layer 2 (Pass)
//Storyboard Layer 3 (Foreground)
//Storyboard Sound Samples
//Background Colour Transformations
3,100,163,162,255

[TimingPoints]
560,410.958904109589,4,2,1,30,1,0
95902,-100,4,2,1,30,0,1
108231,-100,4,2,1,30,0,0
109053,-100,4,2,1,30,0,1
118916,-100,4,2,1,30,0,0

[HitObjects]
96,192,560,5,0,0:0:0:0:
224,192,765,1,0,0:0:0:0:
352,192,970,1,0,0:0:0:0:
96,192,1176,1,0,0:0:0:0:
224,192,1381,1,0,0:0:0:0:
96,192,1587,1,0,0:0:0:0:
224,192,1792,1,0,0:0:0:0:
352,192,1998,1,0,0:0:0:0:
96,192,2203,1,0,0:0:0:0:
224,192,2408,1,0,0:0:0:0:
352,192,2613,1,0,0:0:0:0:
96,192,2819,1,0,0:0:0:0:
224,192,3024,1,0,0:0:0:0:
96,192,3230,1,0,0:0:0:0:
224,192,3435,1,0,0:0:0:0:
352,192,3641,1,0,0:0:0:0:
96,192,3847,1,0,0:0:0:0:
224,192,4052,1,0,0:0:0:0:
352,192,4257,1,0,0:0:0:0:
96,192,4463,1,0,0:0:0:0:
224,192,4668,1,0,0:0:0:0:
96,192,4874,1,0,0:0:0:0:
224,192,5079,1,0,0:0:0:0:
352,192,5285,1,0,0:0:0:0:
96,192,5491,1,0,0:0:0:0:
224,192,5696,1,0,0:0:0:0:
352,192,5901,1,0,0:0:0:0:
96,192,6107,1,0,0:0:0:0:
224,192,6312,1,0,0:0:0:0:
96,192,6518,1,0,0:0:0:0:
224,192,6723,1,0,0:0:0:0:
352,192,6929,1,0,0:0:0:0:
96,192,7135,1,0,0:0:0:0:
224,192,7340,1,0,0:0:0:0:
352,192,7545,1,0,0:0:0:0:
96,192,7751,1,0,0:0:0:0:
224,192,7956,1,0,0:0:0:0:
96,192,8162,1,0,0:0:0:0:
224,192,8367,1,0,0:0:0:0:
352,192,8573,1,0,0:0:0:0:
96,192,8779,1,0,0:0:0:0:
416,192,8779,128,0,10423:0:0:0:0:
224,192,8984,1,0,0:0:0:0:
352,192,9189,1,0,0:0:0:0:
96,192,9395,1,0,0:0:0:0:
224,192,9600,1,0,0:0:0:0:
96,192,9806,1,0,0:0:0:0:
224,192,10011,1,0,0:0:0:0:
352,192,10217,1,0,0:0:0:0:
96,192,10423,1,0,0:0:0:0:
480,192,10423,128,0,12888:0:0:0:0:
224,192,10628,1,0,0:0:0:0:
352,192,10833,1,0,0:0:0:0:
96,192,11039,1,0,0:0:0:0:
224,192,11244,1,0,0:0:0:0:
96,192,11450,1,0,0:0:0:0:
224,192,11655,1,0,0:0:0:0:
352,192,11861,1,0,0:0:0:0:
224,192,12888,1,0,0:0:0:0:
352,192,12888,1,0,0:0:0:0:
224,192,13299,1,0,0:0:0:0:
352,192,13299,1,0,0:0:0:0:
160,192,13505,1,0,0:0:0:0:
288,192,13505,1,0,0:0:0:0:
32,192,13710,1,0,0:0:0:0:
96,192,13710,1,0,0:0:0:0:
224,192,13710,1,0,0:0:0:0:
480,192,13916,1,0,0:0:0:0:
96,192,14121,1,0,0:0:0:0:
224,192,14121,1,0,0:0:0:0:
480,192,14327,1,0,0:0:0:0:
96,192,14532,1,0,0:0:0:0:
224,192,14532,1,0,0:0:0:0:
480,192,14738,1,0,0:0:0:0:
96,192,14943,1,0,0:0:0:0:
224,192,14943,1,0,0:0:0:0:
416,192,15149,1,0,0:0:0:0:
224,192,15354,1,0,0:0:0:0:
32,192,15354,1,0,0:0:0:0:
96,192,15354,1,0,0:0:0:0:
480,192,15560,1,0,0:0:0:0:
224,192,15765,1,0,0:0:0:0:
96,192,15765,1,0,0:0:0:0:
480,192,15971,1,0,0:0:0:0:
224,192,16176,1,0,0:0:0:0:
96,192,16176,1,0,0:0:0:0:
480,192,16382,1,0,0:0:0:0:
96,192,16587,1,0,0:0:0:0:
224,192,16587,1,0,0:0:0:0:
416,192,16793,1,0,0:0:0:0:
96,192,16998,1,0,0:0:0:0:
32,192,16998,1,0,0:0:0:0:
224,192,16998,1,0,0:0:0:0:
480,192,17204,1,0,0:0:0:0:
96,192,17409,1,0,0:0:0:0:
224,192,17409,1,0,0:0:0:0:
480,192,17615,1,0,0:0:0:0:
96,192,17820,1,0,0:0:0:0:
224,192,17820,1,0,0:0:0:0:
480,192,18026,1,0,0:0:0:0:
224,192,18231,1,0,0:0:0:0:
96,192,18231,1,0,0:0:0:0:
416,192,18437,1,0,0:0:0:0:
224,192,18642,1,0,0:0:0:0:
32,192,18642,1,0,0:0:0:0:
96,192,18642,1,0,0:0:0:0:
480,192,18848,1,0,0:0:0:0:
224,192,19053,1,0,0:0:0:0:
96,192,19053,1,0,0:0:0:0:
480,192,19258,128,0,19669:0:0:0:0:
224,192,19464,1,0,0:0:0:0:
96,192,19464,1,0,0:0:0:0:
96,192,19875,1,0,0:0:0:0:
224,192,19875,1,0,0:0:0:0:
416,192,20081,1,0,0:0:0:0:
96,192,20286,1,0,0:0:0:0:
288,192,20491,1,0,0:0:0:0:
480,192,20696,1,0,0:0:0:0:
416,192,20902,1,0,0:0:0:0:
160,192,21107,1,0,0:0:0:0:
224,192,21210,1,0,0:0:0:0:
352,192,21313,1,0,0:0:0:0:
416,192,21416,1,0,0:0:0:0:
224,192,21518,1,0,0:0:0:0:
288,192,21621,1,0,0:0:0:0:
416,192,21724,1,0,0:0:0:0:
480,192,21827,1,0,0:0:0:0:
32,192,21929,1,0,0:0:0:0:
96,192,21929,1,0,0:0:0:0:
224,192,21929,1,0,0:0:0:0:
480,192,22135,1,0,0:0:0:0:
96,192,22340,1,0,0:0:0:0:
224,192,22340,1,0,0:0:0:0:
352,192,22546,1,0,0:0:0:0:
416,192,22649,1,0,0:0:0:0:
96,192,22649,1,0,0:0:0:0:
224,192,22649,1,0,0:0:0:0:
352,192,22751,1,0,0:0:0:0:
416,192,22854,1,0,0:0:0:0:
96,192,22854,1,0,0:0:0:0:
224,192,22854,1,0,0:0:0:0:
352,192,22957,1,0,0:0:0:0:
416,192,23059,1,0,0:0:0:0:
96,192,23059,1,0,0:0:0:0:
224,192,23059,1,0,0:0:0:0:
288,192,23162,1,0,0:0:0:0:
96,192,23368,1,0,0:0:0:0:
32,192,23573,1,0,0:0:0:0:
480,192,23573,128,0,23881:0:0:0:0:
480,192,23984,1,0,0:0:0:0:
480,192,24087,1,0,0:0:0:0:
480,192,24190,1,0,0:0:0:0:
480,192,24395,1,0,0:0:0:0:
352,192,24395,1,0,0:0:0:0:
224,192,24395,1,0,0:0:0:0:
96,192,24395,1,0,0:0:0:0:
32,192,24395,1,0,0:0:0:0:
160,192,24806,1,0,0:0:0:0:
288,192,24806,1,0,0:0:0:0:
416,192,24806,1,0,0:0:0:0:
32,192,24806,1,0,0:0:0:0:
288,192,25012,128,0,25217:0:0:0:0:
32,192,25833,1,0,0:0:0:0:
32,192,26142,1,0,0:0:0:0:
32,192,26347,1,0,0:0:0:0:
32,192,26655,1,0,0:0:0:0:
416,192,26861,1,0,0:0:0:0:
288,192,27066,1,0,0:0:0:0:
96,192,27272,1,0,0:0:0:0:
160,192,27272,1,0,0:0:0:0:
96,192,27683,1,0,0:0:0:0:
160,192,27683,1,0,0:0:0:0:
96,192,28094,1,0,0:0:0:0:
160,192,28094,1,0,0:0:0:0:
96,192,28505,1,0,0:0:0:0:
224,192,28505,1,0,0:0:0:0:
416,192,28505,1,0,0:0:0:0:
288,192,28710,1,0,0:0:0:0:
96,192,28916,1,0,0:0:0:0:
160,192,28916,1,0,0:0:0:0:
96,192,29327,1,0,0:0:0:0:
160,192,29327,1,0,0:0:0:0:
224,192,29532,1,0,0:0:0:0:
96,192,29738,1,0,0:0:0:0:
160,192,29738,1,0,0:0:0:0:
96,192,30149,1,0,0:0:0:0:
416,192,30149,1,0,0:0:0:0:
160,192,30149,1,0,0:0:0:0:
288,192,30354,1,0,0:0:0:0:
96,192,30560,1,0,0:0:0:0:
160,192,30560,1,0,0:0:0:0:
160,192,30971,1,0,0:0:0:0:
96,192,30971,1,0,0:0:0:0:
96,192,31382,1,0,0:0:0:0:
160,192,31382,1,0,0:0:0:0:
416,192,31792,1,0,0:0:0:0:
96,192,31792,1,0,0:0:0:0:
224,192,31792,1,0,0:0:0:0:
288,192,31997,1,0,0:0:0:0:
160,192,32203,1,0,0:0:0:0:
96,192,32203,1,0,0:0:0:0:
96,192,32614,1,0,0:0:0:0:
160,192,32614,1,0,0:0:0:0:
288,192,32820,1,0,0:0:0:0:
160,192,33025,1,0,0:0:0:0:
96,192,33025,1,0,0:0:0:0:
96,192,33436,1,0,0:0:0:0:
416,192,33436,1,0,0:0:0:0:
160,192,33436,1,0,0:0:0:0:
288,192,33641,1,0,0:0:0:0:
96,192,33847,1,0,0:0:0:0:
160,192,33847,1,0,0:0:0:0:
160,192,34258,1,0,0:0:0:0:
96,192,34258,1,0,0:0:0:0:
96,192,34669,1,0,0:0:0:0:
160,192,34669,1,0,0:0:0:0:
416,192,35080,1,0,0:0:0:0:
96,192,35080,1,0,0:0:0:0:
224,192,35080,1,0,0:0:0:0:
288,192,35285,1,0,0:0:0:0:
160,192,35491,1,0,0:0:0:0:
96,192,35491,1,0,0:0:0:0:
96,192,35902,1,0,0:0:0:0:
160,192,35902,1,0,0:0:0:0:
224,192,36107,1,0,0:0:0:0:
160,192,36313,1,0,0:0:0:0:
96,192,36313,1,0,0:0:0:0:
32,192,36313,128,0,36724:0:0:0:0:
96,192,36724,1,0,0:0:0:0:
288,192,36724,1,0,0:0:0:0:
160,192,37032,1,0,0:0:0:0:
352,192,37032,1,0,0:0:0:0:
224,192,37340,1,0,0:0:0:0:
416,192,37340,1,0,0:0:0:0:
288,192,37649,1,0,0:0:0:0:
480,192,37649,1,0,0:0:0:0:
352,192,37957,1,0,0:0:0:0:
416,192,38162,1,0,0:0:0:0:
96,192,38368,128,0,40012:0:0:0:0:
224,192,38368,1,0,0:0:0:0:
352,192,38368,1,0,0:0:0:0:
224,192,38779,1,0,0:0:0:0:
352,192,38779,1,0,0:0:0:0:
480,192,40012,1,0,0:0:0:0:
352,192,40012,1,0,0:0:0:0:
480,192,40217,1,0,0:0:0:0:
352,192,40217,1,0,0:0:0:0:
480,192,40320,1,0,0:0:0:0:
352,192,40320,1,0,0:0:0:0:
480,192,40423,1,0,0:0:0:0:
352,192,40423,1,0,0:0:0:0:
480,192,40731,1,0,0:0:0:0:
352,192,40731,1,0,0:0:0:0:
480,192,40936,1,0,0:0:0:0:
352,192,40936,1,0,0:0:0:0:
288,192,41142,1,0,0:0:0:0:
416,192,41142,1,0,0:0:0:0:
352,192,41244,1,0,0:0:0:0:
480,192,41244,1,0,0:0:0:0:
352,192,41655,1,0,0:0:0:0:
480,192,41655,1,0,0:0:0:0:
352,192,41861,1,0,0:0:0:0:
480,192,41861,1,0,0:0:0:0:
224,192,42066,1,0,0:0:0:0:
96,192,42272,1,0,0:0:0:0:
160,192,42375,1,0,0:0:0:0:
352,192,42580,1,0,0:0:0:0:
416,192,42683,1,0,0:0:0:0:
480,192,42888,1,0,0:0:0:0:
480,192,43094,1,0,0:0:0:0:
224,192,43299,1,0,0:0:0:0:
352,192,43299,1,0,0:0:0:0:
96,192,43505,1,0,0:0:0:0:
224,192,43710,1,0,0:0:0:0:
352,192,43710,1,0,0:0:0:0:
96,192,43916,1,0,0:0:0:0:
224,192,44121,1,0,0:0:0:0:
352,192,44121,1,0,0:0:0:0:
96,192,44327,1,0,0:0:0:0:
224,192,44532,1,0,0:0:0:0:
352,192,44532,1,0,0:0:0:0:
480,192,44738,1,0,0:0:0:0:
160,192,44943,1,0,0:0:0:0:
288,192,44943,1,0,0:0:0:0:
224,192,45149,1,0,0:0:0:0:
160,192,45354,1,0,0:0:0:0:
288,192,45354,1,0,0:0:0:0:
224,192,45559,1,0,0:0:0:0:
288,192,45765,1,0,0:0:0:0:
352,192,45970,1,0,0:0:0:0:
416,192,46176,1,0,0:0:0:0:
480,192,46381,1,0,0:0:0:0:
224,192,46587,1,0,0:0:0:0:
32,192,46587,1,0,0:0:0:0:
352,192,46587,1,0,0:0:0:0:
96,192,46792,1,0,0:0:0:0:
224,192,46998,1,0,0:0:0:0:
352,192,46998,1,0,0:0:0:0:
96,192,47203,1,0,0:0:0:0:
224,192,47409,1,0,0:0:0:0:
352,192,47409,1,0,0:0:0:0:
32,192,47614,1,0,0:0:0:0:
160,192,47614,1,0,0:0:0:0:
96,192,47717,1,0,0:0:0:0:
288,192,48231,1,0,0:0:0:0:
160,192,48436,1,0,0:0:0:0:
288,192,48642,1,0,0:0:0:0:
160,192,48847,1,0,0:0:0:0:
352,192,49053,1,0,0:0:0:0:
160,192,49258,1,0,0:0:0:0:
352,192,49464,1,0,0:0:0:0:
160,192,49669,1,0,0:0:0:0:
32,192,49875,1,0,0:0:0:0:
288,192,49875,128,0,53162:0:0:0:0:
160,192,51518,128,0,53162:0:0:0:0:
416,192,51518,128,0,53162:0:0:0:0:
32,192,53162,1,0,0:0:0:0:
480,192,53162,1,0,0:0:0:0:
288,192,53368,1,0,0:0:0:0:
480,192,53779,1,0,0:0:0:0:
288,192,53984,1,0,0:0:0:0:
480,192,54395,1,0,0:0:0:0:
224,192,54601,1,0,0:0:0:0:
416,192,55012,1,0,0:0:0:0:
224,192,55217,1,0,0:0:0:0:
416,192,55628,1,0,0:0:0:0:
224,192,55833,1,0,0:0:0:0:
416,192,56244,1,0,0:0:0:0:
160,192,56450,1,0,0:0:0:0:
416,192,56861,1,0,0:0:0:0:
160,192,57066,1,0,0:0:0:0:
416,192,57477,1,0,0:0:0:0:
160,192,57683,1,0,0:0:0:0:
416,192,58094,1,0,0:0:0:0:
96,192,58299,1,0,0:0:0:0:
416,192,58710,1,0,0:0:0:0:
96,192,58916,1,0,0:0:0:0:
160,192,59121,1,0,0:0:0:0:
480,192,59327,1,0,0:0:0:0:
288,192,59532,1,0,0:0:0:0:
480,192,59738,1,0,0:0:0:0:
288,192,59943,1,0,0:0:0:0:
480,192,60354,1,0,0:0:0:0:
288,192,60559,1,0,0:0:0:0:
480,192,60970,1,0,0:0:0:0:
224,192,61176,1,0,0:0:0:0:
416,192,61587,1,0,0:0:0:0:
224,192,61792,1,0,0:0:0:0:
416,192,62203,1,0,0:0:0:0:
224,192,62408,1,0,0:0:0:0:
416,192,62819,1,0,0:0:0:0:
160,192,63025,1,0,0:0:0:0:
416,192,63436,1,0,0:0:0:0:
160,192,63641,1,0,0:0:0:0:
416,192,64052,1,0,0:0:0:0:
160,192,64258,1,0,0:0:0:0:
416,192,64669,1,0,0:0:0:0:
96,192,64874,1,0,0:0:0:0:
416,192,65285,1,0,0:0:0:0:
96,192,65491,1,0,0:0:0:0:
160,192,65696,1,0,0:0:0:0:
480,192,65902,1,0,0:0:0:0:
288,192,66107,1,0,0:0:0:0:
480,192,66313,1,0,0:0:0:0:
32,192,66313,1,0,0:0:0:0:
288,192,66518,1,0,0:0:0:0:
480,192,66929,1,0,0:0:0:0:
288,192,67135,1,0,0:0:0:0:
480,192,67545,1,0,0:0:0:0:
224,192,67751,1,0,0:0:0:0:
416,192,68162,1,0,0:0:0:0:
224,192,68367,1,0,0:0:0:0:
416,192,68778,1,0,0:0:0:0:
224,192,68983,1,0,0:0:0:0:
416,192,69394,1,0,0:0:0:0:
160,192,69600,1,0,0:0:0:0:
416,192,70011,1,0,0:0:0:0:
160,192,70216,1,0,0:0:0:0:
416,192,70627,1,0,0:0:0:0:
160,192,70833,1,0,0:0:0:0:
416,192,71244,1,0,0:0:0:0:
96,192,71449,1,0,0:0:0:0:
416,192,71860,1,0,0:0:0:0:
96,192,72066,1,0,0:0:0:0:
160,192,72271,1,0,0:0:0:0:
480,192,72477,1,0,0:0:0:0:
288,192,72682,1,0,0:0:0:0:
32,192,72888,1,0,0:0:0:0:
480,192,72888,1,0,0:0:0:0:
288,192,73094,1,0,0:0:0:0:
480,192,73505,1,0,0:0:0:0:
288,192,73710,1,0,0:0:0:0:
480,192,74121,1,0,0:0:0:0:
224,192,74327,1,0,0:0:0:0:
416,192,74738,1,0,0:0:0:0:
224,192,74943,1,0,0:0:0:0:
416,192,75354,1,0,0:0:0:0:
224,192,75559,1,0,0:0:0:0:
416,192,75970,1,0,0:0:0:0:
160,192,76176,1,0,0:0:0:0:
416,192,76587,1,0,0:0:0:0:
160,192,76792,1,0,0:0:0:0:
416,192,77203,1,0,0:0:0:0:
160,192,77409,1,0,0:0:0:0:
32,192,77820,1,0,0:0:0:0:
96,192,77923,1,0,0:0:0:0:
224,192,78025,1,0,0:0:0:0:
352,192,78128,1,0,0:0:0:0:
480,192,78231,1,0,0:0:0:0:
96,192,78436,1,0,0:0:0:0:
224,192,78539,1,0,0:0:0:0:
352,192,78642,1,0,0:0:0:0:
480,192,78744,1,0,0:0:0:0:
96,192,78847,1,0,0:0:0:0:
224,192,78950,1,0,0:0:0:0:
352,192,79053,1,0,0:0:0:0:
480,192,79155,1,0,0:0:0:0:
32,192,79464,1,0,0:0:0:0:
224,192,79464,1,0,0:0:0:0:
352,192,79772,1,0,0:0:0:0:
224,192,80080,1,0,0:0:0:0:
96,192,80286,1,0,0:0:0:0:
160,192,80388,1,0,0:0:0:0:
224,192,80491,1,0,0:0:0:0:
288,192,80594,1,0,0:0:0:0:
416,192,80696,1,0,0:0:0:0:
224,192,80902,1,0,0:0:0:0:
96,192,81107,1,0,0:0:0:0:
352,192,81416,1,0,0:0:0:0:
224,192,81724,1,0,0:0:0:0:
96,192,81929,1,0,0:0:0:0:
160,192,82032,1,0,0:0:0:0:
224,192,82135,1,0,0:0:0:0:
416,192,82238,1,0,0:0:0:0:
288,192,82546,1,0,0:0:0:0:
224,192,82751,1,0,0:0:0:0:
352,192,83060,1,0,0:0:0:0:
224,192,83368,1,0,0:0:0:0:
96,192,83574,1,0,0:0:0:0:
160,192,83676,1,0,0:0:0:0:
224,192,83779,1,0,0:0:0:0:
288,192,83882,1,0,0:0:0:0:
416,192,83984,1,0,0:0:0:0:
224,192,84190,1,0,0:0:0:0:
96,192,84395,1,0,0:0:0:0:
352,192,84704,1,0,0:0:0:0:
224,192,85012,1,0,0:0:0:0:
96,192,85217,1,0,0:0:0:0:
160,192,85320,1,0,0:0:0:0:
224,192,85423,1,0,0:0:0:0:
480,192,85628,1,0,0:0:0:0:
96,192,85628,1,0,0:0:0:0:
480,192,85833,1,0,0:0:0:0:
96,192,85833,1,0,0:0:0:0:
224,192,86039,1,0,0:0:0:0:
352,192,86347,1,0,0:0:0:0:
224,192,86655,1,0,0:0:0:0:
96,192,86861,1,0,0:0:0:0:
160,192,86964,1,0,0:0:0:0:
224,192,87066,1,0,0:0:0:0:
96,192,87272,1,0,0:0:0:0:
480,192,87272,1,0,0:0:0:0:
160,192,87272,1,0,0:0:0:0:
416,192,87272,1,0,0:0:0:0:
96,192,87477,1,0,0:0:0:0:
160,192,87477,1,0,0:0:0:0:
416,192,87477,1,0,0:0:0:0:
480,192,87477,1,0,0:0:0:0:
224,192,87683,1,0,0:0:0:0:
352,192,87991,1,0,0:0:0:0:
32,192,88299,1,0,0:0:0:0:
32,192,88505,1,0,0:0:0:0:
160,192,88710,1,0,0:0:0:0:
288,192,88710,1,0,0:0:0:0:
416,192,88710,1,0,0:0:0:0:
160,192,88916,1,0,0:0:0:0:
288,192,88916,1,0,0:0:0:0:
416,192,88916,1,0,0:0:0:0:
96,192,89327,1,0,0:0:0:0:
480,192,89429,1,0,0:0:0:0:
96,192,89532,1,0,0:0:0:0:
480,192,89635,1,0,0:0:0:0:
96,192,89738,1,0,0:0:0:0:
480,192,89840,1,0,0:0:0:0:
96,192,89943,1,0,0:0:0:0:
480,192,90046,1,0,0:0:0:0:
160,192,90149,1,0,0:0:0:0:
416,192,90251,1,0,0:0:0:0:
160,192,90354,1,0,0:0:0:0:
416,192,90457,1,0,0:0:0:0:
160,192,90560,1,0,0:0:0:0:
416,192,90662,1,0,0:0:0:0:
160,192,90765,1,0,0:0:0:0:
416,192,90868,1,0,0:0:0:0:
224,192,90970,1,0,0:0:0:0:
352,192,91073,1,0,0:0:0:0:
224,192,91176,1,0,0:0:0:0:
352,192,91279,1,0,0:0:0:0:
224,192,91381,1,0,0:0:0:0:
352,192,91484,1,0,0:0:0:0:
224,192,91587,1,0,0:0:0:0:
352,192,91690,1,0,0:0:0:0:
288,192,91792,1,0,0:0:0:0:
288,192,91998,1,0,0:0:0:0:
288,192,92203,1,0,0:0:0:0:
288,192,92409,1,0,0:0:0:0:
32,192,92614,128,0,95080:0:0:0:0:
288,192,95080,1,0,0:0:0:0:
288,192,95286,1,0,0:0:0:0:
288,192,95388,1,0,0:0:0:0:
288,192,95696,1,0,0:0:0:0:
32,192,95902,1,0,0:0:0:0:
224,192,95902,1,0,0:0:0:0:
352,192,96210,1,0,0:0:0:0:
224,192,96518,1,0,0:0:0:0:
96,192,96724,1,0,0:0:0:0:
160,192,96826,1,0,0:0:0:0:
224,192,96929,1,0,0:0:0:0:
288,192,97032,1,0,0:0:0:0:
416,192,97134,1,0,0:0:0:0:
224,192,97340,1,0,0:0:0:0:
96,192,97545,1,0,0:0:0:0:
352,192,97854,1,0,0:0:0:0:
224,192,98162,1,0,0:0:0:0:
96,192,98367,1,0,0:0:0:0:
160,192,98470,1,0,0:0:0:0:
224,192,98573,1,0,0:0:0:0:
416,192,98676,1,0,0:0:0:0:
288,192,98984,1,0,0:0:0:0:
224,192,99189,1,0,0:0:0:0:
352,192,99498,1,0,0:0:0:0:
224,192,99806,1,0,0:0:0:0:
96,192,100012,1,0,0:0:0:0:
160,192,100114,1,0,0:0:0:0:
224,192,100217,1,0,0:0:0:0:
288,192,100320,1,0,0:0:0:0:
416,192,100422,1,0,0:0:0:0:
224,192,100628,1,0,0:0:0:0:
352,192,100833,1,0,0:0:0:0:
224,192,101142,1,0,0:0:0:0:
96,192,101450,1,0,0:0:0:0:
160,192,101655,1,0,0:0:0:0:
288,192,101758,1,0,0:0:0:0:
416,192,101861,1,0,0:0:0:0:
480,192,102066,1,0,0:0:0:0:
352,192,102272,1,0,0:0:0:0:
224,192,102477,1,0,0:0:0:0:
32,192,102477,1,0,0:0:0:0:
352,192,102785,1,0,0:0:0:0:
224,192,103093,1,0,0:0:0:0:
96,192,103299,1,0,0:0:0:0:
160,192,103401,1,0,0:0:0:0:
224,192,103504,1,0,0:0:0:0:
288,192,103607,1,0,0:0:0:0:
416,192,103709,1,0,0:0:0:0:
224,192,103915,1,0,0:0:0:0:
96,192,104120,1,0,0:0:0:0:
352,192,104429,1,0,0:0:0:0:
224,192,104737,1,0,0:0:0:0:
96,192,104942,1,0,0:0:0:0:
160,192,105045,1,0,0:0:0:0:
224,192,105148,1,0,0:0:0:0:
416,192,105251,1,0,0:0:0:0:
288,192,105559,1,0,0:0:0:0:
224,192,105764,1,0,0:0:0:0:
352,192,106073,1,0,0:0:0:0:
224,192,106381,1,0,0:0:0:0:
96,192,106587,1,0,0:0:0:0:
160,192,106689,1,0,0:0:0:0:
224,192,106792,1,0,0:0:0:0:
288,192,106895,1,0,0:0:0:0:
416,192,106997,1,0,0:0:0:0:
224,192,107203,1,0,0:0:0:0:
288,192,107409,1,0,0:0:0:0:
288,192,107614,1,0,0:0:0:0:
352,192,107820,1,0,0:0:0:0:
224,192,108025,1,0,0:0:0:0:
416,192,108231,1,0,0:0:0:0:
160,192,108436,1,0,0:0:0:0:
160,192,108642,1,0,0:0:0:0:
224,192,108847,1,0,0:0:0:0:
32,192,109053,1,0,0:0:0:0:
224,192,109053,1,0,0:0:0:0:
352,192,109361,1,0,0:0:0:0:
224,192,109669,1,0,0:0:0:0:
96,192,109875,1,0,0:0:0:0:
160,192,109977,1,0,0:0:0:0:
224,192,110080,1,0,0:0:0:0:
288,192,110183,1,0,0:0:0:0:
416,192,110285,1,0,0:0:0:0:
224,192,110491,1,0,0:0:0:0:
96,192,110696,1,0,0:0:0:0:
352,192,111005,1,0,0:0:0:0:
224,192,111313,1,0,0:0:0:0:
96,192,111518,1,0,0:0:0:0:
160,192,111621,1,0,0:0:0:0:
224,192,111724,1,0,0:0:0:0:
416,192,111827,1,0,0:0:0:0:
288,192,112135,1,0,0:0:0:0:
224,192,112340,1,0,0:0:0:0:
352,192,112649,1,0,0:0:0:0:
224,192,112957,1,0,0:0:0:0:
96,192,113163,1,0,0:0:0:0:
160,192,113265,1,0,0:0:0:0:
224,192,113368,1,0,0:0:0:0:
288,192,113471,1,0,0:0:0:0:
416,192,113573,1,0,0:0:0:0:
224,192,113779,1,0,0:0:0:0:
32,192,113984,128,0,114806:0:0:0:0:
96,192,114806,1,0,0:0:0:0:
224,192,114806,1,0,0:0:0:0:
288,192,114909,1,0,0:0:0:0:
352,192,115012,1,0,0:0:0:0:
480,192,115012,1,0,0:0:0:0:
32,192,115217,128,0,115628:0:0:0:0:
96,192,115423,128,0,115628:0:0:0:0:
224,192,115628,1,0,0:0:0:0:
352,192,115936,1,0,0:0:0:0:
224,192,116244,1,0,0:0:0:0:
96,192,116450,1,0,0:0:0:0:
160,192,116552,1,0,0:0:0:0:
224,192,116655,1,0,0:0:0:0:
288,192,116758,1,0,0:0:0:0:
416,192,116860,1,0,0:0:0:0:
224,192,117066,1,0,0:0:0:0:
96,192,117271,1,0,0:0:0:0:
352,192,117580,1,0,0:0:0:0:
288,192,117888,1,0,0:0:0:0:
352,192,118094,1,0,0:0:0:0:
224,192,118094,1,0,0:0:0:0:
352,192,118299,1,0,0:0:0:0:
224,192,118299,1,0,0:0:0:0:
224,192,118505,1,0,0:0:0:0:
352,192,118505,1,0,0:0:0:0:
352,192,118710,1,0,0:0:0:0:
224,192,118710,1,0,0:0:0:0:
352,192,118916,1,0,0:0:0:0:
224,192,118916,1,0,0:0:0:0:
160,192,119121,1,0,0:0:0:0:
416,192,119121,1,0,0:0:0:0:
352,192,119327,1,0,0:0:0:0:
224,192,119327,1,0,0:0:0:0:
416,192,119532,1,0,0:0:0:0:
160,192,119532,1,0,0:0:0:0:
352,192,119738,1,0,0:0:0:0:
224,192,119738,1,0,0:0:0:0:
160,192,119943,1,0,0:0:0:0:
416,192,119943,1,0,0:0:0:0:
352,192,120149,1,0,0:0:0:0:
224,192,120149,1,0,0:0:0:0:
160,192,120354,1,0,0:0:0:0:
416,192,120354,1,0,0:0:0:0:
96,192,120559,1,0,0:0:0:0:
480,192,120559,1,0,0:0:0:0:
160,192,120765,1,0,0:0:0:0:
416,192,120765,1,0,0:0:0:0:
224,192,120970,1,0,0:0:0:0:
352,192,120970,1,0,0:0:0:0:
160,192,121176,1,0,0:0:0:0:
416,192,121176,1,0,0:0:0:0:
480,192,121381,1,0,0:0:0:0:
96,192,121381,1,0,0:0:0:0:
160,192,121587,1,0,0:0:0:0:
416,192,121587,1,0,0:0:0:0:
352,192,121792,1,0,0:0:0:0:
224,192,121792,1,0,0:0:0:0:
416,192,121998,1,0,0:0:0:0:
160,192,121998,1,0,0:0:0:0:
288,192,122203,1,0,0:0:0:0:
96,192,122203,1,0,0:0:0:0:
480,192,122203,1,0,0:0:0:0:
