osu file format v10

[General]
AudioFilename: heaven_above.mp3
AudioLeadIn: 0
PreviewTime: 25235
Countdown: 0
SampleSet: None
StackLeniency: 0.7
Mode: 0
LetterboxInBreaks: 1

[Editor]
DistanceSpacing: 0.5
BeatDivisor: 4
GridSize: 4

[Metadata]
Title:Heaven Above
TitleUnicode:
Artist:kors k
ArtistUnicode:
Creator:yeahyeahyeahhh
Version:Hyper
Source:Beatmania IIDX
Tags:iidx14 gold la cataline
BeatmapID:191335
BeatmapSetID:65275

[Difficulty]
HPDrainRate:8
CircleSize:4
OverallDifficulty:7
ApproachRate:7
SliderMultiplier:1.60000000596046
SliderTickRate:1

[Events]
//Background and Video events
0,0,"bg.jpg"
//Break Periods
2,47485,60931
//Storyboard Layer 0 (Background)
//Storyboard Layer 1 (Fail)
//Storyboard Layer 2 (Pass)
//Storyboard Layer 3 (Foreground)
//Storyboard Sound Samples
//Background Colour Transformations
3,100,112,127,192

[TimingPoints]
922,454.545454545455,4,2,1,60,1,0
2285,-133.333333333333,4,1,1,60,0,0
4103,-133.333333333333,4,2,1,60,0,0
11827,-133.333333333333,4,1,1,60,0,0
12168,-133.333333333333,4,2,1,60,0,0
12740,-133.333333333333,4,1,1,60,0,0
12963,-133.333333333333,4,2,1,60,0,0
13531,-133.333333333333,4,1,1,60,0,0
14099,-133.333333333333,4,2,1,60,0,0
14440,-133.333333333333,4,1,1,60,0,0
14668,-133.333333333333,4,2,1,60,0,0
15349,-133.333333333333,4,1,1,60,0,0
15804,-133.333333333333,4,2,1,60,0,0
16259,-133.333333333333,4,1,1,60,0,0
17168,-133.333333333333,4,2,1,60,0,0
18190,-100,4,1,1,70,0,0
18418,-100,4,2,1,70,0,0
18649,-100,4,1,1,70,0,0
18762,-100,4,2,1,70,0,0
19103,-100,4,1,1,70,0,0
19327,-100,4,2,1,70,0,0
19440,-100,4,1,1,70,0,0
19781,-100,4,2,1,70,0,0
19895,-100,4,1,1,70,0,0
20236,-100,4,2,1,70,0,0
20467,-100,4,1,1,70,0,0
20690,-100,4,2,1,70,0,0
20922,-100,4,1,1,70,0,0
21031,-100,4,2,1,70,0,0
21259,-100,4,1,1,70,0,0
21486,-100,4,2,1,70,0,0
21713,-100,4,1,1,70,0,0
21940,-100,4,2,1,70,0,0
22168,-100,4,1,1,70,0,0
22509,-100,4,2,1,70,0,0
22622,-100,4,1,1,70,0,0
22963,-100,4,2,1,70,0,0
23077,-100,4,1,1,70,0,0
23304,-100,4,2,1,70,0,0
23531,-100,4,1,1,70,0,0
23872,-100,4,2,1,70,0,0
23986,-100,4,1,1,70,0,0
24213,-100,4,2,1,70,0,0
24327,-100,4,1,1,70,0,0
25122,-100,4,2,1,70,0,0
25463,-100,4,1,1,70,0,0
25690,-100,4,2,1,70,0,0
25918,-100,4,1,1,70,0,0
26145,-100,4,2,1,70,0,0
26376,-100,4,1,1,70,0,0
26486,-100,4,2,1,70,0,0
26713,-100,4,1,1,70,0,0
27054,-100,4,2,1,70,0,0
27168,-100,4,1,1,70,0,0
27395,-100,4,2,1,70,0,0
27736,-100,4,1,1,70,0,0
28304,-100,4,2,1,70,0,0
28649,-100,4,1,1,70,0,0
29327,-100,4,2,1,70,0,0
29558,-100,4,1,1,70,0,0
29781,-100,4,2,1,70,0,0
29895,-100,4,1,1,70,0,0
30236,-100,4,2,1,70,0,0
30349,-100,4,1,1,70,0,0
30581,-100,4,1,1,70,0,0
32622,-200,4,2,1,70,0,0
33077,-100,4,1,1,70,0,0
33418,-100,4,2,1,70,0,0
33531,-100,4,1,1,70,0,0
33872,-100,4,2,1,70,0,0
33986,-100,4,1,1,70,0,0
34327,-100,4,2,1,70,0,0
34440,-100,4,1,1,70,0,0
34668,-100,4,2,1,70,0,0
35804,-200,4,2,1,70,0,0
36372,-100,4,1,1,70,0,0
36490,-100,4,2,1,70,0,0
37740,-100,4,1,1,70,0,0
38077,-100,4,2,1,70,0,0
38190,-100,4,1,1,70,0,0
38418,-100,4,2,1,70,0,0
38531,-100,4,1,1,70,0,0
38759,-100,4,2,1,70,0,0
38872,-100,4,1,1,70,0,0
39440,-200,4,1,1,70,0,0
40009,-100,4,1,1,70,0,0
43077,-133.333333333333,4,1,1,70,0,0
43645,-100,4,1,1,65,0,0
45463,-100,4,1,1,65,0,1
46372,-100,4,1,1,70,0,0
61713,-133.333333333333,4,1,1,70,0,0
61940,-133.333333333333,4,2,1,70,0,0
74440,-100,4,1,1,70,0,0
78308,-100,4,1,1,70,0,0
79217,-100,4,2,1,70,0,0
79440,-100,4,1,1,70,0,0
79672,-100,4,2,1,70,0,0
79895,-100,4,1,1,70,0,0
81486,-100,4,2,1,70,0,0
81713,-100,4,1,1,70,0,0
82853,-100,4,2,1,70,0,0
82853,-100,4,2,1,70,0,0
83077,-100,4,1,1,70,0,0
83308,-100,4,2,1,70,0,0
83531,-100,4,1,1,70,0,0
83872,-100,4,2,1,70,0,0
83986,-100,4,1,1,70,0,0
84213,-100,4,2,1,70,0,0
84327,-100,4,1,1,70,0,0
85122,-100,4,2,1,70,0,0
85463,-100,4,1,1,65,0,0
92736,-100,4,1,1,65,0,1
92856,-100,4,1,1,65,0,0
107288,-133.333333333333,4,1,1,50,0,0
107402,-133.333333333333,4,2,1,50,0,0
114327,-133.333333333333,4,2,1,40,0,0
119781,-133.333333333333,4,2,1,60,0,0

[Colours]
Combo1 : 255,157,111
Combo2 : 248,120,177
Combo3 : 106,181,255

[HitObjects]
32,200,2740,1,0,0:0:0
64,128,2967,1,0,0:0:0
64,128,3081,1,0,0:0:0
64,128,3194,1,0,0:0:0
96,56,3422,1,0,0:0:0
128,40,3649,6,0,B|184:24|248:40,1,119.999996870756,0|2,0:0|0:0,0:0:0
408,104,4331,2,0,B|352:120|288:104,1,119.999996870756
264,152,5012,5,2,0:0:0
200,120,5240,1,0,0:0:0
112,120,5467,5,0,0:0:0
176,152,5694,1,0,0:0:0
112,192,5922,1,2,0:0:0
176,232,6149,2,0,B|192:256,2,29.999999217689
112,264,6603,5,0,0:0:0
168,80,6831,1,0,0:0:0
280,224,7058,1,2,0:0:0
304,248,7285,6,0,B|352:288|432:264,1,119.999996870756,0|2,0:0|0:0,0:0:0
456,200,7967,2,0,B|504:200,2,29.999999217689
384,152,8422,1,0,0:0:0
456,112,8649,1,2,0:0:0
384,72,8876,2,0,B|344:80,2,29.999999217689,0|0|0,0:0|0:0|0:0,0:0:0
288,128,9331,1,0,0:0:0
208,112,9558,1,8,0:0:0
264,40,9785,2,0,B|256:8,2,29.999999217689
208,112,10240,1,2,0:0:0
152,184,10467,1,0,0:0:0
208,112,10694,1,10,0:0:0
73,154,10922,5,0,0:0:0
73,154,11035,1,0,0:0:0
73,154,11149,2,10,B|61:120|66:82,1,59.999998435378,0|8,0:0|0:0,0:0:0
138,117,11603,2,0,B|159:148,2,29.999999217689
288,232,12058,1,0,0:0:0
256,312,12285,1,8,0:0:0
208,240,12512,1,2,0:0:0
288,200,12740,6,0,B|352:224,2,59.999998435378,0|0|8,0:0|0:0|0:0,0:0:0
328,128,13422,1,2,0:0:0
328,128,13535,1,0,0:0:0
328,128,13649,2,0,B|392:152,2,59.999998435378,0|0|8,0:0|0:0|0:0,0:0:0
360,56,14331,1,2,0:0:0
200,80,14558,5,0,0:0:0
200,80,14672,1,0,0:0:0
200,80,14785,2,2,B|128:56,1,59.999998435378,0|8,0:0|0:0,0:0:0
48,112,15240,2,0,B|40:80,2,29.999999217689,2|0|0,0:0|0:0|0:0,0:0:0
144,168,15694,1,0,0:0:0
48,224,15922,1,8,0:0:0
144,208,16149,1,2,0:0:0
128,312,16376,1,0,0:0:0
136,312,16490,1,0,0:0:0
144,312,16603,1,0,0:0:0
152,312,16717,1,0,0:0:0
160,312,16831,1,0,0:0:0
256,384,17058,1,4,0:0:0
288,264,17285,5,2,0:0:0
319,252,17399,1,2,0:0:0
352,252,17512,1,8,0:0:0
384,257,17626,1,0,0:0:0
416,265,17740,1,8,0:0:0
440,243,17853,1,2,0:0:0
455,213,17967,1,0,0:0:0
465,181,18081,1,0,0:0:0
488,160,18194,6,0,B|496:72,1,80.000000298023,4|0,0:0|0:0,0:0:0
424,8,18649,2,0,B|505:0,1,80.000000298023,8|0,0:0|0:0,0:0:0
337,135,19103,2,0,B|258:147,1,80.000000298023
168,234,19558,2,0,B|248:224,1,80.000000298023,8|0,0:0|0:0,0:0:0
72,248,20012,6,0,B|52:287|73:342,1,80.000000298023
168,232,20467,2,0,B|188:193|167:138,1,80.000000298023,8|0,0:0|0:0,0:0:0
104,40,20922,1,0,0:0:0
56,168,21149,1,8,0:0:0
176,152,21376,1,8,0:0:0
240,224,21603,1,2,0:0:0
264,248,21717,1,8,0:0:0
288,264,21831,6,0,B|368:240,1,80.000000298023
456,216,22285,2,0,B|520:288,1,80.000000298023,8|0,0:0|0:0,0:0:0
480,368,22740,2,0,B|416:296,1,80.000000298023,0|0,0:0|0:0,0:0:0
336,240,23194,1,8,0:0:0
336,240,23422,1,0,0:0:0
221,268,23649,2,0,B|125:292,1,80.000000298023,4|0,0:0|0:0,0:0:0
144,288,23990,2,0,B|101:364,1,80.000000298023,4|0,0:0|0:0,0:0:0
104,357,24331,2,0,B|16:368,1,80.000000298023,4|0,0:0|0:0,0:0:0
184,184,24785,1,8,0:0:0
256,320,25012,1,8,0:0:0
336,224,25240,1,2,0:0:0
336,224,25353,1,0,0:0:0
336,224,25467,6,0,B|376:208|416:216,1,80.000000298023
414,215,25808,1,0,0:0:0
414,215,25922,2,0,B|448:128,1,80.000000298023,8|0,0:0|0:0,0:0:0
376,72,26376,1,0,0:0:0
443,140,26603,1,0,0:0:0
480,264,26831,2,0,B|453:339,1,80.000000298023,8|0,0:0|0:0,0:0:0
304,312,27285,5,0,0:0:0
336,224,27512,2,0,B|352:184,2,40.0000001490115,2|0|8,0:0|0:0|0:0,0:0:0
240,248,27967,1,0,0:0:0
280,160,28194,2,0,B|294:122,2,40.0000001490115,0|0|10,0:0|0:0|0:0,0:0:0
312,16,28649,2,0,B|192:16,1,120.000000447034,8|0,0:0|0:0,0:0:0
120,24,29103,6,0,B|144:104,1,80.000000298023
200,160,29558,2,0,B|280:160,1,80.000000298023,8|2,0:0|0:0,0:0:0
127,179,30012,2,0,B|104:256,1,80.000000298023,0|2,0:0|0:0,0:0:0
192,240,30467,2,0,B|312:240,1,120.000000447034,8|0,0:0|0:0,0:0:0
344,200,30922,5,0,0:0:0
376,120,31149,1,0,0:0:0
208,152,31376,5,8,0:0:0
240,64,31603,1,0,0:0:0
296,136,31831,1,0,0:0:0
112,160,32058,5,8,0:0:0
144,80,32285,1,8,0:0:0
80,240,32512,1,0,0:0:0
80,240,32626,2,0,B|56:304,1,60.0000002235172,0|2,0:0|0:0,0:0:0
136,312,33194,6,0,B|232:328,1,80.000000298023,4|0,0:0|0:0,0:0:0
376,312,33649,2,0,B|280:328,1,80.000000298023,0|0,0:0|0:0,0:0:0
336,232,34103,2,0,B|416:216,1,80.000000298023
496,144,34558,5,0,0:0:0
400,112,34785,1,2,0:0:0
392,128,34899,1,2,0:0:0
304,88,35126,1,2,0:0:0
296,104,35240,1,2,0:0:0
208,56,35467,1,2,0:0:0
200,72,35581,1,0,0:0:0
192,88,35694,1,8,0:0:0
104,24,35922,2,0,B|72:80,1,60.0000002235172
64,96,36376,5,0,0:0:0
96,184,36603,1,0,0:0:0
88,208,36717,1,0,0:0:0
168,120,36944,1,0,0:0:0
176,96,37058,1,0,0:0:0
200,216,37285,1,0,0:0:0
192,240,37399,1,0,0:0:0
184,264,37512,1,2,0:0:0
248,112,37740,2,0,B|368:144,1,120.000000447034,0|0,0:0|0:0,0:0:0
360,176,38194,6,0,B|456:200,1,80.000000298023,4|0,0:0|0:0,0:0:0
437,195,38535,2,0,B|456:288,1,80.000000298023,4|0,0:0|0:0,0:0:0
453,273,38876,2,0,B|528:296,1,80.000000298023,4|0,0:0|0:0,0:0:0
376,256,39331,1,8,0:0:0
376,256,39558,2,0,B|304:240,1,60.0000002235172,8|0,0:0|0:0,0:0:0
240,224,40012,5,0,0:0:0
240,224,40240,1,0,0:0:0
160,224,40467,1,8,0:0:0
160,224,40694,1,0,0:0:0
80,240,40921,1,0,0:0:0
80,240,41149,1,0,0:0:0
96,320,41376,1,8,0:0:0
176,304,41603,1,0,0:0:0
176,304,41717,1,0,0:0:0
176,304,41831,6,0,B|253:323,1,80.000000298023
322,205,42285,2,0,B|399:223,1,80.000000298023,8|0,0:0|0:0,0:0:0
136,200,42740,6,0,B|213:219,1,80.000000298023
282,101,43194,2,0,B|368:120,1,89.9999976530669,8|0,0:0|0:0,0:0:0
399,126,43649,5,2,0:0:0
320,208,43876,1,2,0:0:0
256,48,44217,1,2,0:0:0
256,48,44331,1,0,0:0:0
320,104,44558,1,2,0:0:0
240,136,44785,2,2,B|232:160,4,19.9999994784593
192,144,45126,2,0,B|176:208,2,40.0000001490115,2|0|0,0:0|0:0|0:0,0:0:0
144,160,45467,6,6,B|88:192|80:264,1,120.000000447034,6|2,0:0|0:0,0:0:0
160,248,45921,2,6,B|128:200|64:184|0:208,1,160.000000596046
256,192,46490,12,4,47285,0:0:0
96,232,61831,5,0,0:0:0
176,192,62058,1,0,0:0:0
248,128,62285,1,2,0:0:0
96,232,62740,5,0,0:0:0
176,192,62967,1,0,0:0:0
248,128,63194,1,0,0:0:0
280,40,63421,1,2,0:0:0
336,112,63649,6,0,B|416:120,2,59.999998435378,0|0|2,0:0|0:0|0:0,0:0:0
392,240,64444,1,0,0:0:0
392,240,64558,2,0,B|320:232,1,59.999998435378,0|0,0:0|0:0,0:0:0
304,320,65012,2,0,B|376:328,1,59.999998435378,0|2,0:0|0:0,0:0:0
464,288,65467,5,0,0:0:0
464,200,65694,1,0,0:0:0
392,144,65921,1,2,0:0:0
464,288,66376,5,0,0:0:0
464,200,66603,1,0,0:0:0
392,144,66831,1,0,0:0:0
376,40,67058,1,2,0:0:0
376,40,67285,6,0,B|408:32|448:40,1,59.999998435378,0|0,0:0|0:0,0:0:0
295,85,67740,2,0,B|263:93|236:88,1,59.999998435378,2|0,0:0|0:0,0:0:0
236,88,68194,2,0,B|164:133,1,59.999998435378,2|0,0:0|0:0,0:0:0
280,293,68649,2,0,B|352:248,1,59.999998435378,0|2,0:0|0:0,0:0:0
256,192,69103,6,0,B|144:272,1,119.999996870756,0|8,0:0|0:0,0:0:0
24,184,69785,1,0,0:0:0
24,184,69899,1,0,0:0:0
24,184,70012,2,0,B|88:184,1,59.999998435378
84,184,70467,2,0,B|152:144,1,59.999998435378,0|2,0:0|0:0,0:0:0
164,40,70921,6,0,B|56:108,1,119.999996870756,0|8,0:0|0:0,0:0:0
272,128,71603,1,0,0:0:0
272,128,71717,1,0,0:0:0
272,128,71831,2,0,B|336:140,1,59.999998435378
296,248,72285,2,0,B|224:236,1,59.999998435378,0|2,0:0|0:0,0:0:0
381,243,72740,6,0,B|410:265|462:265,1,59.999998435378,0|0,0:0|0:0,0:0:0
337,162,73194,2,0,B|373:177|410:162,1,59.999998435378,8|0,0:0|0:0,0:0:0
301,81,73649,2,0,B|344:81|363:49,1,59.999998435378
272,56,74103,5,8,0:0:0
304,152,74331,1,0,0:0:0
76,24,74558,5,0,0:0:0
172,40,74785,1,0,0:0:0
112,120,75012,5,0,0:0:0
208,136,75240,1,0,0:0:0
392,200,75581,5,0,0:0:0
392,200,75694,1,0,0:0:0
324,284,75921,1,8,0:0:0
260,364,76149,1,0,0:0:0
260,364,76262,1,0,0:0:0
260,364,76376,6,0,B|192:400,3,40.0000001490115,4|0|0|0,0:0|0:0|0:0|0:0,0:0:0
225,383,76831,2,0,B|120:376,1,80.000000298023
36,364,77285,1,12,0:0:0
36,364,77512,1,8,0:0:0
100,268,77740,1,0,0:0:0
100,268,77853,2,0,B|205:275,1,80.000000298023
212,276,78194,5,6,0:0:0
172,184,78421,1,0,0:0:0
172,184,78535,2,2,B|44:180,1,120.000000447034
232,128,79103,2,0,B|248:90|228:50,1,80.000000298023,2|0,0:0|0:0,0:0:0
292,180,79558,2,0,B|272:219|288:257,1,80.000000298023,8|0,0:0|0:0,0:0:0
280,336,80012,5,2,0:0:0
364,296,80240,1,0,0:0:0
364,296,80353,1,2,0:0:0
448,336,80581,1,0,0:0:0
448,336,80694,2,2,B|484:264|440:152,1,160.000000596046,2|2,0:0|0:0,0:0:0
404,84,81376,1,2,0:0:0
341,168,81603,1,0,0:0:0
332,180,81717,1,0,0:0:0
316,188,81831,5,2,0:0:0
156,216,82058,1,0,0:0:0
156,216,82171,2,2,B|184:152|256:136,1,120.000000447034,2|2,0:0|0:0,0:0:0
216,280,82740,2,0,B|200:320|152:324,1,80.000000298023,2|0,0:0|0:0,0:0:0
8,308,83194,2,2,B|24:268|72:264,1,80.000000298023,0|0,0:0|0:0,0:0:0
244,140,83649,6,0,B|340:148,1,80.000000298023,6|0,0:0|0:0,0:0:0
323,146,83990,2,0,B|375:207,1,80.000000298023,6|0,0:0|0:0,0:0:0
375,207,84331,2,2,B|455:211,1,80.000000298023,6|0,0:0|0:0,0:0:0
412,128,84785,1,10,0:0:0
348,288,85012,1,10,0:0:0
312,372,85240,1,0,0:0:0
312,372,85353,1,0,0:0:0
312,372,85467,6,2,B|184:368,1,120.000000447034
133,208,86149,1,2,0:0:0
101,356,86376,1,2,0:0:0
253,300,86603,1,8,0:0:0
166,292,86831,2,2,B|193:368,1,80.000000298023,8|10,0:0|0:0,0:0:0
252,212,87285,6,2,B|124:208,1,120.000000447034
71,47,87967,2,2,B|98:123,1,80.000000298023,10|2,0:0|0:0,0:0:0
164,60,88421,1,8,0:0:0
12,116,88649,1,8,0:0:0
132,208,88876,1,2,0:0:0
133,208,88990,1,0,0:0:0
132,208,89103,6,2,B|176:336,2,120.000000447034,2|2|10,0:0|0:0|0:0,0:0:0
248,348,90012,1,0,0:0:0
268,180,90240,1,10,0:0:0
248,348,90467,1,0,0:0:0
372,232,90694,1,2,0:0:0
372,232,90808,1,0,0:0:0
372,232,90922,6,0,B|400:144,1,80.000000298023,6|0,0:0|0:0,0:0:0
396,155,91262,1,0,0:0:0
396,155,91376,2,0,B|364:68,1,80.000000298023,6|0,0:0|0:0,0:0:0
143,80,91831,5,6,0:0:0
256,152,92058,1,2,0:0:0
140,231,92285,1,2,0:0:0
256,152,92512,1,0,0:0:0
144,80,92740,5,6,0:0:0
24,152,92967,1,2,0:0:0
12,152,93081,2,0,B|0:188|8:248,1,80.000000298023,2|0,0:0|0:0,0:0:0
6,231,93422,1,2,0:0:0
68,360,93649,2,2,B|80:324|72:264,1,80.000000298023,0|2,0:0|0:0,0:0:0
144,152,94103,2,0,B|132:188|140:248,1,80.000000298023,10|0,0:0|0:0,0:0:0
240,264,94558,5,2,0:0:0
320,212,94785,1,2,0:0:0
332,212,94899,2,0,B|344:176|336:116,1,80.000000298023,2|0,0:0|0:0,0:0:0
337,132,95240,1,2,0:0:0
260,88,95467,2,2,B|252:140,2,40.0000001490115,0|0|10,0:0|0:0|0:0,0:0:0
337,46,95922,2,2,B|396:32|456:52,1,120.000000447034,10|0,0:0|0:0,0:0:0
468,64,96376,5,6,0:0:0
504,160,96603,1,2,0:0:0
508,176,96717,1,2,0:0:0
448,252,96944,1,0,0:0:0
452,268,97058,1,2,0:0:0
328,252,97285,2,2,B|269:266|209:246,1,120.000000447034,0|2,0:0|0:0,0:0:0
192,240,97740,5,8,0:0:0
96,148,97967,1,2,0:0:0
96,148,98081,1,0,0:0:0
96,148,98194,2,2,B|176:116,1,80.000000298023,6|0,0:0|0:0,0:0:0
170,118,98535,2,2,B|200:148|256:152,1,80.000000298023,6|0,0:0|0:0,0:0:0
241,150,98876,2,0,B|328:120,1,80.000000298023,6|0,0:0|0:0,0:0:0
404,88,99331,1,8,0:0:0
312,216,99558,1,8,0:0:0
300,228,99672,1,0,0:0:0
212,328,99899,1,0,0:0:0
200,336,100012,6,2,B|170:306|114:302,1,80.000000298023,6|2,0:0|0:0,0:0:0
128,303,100353,2,2,B|88:232,1,80.000000298023,2|0,0:0|0:0,0:0:0
89,234,100694,1,2,0:0:0
120,120,100922,2,2,B|164:212,1,80.000000298023,0|2,0:0|0:0,0:0:0
212,124,101376,2,2,B|172:40,1,80.000000298023,8|2,0:0|0:0,0:0:0
177,51,101717,1,0,0:0:0
177,51,101831,5,2,0:0:0
272,56,102058,2,2,B|320:32,1,40.0000001490115
248,196,102399,2,2,B|200:224,1,40.0000001490115,0|2,0:0|0:0,0:0:0
304,132,102740,1,0,0:0:0
364,192,102967,1,10,0:0:0
312,256,103194,1,8,0:0:0
332,360,103422,1,2,0:0:0
344,348,103535,1,0,0:0:0
356,340,103649,6,2,B|385:310|441:306,1,80.000000298023,6|2,0:0|0:0,0:0:0
427,307,103990,2,2,B|467:235,1,80.000000298023,2|0,0:0|0:0,0:0:0
466,238,104331,1,2,0:0:0
380,72,104558,2,2,B|280:88,1,80.000000298023,0|2,0:0|0:0,0:0:0
132,72,105012,2,2,B|232:88,1,80.000000298023,8|2,0:0|0:0,0:0:0
184,216,105467,6,0,B|104:200,1,80.000000298023,6|0,0:0|0:0,0:0:0
105,200,105808,2,2,B|88:260|24:296,1,120.000000447034,6|6,0:0|0:0,0:0:0
31,291,106262,1,0,0:0:0
31,291,106376,1,0,0:0:0
176,316,106603,1,8,0:0:0
276,240,106831,2,0,B|293:180|357:144,1,120.000000447034,8|0,0:0|0:0,0:0:0
349,148,107285,6,0,B|432:184,1,89.9999976530669
432,184,107740,2,0,B|456:120|516:92,1,119.999996870756,8|0,0:0|0:0,0:0:0
512,192,108422,1,0,0:0:0
348,148,108649,2,0,B|383:124|385:103,1,59.999998435378,8|0,0:0|0:0,0:0:0
304,78,109103,2,0,B|208:98,1,89.9999976530669
216,96,109558,2,0,B|228:161|192:217,1,119.999996870756,8|0,0:0|0:0,0:0:0
108,236,110240,1,8,0:0:0
156,312,110467,1,8,0:0:0
228,356,110694,1,0,0:0:0
228,356,110808,1,0,0:0:0
228,356,110922,6,0,B|252:316|264:256,1,89.9999976530669,0|0,0:0|0:0,0:0:0
260,272,111376,2,0,B|235:211|263:131,1,119.999996870756,8|0,0:0|0:0,0:0:0
332,208,112058,1,0,0:0:0
344,120,112285,2,0,B|409:142,1,59.999998435378,8|0,0:0|0:0,0:0:0
476,172,112740,2,0,B|452:212|440:272,1,89.9999976530669
444,256,113194,2,0,B|468:316|440:396,1,119.999996870756,8|0,0:0|0:0,0:0:0
364,284,113876,2,0,B|352:256|364:220,1,59.999998435378,8|8,0:0|0:0,0:0:0
362,225,114558,5,4,0:0:0
288,240,114785,1,0,0:0:0
212,248,115012,1,0,0:0:0
188,272,115240,2,0,B|128:252|64:280,1,119.999996870756,2|0,0:0|0:0,0:0:0
168,344,115922,2,0,B|200:352|248:340,1,59.999998435378,2|0,0:0|0:0,0:0:0
288,240,116376,5,0,0:0:0
240,172,116603,1,0,0:0:0
244,84,116831,1,0,0:0:0
272,56,117058,2,0,B|329:30|389:50,1,119.999996870756,2|0,0:0|0:0,0:0:0
360,124,117740,1,2,0:0:0
436,116,117967,1,0,0:0:0
436,116,118081,1,8,0:0:0
436,116,118194,5,8,0:0:0
484,184,118422,1,0,0:0:0
480,272,118649,1,0,0:0:0
448,300,118876,2,0,B|388:280|330:305,1,119.999996870756,2|0,0:0|0:0,0:0:0
260,256,119558,1,2,0:0:0
48,264,120012,6,0,B|60:216,4,29.999999217689
136,200,120694,1,2,0:0:0
140,184,120808,1,0,0:0:0
232,152,121035,1,2,0:0:0
236,136,121149,1,0,0:0:0
240,120,121262,1,0,0:0:0
244,104,121376,1,2,0:0:0
340,96,121603,1,0,0:0:0
432,48,121831,1,2,0:0:0
