osu file format v10

[General]
AudioFilename: heaven_above.mp3
AudioLeadIn: 0
PreviewTime: 25235
Countdown: 0
SampleSet: None
StackLeniency: 0.7
Mode: 0
LetterboxInBreaks: 1

[Editor]
DistanceSpacing: 0.8
BeatDivisor: 4
GridSize: 4

[Metadata]
Title:Heaven Above
TitleUnicode:
Artist:kors k
ArtistUnicode:
Creator:yeahyeahyeahhh
Version:Another
Source:Beatmania IIDX
Tags:iidx14 gold la cataline
BeatmapID:191334
BeatmapSetID:65275

[Difficulty]
HPDrainRate:8
CircleSize:4
OverallDifficulty:8
ApproachRate:8
SliderMultiplier:1.60000000596046
SliderTickRate:1

[Events]
//Background and Video events
0,0,"bg.jpg"
//Break Periods
2,47485,61081
//Storyboard Layer 0 (Background)
//Storyboard Layer 1 (Fail)
//Storyboard Layer 2 (Pass)
//Storyboard Layer 3 (Foreground)
//Storyboard Sound Samples
//Background Colour Transformations
3,100,112,127,192

[TimingPoints]
922,454.545454545455,4,2,1,60,1,0
2285,-133.333333333333,4,1,1,60,0,0
4103,-133.333333333333,4,2,1,60,0,0
11827,-133.333333333333,4,1,1,60,0,0
12168,-133.333333333333,4,2,1,60,0,0
12740,-133.333333333333,4,1,1,60,0,0
12963,-133.333333333333,4,2,1,60,0,0
13531,-133.333333333333,4,1,1,60,0,0
14099,-133.333333333333,4,2,1,60,0,0
14440,-133.333333333333,4,1,1,60,0,0
14668,-133.333333333333,4,2,1,60,0,0
15349,-133.333333333333,4,1,1,60,0,0
15804,-133.333333333333,4,2,1,60,0,0
16259,-133.333333333333,4,1,1,60,0,0
17168,-133.333333333333,4,2,1,60,0,0
18190,-100,4,1,1,70,0,0
18418,-100,4,2,1,70,0,0
18649,-100,4,1,1,70,0,0
18762,-100,4,2,1,70,0,0
19103,-100,4,1,1,70,0,0
19327,-100,4,2,1,70,0,0
19440,-100,4,1,1,70,0,0
19781,-100,4,2,1,70,0,0
19895,-100,4,1,1,70,0,0
20236,-100,4,2,1,70,0,0
20467,-100,4,1,1,70,0,0
20690,-100,4,2,1,70,0,0
20922,-100,4,1,1,70,0,0
21031,-100,4,2,1,70,0,0
21259,-100,4,1,1,70,0,0
21486,-100,4,2,1,70,0,0
21713,-100,4,1,1,70,0,0
21940,-100,4,2,1,70,0,0
22168,-100,4,1,1,70,0,0
22509,-100,4,2,1,70,0,0
22622,-100,4,1,1,70,0,0
22963,-100,4,2,1,70,0,0
23077,-100,4,1,1,70,0,0
23304,-100,4,2,1,70,0,0
23531,-100,4,1,1,70,0,0
23872,-100,4,2,1,70,0,0
23986,-100,4,1,1,70,0,0
24213,-100,4,2,1,70,0,0
24327,-100,4,1,1,70,0,0
25122,-100,4,2,1,70,0,0
25463,-100,4,1,1,70,0,0
25690,-100,4,2,1,70,0,0
25918,-100,4,1,1,70,0,0
26145,-100,4,2,1,70,0,0
26376,-100,4,1,1,70,0,0
26486,-100,4,2,1,70,0,0
26713,-100,4,1,1,70,0,0
27054,-100,4,2,1,70,0,0
27168,-100,4,1,1,70,0,0
27395,-100,4,2,1,70,0,0
27736,-100,4,1,1,70,0,0
28304,-100,4,2,1,70,0,0
28649,-100,4,1,1,70,0,0
29327,-100,4,2,1,70,0,0
29558,-100,4,1,1,70,0,0
29781,-100,4,2,1,70,0,0
29895,-100,4,1,1,70,0,0
30236,-100,4,2,1,70,0,0
30349,-100,4,1,1,70,0,0
30581,-100,4,1,1,70,0,0
32622,-200,4,2,1,70,0,0
33077,-100,4,1,1,70,0,0
33418,-100,4,2,1,70,0,0
33531,-100,4,1,1,70,0,0
33872,-100,4,2,1,70,0,0
33986,-100,4,1,1,70,0,0
34327,-100,4,2,1,70,0,0
34440,-100,4,1,1,70,0,0
34668,-100,4,2,1,70,0,0
35804,-200,4,2,1,70,0,0
36372,-100,4,1,1,70,0,0
36490,-100,4,2,1,70,0,0
37740,-100,4,1,1,70,0,0
38077,-100,4,2,1,70,0,0
38190,-100,4,1,1,70,0,0
38418,-100,4,2,1,70,0,0
38531,-100,4,1,1,70,0,0
38759,-100,4,2,1,70,0,0
38872,-100,4,1,1,70,0,0
39440,-200,4,1,1,70,0,0
40009,-100,4,1,1,70,0,0
43077,-133.333333333333,4,1,1,70,0,0
43645,-100,4,1,1,65,0,0
45463,-100,4,1,1,65,0,1
46372,-100,4,1,1,70,0,0
61713,-133.333333333333,4,1,1,70,0,0
61940,-133.333333333333,4,2,1,70,0,0
74440,-100,4,1,1,70,0,0
78308,-100,4,1,1,70,0,0
79217,-100,4,2,1,70,0,0
79440,-100,4,1,1,70,0,0
79672,-100,4,2,1,70,0,0
79895,-100,4,1,1,70,0,0
81486,-100,4,2,1,70,0,0
81713,-100,4,1,1,70,0,0
82853,-100,4,2,1,70,0,0
82853,-100,4,2,1,70,0,0
83077,-100,4,1,1,70,0,0
83308,-100,4,2,1,70,0,0
83531,-100,4,1,1,70,0,0
83872,-100,4,2,1,70,0,0
83986,-100,4,1,1,70,0,0
84213,-100,4,2,1,70,0,0
84327,-100,4,1,1,70,0,0
85122,-100,4,2,1,70,0,0
85463,-100,4,1,1,65,0,0
92736,-100,4,1,1,65,0,1
92856,-100,4,1,1,65,0,0
107288,-133.333333333333,4,1,1,50,0,0
107402,-133.333333333333,4,2,1,50,0,0
114327,-133.333333333333,4,2,1,40,0,0
119781,-133.333333333333,4,2,1,60,0,0

[Colours]
Combo1 : 255,157,111
Combo2 : 248,120,177
Combo3 : 106,181,255

[HitObjects]
128,292,2740,1,0,0:0:0
96,212,2967,1,0,0:0:0
88,188,3081,1,0,0:0:0
80,164,3194,1,0,0:0:0
164,88,3422,5,0,0:0:0
172,112,3535,1,0,0:0:0
180,136,3649,2,0,B|236:152|300:136,1,119.999996870756,0|2,0:0|0:0,0:0:0
372,68,4331,2,0,B|316:52|252:68,1,119.999996870756
168,36,5012,1,2,0:0:0
168,36,5240,1,0,0:0:0
108,132,5467,6,0,B|40:172,1,59.999998435378
52,252,5922,1,2,0:0:0
124,308,6149,2,0,B|132:336,2,29.999999217689
144,220,6603,5,0,0:0:0
256,116,6831,1,2,0:0:0
332,240,7058,1,0,0:0:0
464,296,7285,2,0,B|488:244|480:168,1,119.999996870756,0|2,0:0|0:0,0:0:0
424,96,7967,2,0,B|400:148|408:224,1,119.999996870756,0|0,0:0|0:0,0:0:0
356,296,8649,6,0,B|284:324,1,59.999998435378,2|0,0:0|0:0,0:0:0
220,268,9103,1,0,0:0:0
292,208,9331,1,0,0:0:0
300,184,9444,1,0,0:0:0
308,164,9558,1,8,0:0:0
336,80,9785,2,0,B|324:44,2,29.999999217689
252,96,10240,2,0,B|180:72,1,59.999998435378,2|0,0:0|0:0,0:0:0
116,48,10694,1,10,0:0:0
48,128,10922,5,0,0:0:0
68,140,11035,1,0,0:0:0
84,156,11149,1,0,0:0:0
96,176,11262,1,0,0:0:0
160,260,11490,1,0,0:0:0
160,260,11603,2,0,B|148:316,2,29.999999217689
260,220,12058,5,0,0:0:0
260,220,12172,1,0,0:0:0
392,232,12399,2,0,B|412:248|412:276,2,29.999999217689
376,212,12740,5,0,0:0:0
360,196,12853,1,0,0:0:0
348,176,12967,1,0,0:0:0
340,152,13081,1,0,0:0:0
336,128,13194,1,8,0:0:0
336,104,13308,1,0,0:0:0
344,80,13422,1,2,0:0:0
356,60,13535,1,0,0:0:0
372,40,13649,2,0,B|436:68,2,59.999998435378,0|0|8,0:0|0:0|0:0,0:0:0
264,32,14331,1,2,0:0:0
228,116,14558,5,0,0:0:0
240,136,14672,1,0,0:0:0
248,160,14785,1,0,0:0:0
252,184,14899,1,0,0:0:0
308,288,15126,2,0,B|332:320,2,29.999999217689,0|2|0,0:0|0:0|0:0,0:0:0
284,276,15467,1,0,0:0:0
256,268,15581,1,0,0:0:0
228,264,15694,1,0,0:0:0
136,308,15922,5,8,0:0:0
136,280,16035,1,0,0:0:0
128,252,16149,1,2,0:0:0
116,228,16262,1,0,0:0:0
96,208,16376,1,0,0:0:0
80,184,16490,1,0,0:0:0
72,160,16603,1,0,0:0:0
76,132,16717,1,0,0:0:0
160,40,16944,1,0,0:0:0
180,60,17058,1,4,0:0:0
188,88,17172,1,0,0:0:0
192,116,17285,5,2,0:0:0
196,144,17399,1,2,0:0:0
200,172,17512,1,8,0:0:0
216,192,17626,1,0,0:0:0
240,204,17740,1,8,0:0:0
268,204,17853,1,2,0:0:0
292,196,17967,1,0,0:0:0
312,180,18081,1,0,0:0:0
344,176,18194,6,0,B|420:204,1,80.000000298023,4|0,0:0|0:0,0:0:0
419,203,18535,1,0,0:0:0
419,203,18649,1,8,0:0:0
444,312,18876,1,0,0:0:0
444,312,18990,1,0,0:0:0
444,312,19103,2,0,B|368:284,1,80.000000298023,0|8,0:0|0:0,0:0:0
288,276,19558,1,8,0:0:0
256,348,19785,1,2,0:0:0
139,321,20012,6,0,B|124:283|144:244,1,80.000000298023
144,243,20353,1,0,0:0:0
144,243,20467,1,8,0:0:0
224,200,20694,1,0,0:0:0
224,200,20808,1,0,0:0:0
224,200,20922,1,0,0:0:0
80,160,21149,1,8,0:0:0
176,72,21376,1,8,0:0:0
304,96,21603,5,2,0:0:0
332,108,21717,1,8,0:0:0
360,120,21831,2,0,B|436:148,1,80.000000298023
435,147,22285,2,0,B|484:224,1,80.000000298023,8|0,0:0|0:0,0:0:0
444,352,22740,2,0,B|368:324,1,80.000000298023
369,325,23194,2,0,B|320:248,1,80.000000298023,8|0,0:0|0:0,0:0:0
228,200,23649,5,4,0:0:0
56,188,23876,1,0,0:0:0
56,188,23990,1,4,0:0:0
160,32,24217,1,0,0:0:0
160,32,24331,1,4,0:0:0
160,32,24444,1,0,0:0:0
160,32,24558,1,0,0:0:0
256,96,24785,5,8,0:0:0
56,80,25012,1,8,0:0:0
144,244,25240,5,2,0:0:0
141,275,25353,1,0,0:0:0
138,307,25467,1,0,0:0:0
227,331,25694,1,0,0:0:0
230,299,25808,1,0,0:0:0
232,266,25922,1,8,0:0:0
320,291,26149,1,0,0:0:0
319,322,26262,1,0,0:0:0
317,354,26376,1,0,0:0:0
408,372,26603,5,8,0:0:0
484,268,26831,1,8,0:0:0
436,160,27058,2,0,B|400:188|396:236,1,80.000000298023
304,216,27512,1,2,0:0:0
280,192,27626,1,0,0:0:0
268,160,27740,1,8,0:0:0
256,64,27967,1,0,0:0:0
172,112,28194,1,0,0:0:0
148,92,28307,1,0,0:0:0
120,80,28421,1,10,0:0:0
88,76,28535,1,0,0:0:0
56,84,28649,2,0,B|4:212,1,120.000000447034,8|0,0:0|0:0,0:0:0
36,216,29103,6,0,B|124:216,1,80.000000298023
116,216,29444,1,0,0:0:0
116,216,29558,1,8,0:0:0
180,280,29785,2,0,B|156:368,1,80.000000298023,2|0,0:0|0:0,0:0:0
232,216,30240,2,0,B|252:124,1,80.000000298023,2|8,0:0|0:0,0:0:0
308,72,30694,5,0,0:0:0
308,72,30808,1,0,0:0:0
308,72,30922,1,0,0:0:0
408,16,31149,1,0,0:0:0
408,16,31262,1,0,0:0:0
476,108,31490,6,0,B|516:88,2,40.0000001490115
448,120,31831,1,0,0:0:0
424,144,31944,1,0,0:0:0
408,172,32058,1,0,0:0:0
400,204,32172,1,0,0:0:0
396,236,32285,1,8,0:0:0
392,268,32399,1,0,0:0:0
376,296,32512,1,0,0:0:0
352,312,32626,6,0,B|296:328,1,60.0000002235172,0|2,0:0|0:0,0:0:0
192,168,33194,6,0,B|212:256,1,80.000000298023,4|0,0:0|0:0,0:0:0
128,240,33649,2,0,B|168:324,1,80.000000298023,0|0,0:0|0:0,0:0:0
240,332,34103,2,0,B|156:380|80:356,1,160.000000596046
40,268,34785,5,2,0:0:0
28,240,34899,1,2,0:0:0
80,152,35126,1,2,0:0:0
104,172,35240,1,2,0:0:0
132,184,35353,1,0,0:0:0
164,192,35467,1,2,0:0:0
196,192,35581,1,0,0:0:0
228,184,35694,1,8,0:0:0
256,164,35808,1,0,0:0:0
280,136,35922,6,0,B|336:172,1,60.0000002235172,0|0,0:0|0:0,0:0:0
356,188,36376,1,0,0:0:0
444,244,36603,5,2,0:0:0
424,268,36717,1,2,0:0:0
360,328,36944,2,0,B|380:368,2,40.0000001490115,2|2|0,0:0|0:0|0:0,0:0:0
336,308,37285,1,2,0:0:0
308,292,37399,1,0,0:0:0
276,284,37512,1,2,0:0:0
244,284,37626,1,0,0:0:0
212,292,37740,2,0,B|140:320|92:260,1,120.000000447034,0|0,0:0|0:0,0:0:0
84,244,38194,5,4,0:0:0
40,124,38422,1,0,0:0:0
40,124,38535,1,4,0:0:0
132,36,38762,1,0,0:0:0
164,44,38876,1,4,0:0:0
188,68,38990,1,0,0:0:0
204,96,39103,1,0,0:0:0
208,128,39217,1,0,0:0:0
228,156,39331,1,8,0:0:0
256,172,39444,1,0,0:0:0
288,184,39558,6,0,B|316:184|360:172,1,60.0000002235172,8|0,0:0|0:0,0:0:0
380,160,40012,5,0,0:0:0
380,160,40240,1,0,0:0:0
480,176,40467,1,8,0:0:0
480,176,40694,1,0,0:0:0
444,84,40921,1,0,0:0:0
444,84,41149,1,0,0:0:0
348,60,41376,1,8,0:0:0
252,84,41603,5,0,0:0:0
252,84,41717,1,0,0:0:0
252,84,41831,2,0,B|148:60,1,80.000000298023
64,160,42285,2,0,B|144:180,1,80.000000298023,8|0,0:0|0:0,0:0:0
244,328,42740,2,0,B|167:309,1,80.000000298023
264,212,43194,6,0,B|350:231,1,89.9999976530669,8|0,0:0|0:0,0:0:0
384,240,43649,5,2,0:0:0
460,204,43876,1,2,0:0:0
416,316,44217,5,2,0:0:0
416,316,44331,1,0,0:0:0
336,360,44558,1,2,0:0:0
268,308,44785,2,2,B|236:300,3,26.6666667660077
244,268,45126,2,0,B|220:220,2,40.0000001490115,2|2|0,0:0|0:0|0:0,0:0:0
152,264,45467,6,6,B|144:316|104:344,1,80.000000298023,6|2,0:0|0:0,0:0:0
84,340,45808,1,0,0:0:0
60,320,45922,2,0,B|20:328,3,26.6666667660077,2|2|2|2,0:0|0:0|0:0|0:0,0:0:0
48,248,46262,2,0,B|40:192,1,40.0000001490115,2|4,0:0|0:0,0:0:0
256,192,46490,12,4,47285,0:0:0
448,276,61831,6,0,B|388:316,1,59.999998435378
304,272,62285,2,0,B|392:220,1,89.9999976530669,2|0,0:0|0:0,0:0:0
404,212,62740,1,0,0:0:0
496,184,62967,1,0,0:0:0
432,112,63194,1,2,0:0:0
344,80,63421,1,0,0:0:0
268,132,63649,6,0,B|260:212,2,59.999998435378,0|0|2,0:0|0:0|0:0,0:0:0
188,224,64331,1,0,0:0:0
188,224,64444,1,0,0:0:0
188,224,64558,2,0,B|196:296,1,59.999998435378,0|0,0:0|0:0,0:0:0
144,348,65012,2,0,B|60:368,1,59.999998435378,2|0,0:0|0:0,0:0:0
264,332,65467,5,0,0:0:0
360,360,65694,1,0,0:0:0
336,268,65922,2,0,B|368:160,1,89.9999976530669,2|0,0:0|0:0,0:0:0
368,160,66376,1,0,0:0:0
468,128,66603,1,0,0:0:0
496,232,66831,2,0,B|416:208,1,59.999998435378,2|0,0:0|0:0,0:0:0
280,156,67285,6,0,B|267:183|271:215,1,59.999998435378,0|0,0:0|0:0,0:0:0
216,340,67740,2,0,B|223:308|218:280,1,59.999998435378,2|0,0:0|0:0,0:0:0
135,185,68194,2,0,B|164:188|192:204,1,59.999998435378,2|0,0:0|0:0,0:0:0
68,132,68649,2,0,B|92:108|140:100,1,59.999998435378,0|2,0:0|0:0,0:0:0
64,208,69103,6,2,B|72:276|32:344,1,119.999996870756,2|8,0:0|0:0,0:0:0
120,352,69785,1,0,0:0:0
120,352,69899,1,0,0:0:0
120,352,70012,2,0,B|184:364,1,59.999998435378
236,296,70467,2,0,B|168:284,1,59.999998435378,0|2,0:0|0:0,0:0:0
144,208,70922,6,2,B|136:140|176:72,1,119.999996870756,2|8,0:0|0:0,0:0:0
252,68,71603,1,0,0:0:0
252,68,71717,1,0,0:0:0
252,68,71831,2,0,B|260:108|244:132,1,59.999998435378
308,184,72285,2,0,B|287:203|251:199,1,59.999998435378,0|2,0:0|0:0,0:0:0
236,296,72740,6,0,B|284:264|360:276,1,119.999996870756,0|8,0:0|0:0,0:0:0
432,308,73422,1,0,0:0:0
432,308,73535,1,0,0:0:0
432,308,73649,2,0,B|448:276|436:244,1,59.999998435378
384,184,74103,5,8,0:0:0
384,100,74331,1,0,0:0:0
220,68,74558,5,0,0:0:0
220,68,74785,1,0,0:0:0
76,136,75012,1,0,0:0:0
172,152,75240,1,0,0:0:0
384,184,75581,5,0,0:0:0
384,184,75694,1,0,0:0:0
464,252,75922,1,8,0:0:0
364,288,76149,5,0,0:0:0
332,280,76262,1,0,0:0:0
300,280,76376,1,4,0:0:0
268,280,76490,1,0,0:0:0
236,292,76603,1,0,0:0:0
208,308,76717,1,0,0:0:0
180,324,76831,2,0,B|75:317,1,80.000000298023
8,308,77285,5,8,0:0:0
8,308,77512,1,8,0:0:0
60,212,77740,1,0,0:0:0
60,212,77853,2,0,B|165:219,1,80.000000298023,2|0,0:0|0:0,0:0:0
172,220,78194,5,4,0:0:0
256,152,78421,1,0,0:0:0
256,152,78535,1,2,0:0:0
352,196,78762,1,0,0:0:0
372,172,78876,1,2,0:0:0
380,140,78990,1,0,0:0:0
384,108,79103,1,0,0:0:0
380,76,79217,1,0,0:0:0
364,48,79331,1,2,0:0:0
456,44,79558,1,0,0:0:0
456,76,79672,1,0,0:0:0
464,108,79785,1,2,0:0:0
480,204,80012,5,2,0:0:0
468,308,80240,1,0,0:0:0
468,308,80353,1,2,0:0:0
364,296,80581,1,0,0:0:0
364,296,80694,2,2,B|292:240|204:284,1,160.000000596046,2|8,0:0|0:0,0:0:0
213,279,81376,1,8,0:0:0
144,188,81603,5,2,0:0:0
132,216,81717,1,0,0:0:0
132,248,81831,1,0,0:0:0
120,336,82058,1,0,0:0:0
120,336,82172,1,2,0:0:0
32,304,82399,1,0,0:0:0
44,276,82512,1,2,0:0:0
48,244,82626,1,0,0:0:0
44,212,82740,1,0,0:0:0
32,184,82853,1,0,0:0:0
16,156,82967,1,2,0:0:0
104,100,83194,1,0,0:0:0
104,100,83308,1,0,0:0:0
104,100,83422,1,2,0:0:0
228,160,83649,5,4,0:0:0
380,112,83876,1,0,0:0:0
380,112,83990,1,6,0:0:0
464,244,84217,1,0,0:0:0
432,236,84331,1,6,0:0:0
400,228,84444,1,0,0:0:0
368,220,84558,1,0,0:0:0
336,212,84672,1,0,0:0:0
304,204,84785,1,8,0:0:0
264,308,85012,1,8,0:0:0
344,344,85240,5,0,0:0:0
344,344,85353,1,0,0:0:0
344,344,85467,2,2,B|472:340,1,120.000000447034
463,340,85922,1,0,0:0:0
464,244,86149,2,2,B|468:160,1,80.000000298023
404,80,86603,1,8,0:0:0
404,80,86831,1,8,0:0:0
332,156,87058,5,2,0:0:0
332,156,87172,1,0,0:0:0
332,156,87285,2,2,B|208:156,1,120.000000447034
180,168,87740,1,0,0:0:0
71,47,87967,2,2,B|98:123,1,80.000000298023,10|2,0:0|0:0,0:0:0
176,76,88421,1,8,0:0:0
176,76,88649,1,8,0:0:0
268,76,88876,5,2,0:0:0
268,76,88990,1,0,0:0:0
268,76,89103,2,2,B|388:76,2,120.000000447034,2|2|10,0:0|0:0|0:0,0:0:0
204,152,90012,1,0,0:0:0
272,232,90240,1,10,0:0:0
244,320,90467,1,8,0:0:0
176,248,90694,5,0,0:0:0
176,248,90808,1,0,0:0:0
176,248,90922,1,6,0:0:0
304,148,91149,1,0,0:0:0
304,148,91262,1,0,0:0:0
304,148,91376,1,6,0:0:0
344,304,91603,1,0,0:0:0
344,304,91717,1,0,0:0:0
344,304,91831,1,6,0:0:0
204,152,92058,5,2,0:0:0
372,216,92285,1,2,0:0:0
244,320,92512,2,0,B|236:348,4,20.0000000745057,0|0|0|0|6,0:0|0:0|0:0|0:0|0:0,0:0:0
252,288,92853,5,0,0:0:0
252,256,92967,1,2,0:0:0
248,224,93081,1,2,0:0:0
120,200,93308,1,0,0:0:0
104,172,93422,1,2,0:0:0
100,140,93535,1,0,0:0:0
104,108,93649,1,2,0:0:0
216,64,93876,5,2,0:0:0
244,84,93990,1,0,0:0:0
268,96,94103,1,10,0:0:0
300,100,94217,1,0,0:0:0
332,100,94331,1,0,0:0:0
364,92,94444,1,0,0:0:0
392,80,94558,1,2,0:0:0
456,140,94785,5,2,0:0:0
472,168,94899,2,0,B|484:204|476:264,1,80.000000298023,2|0,0:0|0:0,0:0:0
464,276,95240,1,2,0:0:0
448,304,95353,1,0,0:0:0
420,324,95467,2,2,B|412:376,3,40.0000001490115,2|0|0|0,0:0|0:0|0:0|0:0,0:0:0
388,320,95922,2,2,B|352:296|304:304,1,80.000000298023,10|8,0:0|0:0,0:0:0
208,340,96376,5,6,0:0:0
188,312,96490,1,0,0:0:0
184,280,96603,1,2,0:0:0
188,248,96717,1,2,0:0:0
292,208,96944,1,0,0:0:0
272,184,97058,1,2,0:0:0
244,164,97172,1,0,0:0:0
216,152,97285,1,2,0:0:0
184,148,97399,1,0,0:0:0
152,156,97512,1,2,0:0:0
92,276,97740,5,10,0:0:0
88,244,97853,1,0,0:0:0
76,216,97967,1,2,0:0:0
56,192,98081,1,0,0:0:0
32,172,98194,2,2,B|76:104,1,80.000000298023,6|0,0:0|0:0,0:0:0
100,84,98535,2,2,B|196:56,1,80.000000298023,6|0,0:0|0:0,0:0:0
208,64,98876,1,6,0:0:0
240,72,98990,1,0,0:0:0
272,80,99103,1,6,0:0:0
380,64,99331,5,8,0:0:0
380,64,99558,2,0,B|388:128,1,40.0000001490115,8|0,0:0|0:0,0:0:0
312,264,99899,5,0,0:0:0
328,236,100012,1,6,0:0:0
356,220,100126,1,0,0:0:0
388,216,100240,1,2,0:0:0
420,220,100353,2,2,B|456:144,1,80.000000298023,2|0,0:0|0:0,0:0:0
468,120,100694,1,2,0:0:0
480,92,100808,1,0,0:0:0
496,64,100922,1,2,0:0:0
380,64,101149,5,2,0:0:0
372,96,101262,1,2,0:0:0
356,124,101376,1,8,0:0:0
332,144,101490,1,0,0:0:0
304,156,101603,1,0,0:0:0
272,160,101717,1,0,0:0:0
240,156,101831,1,2,0:0:0
120,92,102058,6,2,B|104:148,1,40.0000001490115
56,264,102399,1,0,0:0:0
80,240,102512,1,2,0:0:0
112,228,102626,1,0,0:0:0
144,224,102740,1,2,0:0:0
176,224,102853,1,0,0:0:0
208,232,102967,1,10,0:0:0
236,244,103081,1,2,0:0:0
264,264,103194,1,8,0:0:0
376,360,103422,5,2,0:0:0
356,336,103535,1,0,0:0:0
344,304,103649,2,2,B|328:268|352:216,1,80.000000298023,6|2,0:0|0:0,0:0:0
364,200,103990,1,2,0:0:0
472,192,104217,1,0,0:0:0
472,192,104331,1,2,0:0:0
496,296,104558,5,2,0:0:0
468,284,104672,1,2,0:0:0
436,280,104785,1,2,0:0:0
404,280,104899,1,0,0:0:0
372,288,105012,1,10,0:0:0
344,304,105126,1,0,0:0:0
320,324,105240,1,2,0:0:0
212,340,105467,6,0,B|132:324,1,80.000000298023,6|0,0:0|0:0,0:0:0
104,316,105808,2,2,B|96:272|104:228,1,80.000000298023,6|0,0:0|0:0,0:0:0
108,204,106149,1,6,0:0:0
116,172,106262,1,0,0:0:0
124,140,106376,1,0,0:0:0
128,32,106603,1,8,0:0:0
224,72,106831,2,0,B|228:136|208:204,1,120.000000447034,8|0,0:0|0:0,0:0:0
204,212,107285,6,0,B|360:264,1,160.000000596046,0|8,0:0|0:0,0:0:0
416,212,107967,2,0,B|388:332,1,119.999996870756
468,360,108649,1,8,0:0:0
468,360,108876,1,0,0:0:0
488,272,109103,6,0,B|500:208,1,59.999998435378
444,136,109558,1,8,0:0:0
352,152,109785,1,0,0:0:0
352,152,109899,1,0,0:0:0
352,152,110012,1,0,0:0:0
288,220,110240,5,8,0:0:0
200,116,110467,1,8,0:0:0
56,188,110694,1,0,0:0:0
56,188,110808,1,0,0:0:0
56,188,110922,2,0,B|32:128|44:60,1,119.999996870756,0|8,0:0|0:0,0:0:0
112,24,111603,2,0,B|128:72|124:148,1,119.999996870756
144,220,112285,6,0,B|209:242,1,59.999998435378,8|0,0:0|0:0,0:0:0
256,180,112740,2,0,B|280:220|284:260,1,59.999998435378
238,306,113194,2,0,B|296:328|356:304,1,119.999996870756,8|0,0:0|0:0,0:0:0
428,268,113876,2,0,B|440:240|428:204,1,59.999998435378,8|8,0:0|0:0,0:0:0
421,55,114558,5,4,0:0:0
376,104,114785,1,0,0:0:0
356,168,115012,1,0,0:0:0
360,236,115240,2,0,B|276:272|180:216,1,179.999995306134,2|2,0:0|0:0,0:0:0
152,160,116149,1,0,0:0:0
80,80,116376,5,0,0:0:0
140,56,116603,1,0,0:0:0
200,48,116831,1,0,0:0:0
264,60,117058,2,0,B|290:117|270:177,1,119.999996870756,2|0,0:0|0:0,0:0:0
188,220,117740,5,2,0:0:0
192,320,117967,1,0,0:0:0
192,320,118081,1,8,0:0:0
192,320,118194,1,8,0:0:0
252,288,118422,1,0,0:0:0
316,288,118649,1,0,0:0:0
376,312,118876,2,0,B|408:264|392:192,1,119.999996870756,2|0,0:0|0:0,0:0:0
376,136,119558,1,2,0:0:0
96,216,120012,5,2,0:0:0
92,200,120126,1,0,0:0:0
88,184,120239,1,0,0:0:0
84,168,120353,1,0,0:0:0
80,152,120467,1,2,0:0:0
172,100,120694,1,2,0:0:0
184,116,120808,1,0,0:0:0
232,208,121035,5,2,0:0:0
248,200,121149,1,0,0:0:0
264,192,121262,1,0,0:0:0
280,184,121376,1,2,0:0:0
376,136,121603,1,2,0:0:0
404,36,121831,1,2,0:0:0
