osu file format v12

[General]
AudioFilename: Kors K - Flip Flap 2.mp3
AudioLeadIn: 3000
PreviewTime: 11032
Countdown: 0
SampleSet: Soft
StackLeniency: 0.7
Mode: 0
LetterboxInBreaks: 0

[Editor]
DistanceSpacing: 1
BeatDivisor: 6
GridSize: 4

[Metadata]
Title:Flip Flap
TitleUnicode:Flip Flap
Artist:kors k
ArtistUnicode:kors k
Creator:HanzeR
Version:Hyper
Source:REFLEC BEAT
Tags:limelight beatmania iidx lincle 19 candy handz up rave jubeat saucer
BeatmapID:259259
BeatmapSetID:96796

[Difficulty]
HPDrainRate:5
CircleSize:4
OverallDifficulty:5
ApproachRate:7
SliderMultiplier:1.7
SliderTickRate:1

[Events]
//Background and Video events
0,0,"mikuflap.jpg",0,0
//Break Periods
2,66089,70475
//Storyboard Layer 0 (Background)
//Storyboard Layer 1 (Fail)
//Storyboard Layer 2 (Pass)
//Storyboard Layer 3 (Foreground)
Sprite,Foreground,Centre,"SB\stars.png",325,63 C,0,109775,,58,182,175 S,0,109775,109890,0.1,1.05 F,0,109775,110461,1,0 S,0,109890,110461,1.05,1.1
Sprite,Foreground,Centre,"SB\star.png",325,63 S,0,109775,,0.55 R,0,109775,,0.3956363 F,0,111490,111832,1,0
//Storyboard Sound Samples
//Background Colour Transformations
3,100,163,162,255

[TimingPoints]
61,342.857142857143,4,2,1,40,1,0
87832,-100,4,2,1,40,0,1
98803,-117.647058823529,4,2,1,40,0,0
99089,-100,4,2,1,40,0,0
99146,-100,4,2,1,40,0,1
104289,-100,4,2,1,40,0,0
104632,-100,4,2,1,40,0,1
109090,-100,4,2,1,40,0,0
109775,-100,4,2,1,40,0,1
109890,-100,4,2,1,40,0,0

[Colours]
Combo1 : 198,226,255
Combo2 : 128,255,255
Combo3 : 128,255,128
Combo4 : 131,252,216

[HitObjects]
256,192,8289,12,0,10689,0:0:0:0:
104,60,11032,6,0,P|68:100|64:172,1,113.333333333333,6|0,0:0|0:0,0:0:0:0:
80,212,11375,2,0,P|120:176|192:172,1,113.333333333333,8|0,0:0|0:0,0:0:0:0:
152,220,11718,2,0,L|72:304,1,113.333333333333,0|2,0:0|0:0,0:0:0:0:
32,340,12061,1,8,0:0:0:0:
152,220,12403,6,0,P|192:256|249:263,1,113.333333333333,2|2,0:0|0:0,0:0:0:0:
288,224,12746,2,0,P|345:231|385:267,1,113.333333333333,8|0,0:0|0:0,0:0:0:0:
412,216,13089,2,0,L|361:317,1,113.333333333333,0|2,0:0|0:0,0:0:0:0:
417,309,13432,2,0,L|468:208,1,113.333333333333,8|0,0:0|0:0,0:0:0:0:
492,156,13775,6,0,P|452:104|384:96,1,113.333333333333,2|0,0:0|0:0,0:0:0:0:
356,116,14118,2,0,P|316:138|251:130,1,113.333333333333,8|0,0:0|0:0,0:0:0:0:
272,76,14461,2,0,L|224:196,1,113.333333333333,0|2,0:0|0:0,0:0:0:0:
208,232,14803,1,8,0:0:0:0:
64,140,15146,6,0,P|120:172|128:232,1,113.333333333333,2|0,0:0|0:0,0:0:0:0:
136,272,15489,2,0,P|80:240|72:180,1,113.333333333333,8|2,0:0|0:0,0:0:0:0:
120,220,15832,2,0,L|244:200,1,113.333333333333,0|2,0:0|0:0,0:0:0:0:
260,252,16175,2,0,L|136:272,1,113.333333333333,8|0,0:0|0:0,0:0:0:0:
92,280,16518,6,0,P|136:336|192:344,1,113.333333333333,2|0,0:0|0:0,0:0:0:0:
232,348,16861,2,0,P|265:327|336:336,1,113.333333333333,2|0,0:0|0:0,0:0:0:0:
384,368,17203,2,0,P|328:324|318:285,1,113.333333333333,2|0,0:0|0:0,0:0:0:0:
316,228,17546,2,0,P|372:272|381:310,1,113.333333333333,2|0,0:0|0:0,0:0:0:0:
381,310,17889,6,0,L|512:340,1,113.333333333333,2|0,0:0|0:0,0:0:0:0:
460,292,18232,2,0,L|329:262,1,113.333333333333,2|0,0:0|0:0,0:0:0:0:
400,244,18575,2,0,L|530:273,1,113.333333333333,2|0,0:0|0:0,0:0:0:0:
472,224,18918,2,0,L|361:198,1,113.333333333333,2|0,0:0|0:0,0:0:0:0:
304,188,19261,6,0,P|288:132|308:72,1,113.333333333333,2|2,0:0|0:0,0:0:0:0:
360,68,19603,2,0,P|308:82|252:66,1,113.333333333333,2|2,0:0|0:0,0:0:0:0:
252,66,19946,2,0,L|184:168,1,113.333333333333,2|2,0:0|0:0,0:0:0:0:
160,208,20289,2,0,P|206:234|235:285,1,113.333333333333,2|2,0:0|0:0,0:0:0:0:
228,340,20632,6,0,L|156:320,2,56.6666666666667,0|0|0,0:0|0:0|0:0,0:0:0:0:
284,340,20975,2,0,L|338:324,2,56.6666666666667,0|0|0,0:0|0:0|0:0,0:0:0:0:
256,288,21318,2,0,L|256:216,2,56.6666666666667,0|0|0,0:0|0:0|0:0,0:0:0:0:
212,248,21661,2,0,L|212:112,1,113.333333333333,0|0,0:0|0:0,0:0:0:0:
248,88,22003,6,0,P|288:124|360:128,1,113.333333333333,6|0,0:0|0:0,0:0:0:0:
388,96,22346,2,0,P|445:103|485:139,1,113.333333333333,8|0,0:0|0:0,0:0:0:0:
460,192,22689,1,2,0:0:0:0:
440,244,22803,1,0,0:0:0:0:
416,296,22918,1,0,0:0:0:0:
384,344,23032,2,0,P|326:336|286:300,1,113.333333333333,8|0,0:0|0:0,0:0:0:0:
312,252,23375,6,0,L|198:292,1,113.333333333333,2|0,0:0|0:0,0:0:0:0:
156,260,23718,2,0,L|270:220,1,113.333333333333,8|0,0:0|0:0,0:0:0:0:
276,168,24061,2,0,L|161:207,1,113.333333333333,2|0,0:0|0:0,0:0:0:0:
124,168,24403,2,0,L|238:128,1,113.333333333333,8|0,0:0|0:0,0:0:0:0:
276,168,24746,1,2,0:0:0:0:
420,84,25089,6,0,P|364:52|296:72,1,113.333333333333,8|0,0:0|0:0,0:0:0:0:
296,112,25432,2,0,P|336:128|364:112,2,56.6666666666667,2|0|0,0:0|0:0|0:0,0:0:0:0:
264,64,25775,1,8,0:0:0:0:
152,64,26003,6,0,P|120:140|140:228,1,170,0|0,0:0|0:0,0:0:0:0:
137,224,26461,2,0,P|77:240|49:288,1,113.333333333333,8|0,0:0|0:0,0:0:0:0:
108,280,26803,2,0,P|168:264|196:216,1,113.333333333333,2|0,0:0|0:0,0:0:0:0:
184,168,27146,2,0,L|204:288,1,113.333333333333,8|0,0:0|0:0,0:0:0:0:
212,336,27489,6,0,P|273:341|316:305,1,113.333333333333,2|0,0:0|0:0,0:0:0:0:
348,268,27832,2,0,P|396:262|447:297,1,113.333333333333,8|0,0:0|0:0,0:0:0:0:
424,348,28175,2,0,P|380:356|356:344,2,56.6666666666667,2|0|0,0:0|0:0|0:0,0:0:0:0:
447,298,28518,2,0,L|455:154,1,113.333333333333,8|0,0:0|0:0,0:0:0:0:
452,128,28861,6,0,P|388:136|356:176,1,113.333333333333,2|0,0:0|0:0,0:0:0:0:
308,200,29203,2,0,P|264:215|205:190,1,113.333333333333,8|0,0:0|0:0,0:0:0:0:
176,240,29546,2,0,L|236:136,1,113.333333333333,2|0,0:0|0:0,0:0:0:0:
256,88,29889,2,0,P|197:63|153:78,1,113.333333333333,8|0,0:0|0:0,0:0:0:0:
132,24,30232,6,0,L|75:122,1,113.333333333333,2|0,0:0|0:0,0:0:0:0:
48,172,30575,2,0,P|77:229|120:245,1,113.333333333333,8|0,0:0|0:0,0:0:0:0:
176,240,30918,1,2,0:0:0:0:
232,224,31032,1,0,0:0:0:0:
288,208,31146,1,0,0:0:0:0:
344,192,31261,1,8,0:0:0:0:
408,268,31489,5,0,0:0:0:0:
381,274,31603,2,0,L|272:304,1,113.333333333333,2|0,0:0|0:0,0:0:0:0:
316,340,31946,2,0,L|425:310,1,113.333333333333,10|2,0:0|0:0,0:0:0:0:
480,292,32289,2,0,L|488:156,1,113.333333333333,2|2,0:0|0:0,0:0:0:0:
448,220,32632,2,0,L|441:333,1,113.333333333333,8|0,0:0|0:0,0:0:0:0:
392,304,32975,6,0,L|398:190,1,113.333333333333,0|0,0:0|0:0,0:0:0:0:
400,152,33318,1,8,0:0:0:0:
392,96,33432,1,0,0:0:0:0:
344,64,33546,1,0,0:0:0:0:
288,60,33661,2,0,P|232:80|208:132,1,113.333333333333,2|0,0:0|0:0,0:0:0:0:
196,180,34003,2,0,P|252:160|275:114,1,113.333333333333,8|0,0:0|0:0,0:0:0:0:
275,114,34346,6,0,L|152:96,1,113.333333333333,2|0,0:0|0:0,0:0:0:0:
112,76,34689,2,0,L|68:36,2,56.6666666666667,8|0|0,0:0|0:0|0:0,0:0:0:0:
152,116,35032,2,0,L|44:184,1,113.333333333333,2|0,0:0|0:0,0:0:0:0:
100,212,35375,2,0,L|208:280,1,113.333333333333,8|2,0:0|0:0,0:0:0:0:
140,276,35718,6,0,L|267:280,1,113.333333333333,2|0,0:0|0:0,0:0:0:0:
312,284,36061,1,8,0:0:0:0:
424,288,36289,1,0,0:0:0:0:
424,288,36403,2,0,P|376:252|348:200,1,113.333333333333,2|0,0:0|0:0,0:0:0:0:
348,148,36746,2,0,P|297:179|264:229,1,113.333333333333,8|0,0:0|0:0,0:0:0:0:
240,272,37089,6,0,L|252:128,1,113.333333333333,2|0,0:0|0:0,0:0:0:0:
196,148,37432,2,0,P|243:110|300:97,1,113.333333333333,8|0,0:0|0:0,0:0:0:0:
352,104,37775,2,0,L|238:96,1,113.333333333333,2|2,0:0|0:0,0:0:0:0:
196,56,38118,2,0,L|309:63,1,113.333333333333,10|0,0:0|0:0,0:0:0:0:
352,68,38461,6,0,P|420:88|440:136,1,113.333333333333,0|0,0:0|0:0,0:0:0:0:
436,180,38803,1,8,0:0:0:0:
428,236,38918,1,0,0:0:0:0:
420,292,39032,1,0,0:0:0:0:
404,348,39146,2,0,P|336:328|316:280,1,113.333333333333,2|0,0:0|0:0,0:0:0:0:
284,340,39489,2,0,L|272:220,1,113.333333333333,8|2,0:0|0:0,0:0:0:0:
300,176,39832,6,0,P|232:196|212:244,1,113.333333333333,2|0,0:0|0:0,0:0:0:0:
176,272,40175,1,8,0:0:0:0:
124,292,40289,1,0,0:0:0:0:
72,268,40403,1,0,0:0:0:0:
52,216,40518,2,0,L|64:96,1,113.333333333333,2|0,0:0|0:0,0:0:0:0:
100,60,40861,2,0,L|88:180,1,113.333333333333,8|2,0:0|0:0,0:0:0:0:
124,216,41203,6,0,P|164:168|164:116,1,113.333333333333,2|0,0:0|0:0,0:0:0:0:
128,76,41546,1,8,0:0:0:0:
240,84,41775,1,0,0:0:0:0:
264,136,41889,1,2,0:0:0:0:
308,172,42003,1,0,0:0:0:0:
364,188,42118,1,0,0:0:0:0:
420,176,42232,2,0,P|428:108|404:52,1,113.333333333333,8|0,0:0|0:0,0:0:0:0:
372,64,42575,6,0,L|280:148,1,113.333333333333,2|0,0:0|0:0,0:0:0:0:
223,140,42918,2,0,L|140:64,1,113.333333333333,8|2,0:0|0:0,0:0:0:0:
256,32,43261,2,0,L|256:224,1,170,2|0,0:0|0:0,0:0:0:0:
104,280,43946,6,0,L|216:328,1,113.333333333333,6|0,0:0|0:0,0:0:0:0:
264,316,44289,2,0,P|328:324|372:300,1,113.333333333333,8|0,0:0|0:0,0:0:0:0:
412,264,44632,2,0,P|380:229|371:165,1,113.333333333333,2|0,0:0|0:0,0:0:0:0:
392,108,44975,2,0,P|423:142|432:206,1,113.333333333333,8|0,0:0|0:0,0:0:0:0:
432,206,45318,6,0,L|280:180,1,113.333333333333,2|0,0:0|0:0,0:0:0:0:
280,148,45661,2,0,L|432:174,1,113.333333333333,8|0,0:0|0:0,0:0:0:0:
352,124,46003,2,0,L|199:97,1,113.333333333333,2|0,0:0|0:0,0:0:0:0:
184,96,46346,1,8,0:0:0:0:
344,36,46689,6,0,L|230:81,1,113.333333333333,2|0,0:0|0:0,0:0:0:0:
184,96,47032,2,0,P|133:135|118:183,1,113.333333333333,8|0,0:0|0:0,0:0:0:0:
76,220,47375,2,0,P|122:221|174:260,1,113.333333333333,2|0,0:0|0:0,0:0:0:0:
200,312,47718,2,0,P|153:310|101:271,1,113.333333333333,8|0,0:0|0:0,0:0:0:0:
140,228,48061,6,0,L|266:138,1,113.333333333333,2|0,0:0|0:0,0:0:0:0:
280,192,48403,2,0,L|153:281,1,113.333333333333,8|0,0:0|0:0,0:0:0:0:
232,292,48746,2,0,L|358:202,1,113.333333333333,2|0,0:0|0:0,0:0:0:0:
360,272,49089,1,8,0:0:0:0:
508,352,49432,6,0,L|462:238,1,113.333333333333,2|0,0:0|0:0,0:0:0:0:
412,228,49775,2,0,P|404:164|427:120,1,113.333333333333,8|0,0:0|0:0,0:0:0:0:
472,88,50118,2,0,P|437:119|373:128,1,113.333333333333,2|0,0:0|0:0,0:0:0:0:
324,104,50461,2,0,P|358:72|422:63,1,113.333333333333,8|0,0:0|0:0,0:0:0:0:
396,116,50803,6,0,L|300:184,1,113.333333333333,2|0,0:0|0:0,0:0:0:0:
252,208,51146,2,0,L|288:96,1,113.333333333333,8|0,0:0|0:0,0:0:0:0:
232,92,51489,2,0,L|136:180,1,113.333333333333,2|0,0:0|0:0,0:0:0:0:
108,208,51832,1,8,0:0:0:0:
0,248,52175,6,0,L|112:296,1,113.333333333333,2|0,0:0|0:0,0:0:0:0:
160,300,52518,2,0,P|210:339|225:387,1,113.333333333333,8|0,0:0|0:0,0:0:0:0:
172,360,52861,2,0,P|200:316|256:284,1,113.333333333333,2|0,0:0|0:0,0:0:0:0:
304,296,53203,2,0,P|350:294|402:255,1,113.333333333333,8|0,0:0|0:0,0:0:0:0:
344,248,53546,6,0,L|275:152,1,113.333333333333,2|0,0:0|0:0,0:0:0:0:
332,172,53889,2,0,L|263:76,1,113.333333333333,8|0,0:0|0:0,0:0:0:0:
349,106,54232,2,0,L|280:10,1,113.333333333333,2|2,0:0|0:0,0:0:0:0:
228,24,54575,1,2,0:0:0:0:
120,56,54803,5,0,0:0:0:0:
120,56,54918,1,0,0:0:0:0:
120,56,55261,6,0,P|76:96|4:100,1,113.333333333333,8|0,0:0|0:0,0:0:0:0:
44,156,55603,2,0,P|103:158|157:206,1,113.333333333333,2|0,0:0|0:0,0:0:0:0:
112,232,55946,2,0,L|-12:248,1,113.333333333333,8|0,0:0|0:0,0:0:0:0:
16,300,56289,2,0,L|140:284,1,113.333333333333,2|0,0:0|0:0,0:0:0:0:
184,288,56632,2,0,P|224:332|228:404,1,113.333333333333,8|0,0:0|0:0,0:0:0:0:
276,348,56975,2,0,L|291:235,1,113.333333333333,2|0,0:0|0:0,0:0:0:0:
300,180,57318,1,8,0:0:0:0:
164,76,57661,6,0,P|98:84|59:124,1,113.333333333333,2|0,0:0|0:0,0:0:0:0:
108,152,58003,2,0,P|160:192|215:192,1,113.333333333333,8|0,0:0|0:0,0:0:0:0:
208,252,58346,2,0,B|329:220,1,113.333333333333,2|0,0:0|0:0,0:0:0:0:
316,172,58689,2,0,P|361:174|413:214,1,113.333333333333,8|0,0:0|0:0,0:0:0:0:
408,272,59032,6,0,B|472:164,1,113.333333333333,2|0,0:0|0:0,0:0:0:0:
488,124,59375,2,0,P|436:84|390:81,1,113.333333333333,8|0,0:0|0:0,0:0:0:0:
332,84,59718,2,0,P|291:104|226:96,1,113.333333333333,2|0,0:0|0:0,0:0:0:0:
176,68,60061,1,8,0:0:0:0:
8,76,60403,6,0,P|68:88|96:148,1,113.333333333333,2|0,0:0|0:0,0:0:0:0:
40,144,60746,2,0,L|112:232,1,113.333333333333,8|0,0:0|0:0,0:0:0:0:
56,240,61089,2,0,P|82:281|142:293,1,113.333333333333,2|0,0:0|0:0,0:0:0:0:
196,272,61432,2,0,P|236:226|285:223,1,113.333333333333,8|0,0:0|0:0,0:0:0:0:
340,240,61775,6,0,L|296:360,1,113.333333333333,2|0,0:0|0:0,0:0:0:0:
356,328,62118,2,0,L|400:208,1,113.333333333333,8|0,0:0|0:0,0:0:0:0:
408,164,62461,2,0,P|384:120|320:100,1,113.333333333333,2|0,0:0|0:0,0:0:0:0:
272,96,62803,1,8,0:0:0:0:
112,36,63146,6,0,P|88:104|92:160,1,113.333333333333,2|0,0:0|0:0,0:0:0:0:
36,168,63489,2,0,P|104:192|160:188,1,113.333333333333,8|0,0:0|0:0,0:0:0:0:
116,240,63832,2,0,P|181:208|217:166,1,113.333333333333,2|0,0:0|0:0,0:0:0:0:
256,212,64175,2,0,L|256:328,1,113.333333333333,8|0,0:0|0:0,0:0:0:0:
232,376,64518,6,0,L|184:332,2,56.6666666666667,0|0|0,0:0|0:0|0:0,0:0:0:0:
280,376,64861,2,0,L|328:332,2,56.6666666666667,0|0|0,0:0|0:0|0:0,0:0:0:0:
256,324,65203,2,0,L|256:260,2,56.6666666666667,0|0|0,0:0|0:0|0:0,0:0:0:0:
224,276,65546,2,0,L|224:136,1,113.333333333333,0|0,0:0|0:0,0:0:0:0:
256,116,65889,5,6,0:0:0:0:
256,192,71375,12,0,76518,0:0:0:0:
128,52,76861,6,0,P|104:104|104:160,1,113.333333333333,6|0,0:0|0:0,0:0:0:0:
56,192,77203,2,0,P|113:187|165:206,1,113.333333333333,8|0,0:0|0:0,0:0:0:0:
200,252,77546,1,0,0:0:0:0:
240,292,77661,1,0,0:0:0:0:
296,308,77775,1,0,0:0:0:0:
352,312,77889,2,0,P|407:302|454:269,1,113.333333333333,8|0,0:0|0:0,0:0:0:0:
444,328,78232,6,0,L|460:216,1,113.333333333333,0|0,0:0|0:0,0:0:0:0:
411,183,78575,2,0,L|396:296,1,113.333333333333,8|0,0:0|0:0,0:0:0:0:
356,256,78918,2,0,L|371:143,1,113.333333333333,0|0,0:0|0:0,0:0:0:0:
384,88,79261,2,0,P|336:56|276:52,1,113.333333333333,8|0,0:0|0:0,0:0:0:0:
308,100,79603,6,0,P|273:53|218:29,1,113.333333333333,0|0,0:0|0:0,0:0:0:0:
236,88,79946,2,0,P|184:106|127:97,1,113.333333333333,8|0,0:0|0:0,0:0:0:0:
76,76,80289,2,0,L|40:28,2,56.6666666666667,0|0|0,0:0|0:0|0:0,0:0:0:0:
56,128,80632,1,8,0:0:0:0:
4,228,80861,6,0,P|68:220|136:296,1,170,0|0,0:0|0:0,0:0:0:0:
80,308,81318,2,0,L|196:272,1,113.333333333333,8|0,0:0|0:0,0:0:0:0:
240,300,81661,2,0,L|124:336,1,113.333333333333,0|0,0:0|0:0,0:0:0:0:
164,380,82003,2,0,L|280:344,1,113.333333333333,8|0,0:0|0:0,0:0:0:0:
256,280,82346,6,0,L|316:168,1,113.333333333333,2|0,0:0|0:0,0:0:0:0:
256,280,82689,2,0,L|196:168,1,113.333333333333,2|0,0:0|0:0,0:0:0:0:
256,156,83032,2,0,L|256:99,5,56.6666666666667,0|0|0|0|0|0,0:0|0:0|0:0|0:0|0:0|0:0,0:0:0:0:
256,44,83718,6,0,L|316:156,1,113.333333333333,2|0,0:0|0:0,0:0:0:0:
256,44,84061,2,0,L|196:156,1,113.333333333333,2|0,0:0|0:0,0:0:0:0:
256,156,84403,2,0,L|256:212,5,56.6666666666667,0|0|0|0|0|0,0:0|0:0|0:0|0:0|0:0|0:0,0:0:0:0:
224,264,85089,6,0,L|176:208,2,56.6666666666667,2|0|2,0:0|0:0|0:0,0:0:0:0:
280,260,85432,2,0,L|360:356,1,113.333333333333,8|2,0:0|0:0,0:0:0:0:
280,260,85775,2,0,L|332:200,2,56.6666666666667,2|0|2,0:0|0:0|0:0,0:0:0:0:
224,264,86118,2,0,L|144:360,1,113.333333333333,8|2,0:0|0:0,0:0:0:0:
160,296,86461,6,0,L|204:248,2,56.6666666666667,0|0|0,0:0|0:0|0:0,0:0:0:0:
104,312,86803,2,0,L|148:264,2,56.6666666666667,0|0|0,0:0|0:0|0:0,0:0:0:0:
48,324,87146,2,0,L|92:276,2,56.6666666666667,0|0|0,0:0|0:0|0:0,0:0:0:0:
0,336,87489,2,0,L|92:232,1,113.333333333333,0|0,0:0|0:0,0:0:0:0:
116,212,87832,6,0,P|76:176|4:172,1,113.333333333333,6|0,0:0|0:0,0:0:0:0:
18,168,88175,2,0,P|8:84|28:52,1,113.333333333333,8|0,0:0|0:0,0:0:0:0:
56,20,88518,1,2,0:0:0:0:
112,16,88632,1,0,0:0:0:0:
156,48,88746,1,0,0:0:0:0:
204,80,88861,2,0,P|262:72|302:36,1,113.333333333333,8|0,0:0|0:0,0:0:0:0:
272,84,89203,6,0,L|386:44,1,113.333333333333,2|0,0:0|0:0,0:0:0:0:
368,104,89546,2,0,L|254:144,1,113.333333333333,8|0,0:0|0:0,0:0:0:0:
232,192,89889,2,0,L|347:153,1,113.333333333333,2|0,0:0|0:0,0:0:0:0:
392,180,90232,2,0,L|278:220,1,113.333333333333,8|0,0:0|0:0,0:0:0:0:
228,232,90575,1,2,0:0:0:0:
92,300,90918,6,0,P|148:332|216:312,1,113.333333333333,8|0,0:0|0:0,0:0:0:0:
216,272,91261,2,0,P|176:256|148:272,2,56.6666666666667,2|0|0,0:0|0:0|0:0,0:0:0:0:
248,320,91603,1,8,0:0:0:0:
352,368,91832,6,0,P|384:292|364:204,1,170,0|0,0:0|0:0,0:0:0:0:
376,160,92289,2,0,P|436:144|464:96,1,113.333333333333,8|0,0:0|0:0,0:0:0:0:
404,104,92632,2,0,P|344:120|316:168,1,113.333333333333,2|0,0:0|0:0,0:0:0:0:
328,216,92975,2,0,L|308:96,1,113.333333333333,8|0,0:0|0:0,0:0:0:0:
300,48,93318,6,0,P|239:43|196:79,1,113.333333333333,2|0,0:0|0:0,0:0:0:0:
164,116,93661,2,0,P|116:122|65:87,1,113.333333333333,8|0,0:0|0:0,0:0:0:0:
88,36,94003,2,0,P|132:28|156:40,2,56.6666666666667,2|0|0,0:0|0:0|0:0,0:0:0:0:
65,86,94346,2,0,L|57:230,1,113.333333333333,8|0,0:0|0:0,0:0:0:0:
60,256,94689,6,0,P|124:248|156:208,1,113.333333333333,2|0,0:0|0:0,0:0:0:0:
204,200,95032,2,0,P|248:215|307:190,1,113.333333333333,8|0,0:0|0:0,0:0:0:0:
336,144,95375,2,0,L|276:248,1,113.333333333333,2|0,0:0|0:0,0:0:0:0:
256,296,95718,2,0,P|315:321|359:306,1,113.333333333333,8|0,0:0|0:0,0:0:0:0:
380,360,96061,6,0,L|437:262,1,113.333333333333,2|0,0:0|0:0,0:0:0:0:
464,212,96403,2,0,P|435:155|392:139,1,113.333333333333,8|0,0:0|0:0,0:0:0:0:
336,144,96746,1,2,0:0:0:0:
280,160,96861,1,0,0:0:0:0:
224,176,96975,1,0,0:0:0:0:
168,192,97089,1,8,0:0:0:0:
104,116,97318,5,0,0:0:0:0:
131,110,97432,2,0,L|240:80,1,113.333333333333,2|0,0:0|0:0,0:0:0:0:
196,44,97775,2,0,L|87:74,1,113.333333333333,8|2,0:0|0:0,0:0:0:0:
32,92,98118,2,0,L|24:228,1,113.333333333333,2|2,0:0|0:0,0:0:0:0:
64,164,98461,2,0,L|71:51,1,113.333333333333,8|0,0:0|0:0,0:0:0:0:
120,80,98803,6,0,L|112:192,1,96.3333351707459,2|0,0:0|0:0,0:0:0:0:
112,232,99146,1,8,0:0:0:0:
120,288,99261,1,0,0:0:0:0:
164,320,99375,1,0,0:0:0:0:
224,324,99489,2,0,P|280:304|304:252,1,113.333333333333,2|0,0:0|0:0,0:0:0:0:
316,204,99832,2,0,P|260:224|237:270,1,113.333333333333,8|2,0:0|0:0,0:0:0:0:
237,270,100175,6,0,L|360:288,1,113.333333333333,2|0,0:0|0:0,0:0:0:0:
400,308,100518,2,0,L|444:348,2,56.6666666666667,8|0|0,0:0|0:0|0:0,0:0:0:0:
360,268,100861,2,0,L|468:200,1,113.333333333333,2|0,0:0|0:0,0:0:0:0:
412,172,101203,2,0,L|304:104,1,113.333333333333,8|0,0:0|0:0,0:0:0:0:
372,108,101546,6,0,L|245:104,1,113.333333333333,2|0,0:0|0:0,0:0:0:0:
200,100,101889,1,8,0:0:0:0:
88,96,102118,1,0,0:0:0:0:
88,96,102232,2,0,P|136:132|164:184,1,113.333333333333,2|0,0:0|0:0,0:0:0:0:
164,236,102575,2,0,P|215:205|248:155,1,113.333333333333,8|0,0:0|0:0,0:0:0:0:
272,112,102918,6,0,L|260:256,1,113.333333333333,2|0,0:0|0:0,0:0:0:0:
316,236,103261,2,0,P|269:274|212:287,1,113.333333333333,8|0,0:0|0:0,0:0:0:0:
160,280,103603,2,0,L|274:288,1,113.333333333333,2|2,0:0|0:0,0:0:0:0:
316,328,103946,2,0,L|203:321,1,113.333333333333,10|2,0:0|0:0,0:0:0:0:
160,316,104289,6,0,P|92:296|72:248,1,113.333333333333,2|0,0:0|0:0,0:0:0:0:
76,204,104632,1,8,0:0:0:0:
84,148,104746,1,0,0:0:0:0:
92,92,104861,1,0,0:0:0:0:
108,36,104975,2,0,P|176:56|196:104,1,113.333333333333,2|0,0:0|0:0,0:0:0:0:
228,44,105318,2,0,L|240:164,1,113.333333333333,8|0,0:0|0:0,0:0:0:0:
212,208,105661,6,0,P|280:188|300:140,1,113.333333333333,2|0,0:0|0:0,0:0:0:0:
336,112,106003,1,8,0:0:0:0:
388,92,106118,1,0,0:0:0:0:
440,116,106232,1,0,0:0:0:0:
460,168,106346,2,0,L|448:288,1,113.333333333333,2|0,0:0|0:0,0:0:0:0:
412,324,106689,2,0,L|424:204,1,113.333333333333,8|2,0:0|0:0,0:0:0:0:
388,168,107032,6,0,P|348:216|348:268,1,113.333333333333,2|0,0:0|0:0,0:0:0:0:
384,308,107375,1,0,0:0:0:0:
264,316,107603,1,0,0:0:0:0:
212,292,107718,1,2,0:0:0:0:
164,268,107832,1,0,0:0:0:0:
116,240,107946,1,0,0:0:0:0:
64,220,108061,2,0,P|56:288|108:332,1,113.333333333333,0|2,0:0|0:0,0:0:0:0:
140,320,108403,6,0,L|232:236,1,113.333333333333,2|2,0:0|0:0,0:0:0:0:
289,244,108746,2,0,L|372:320,1,113.333333333333,2|2,0:0|0:0,0:0:0:0:
256,352,109089,2,0,L|256:152,1,170,2|0,0:0|0:0,0:0:0:0:
256,12,109775,5,4,0:0:0:0:
