osu file format v13

[General]
AudioFilename: Kors K - Dot.mp3
AudioLeadIn: 0
PreviewTime: 216492
Countdown: 0
SampleSet: Soft
StackLeniency: 0.7
Mode: 0
LetterboxInBreaks: 1
WidescreenStoryboard: 0

[Editor]
Bookmarks: 14635,28092,41549,55006,68463,81920,95377,108835,122292,134067,149206,162663,176120,189578,203035,216492,229949,243406,256863,270320,283778,297235,314056,327513,340971,354428,367885,381342,394799,408256
DistanceSpacing: 0.8
BeatDivisor: 4
GridSize: 4
TimelineZoom: 1.4

[Metadata]
Title:Dot
TitleUnicode:Dot
Artist:kors k
ArtistUnicode:kors k
Creator:Reiji-RJ
Version:korzhik
Source:
Tags:ultra abunai cubegrams psy-trance icebeam collab
BeatmapID:441616
BeatmapSetID:184484

[Difficulty]
HPDrainRate:7
CircleSize:5
OverallDifficulty:7
ApproachRate:8.5
SliderMultiplier:1.4
SliderTickRate:1

[Events]
//Background and Video events
0,0,"bg.jpg",0,0
//Break Periods
2,109042,114895
2,115770,119942
2,134274,135081
2,216699,228860
//Storyboard Layer 0 (Background)
//Storyboard Layer 1 (Fail)
//Storyboard Layer 2 (Pass)
//Storyboard Layer 3 (Foreground)
//Storyboard Sound Samples
//Background Colour Transformations
3,100,163,162,255

[TimingPoints]
1169,421.052631578947,4,2,1,60,1,0
1169,-200,4,2,1,60,0,0
1379,-200,4,2,1,5,0,0
14642,420.536183634133,4,2,1,30,1,0
14642,-200,4,2,1,30,0,0
14852,-200,4,2,1,20,0,0
18006,-200,4,2,1,15,0,0
21370,-200,4,2,1,30,0,0
22001,-200,4,2,1,20,0,0
24734,-200,4,2,1,15,0,0
26417,-200,4,2,1,25,0,0
28099,-200,4,2,1,40,0,0
28519,-200,4,2,1,15,0,0
34196,-200,4,2,1,30,0,0
34827,-200,4,2,1,15,0,0
35248,-200,4,2,1,20,0,0
35353,-200,4,2,1,15,0,0
38192,-200,4,2,1,40,0,0
39874,-200,4,2,1,45,0,0
41135,-200,4,2,1,60,0,0
41556,-133.333333333333,4,2,1,30,0,0
48284,-200,4,2,1,30,0,0
48705,-200,4,2,1,20,0,0
51649,-200,4,2,1,15,0,0
52279,-200,4,2,1,20,0,0
53331,-200,4,2,1,30,0,0
55013,-100,4,2,1,50,0,0
57536,-133.333333333333,4,2,1,50,0,0
57957,-83.3333333333333,4,2,1,50,0,0
58377,-100,4,2,1,50,0,0
60585,-100,4,2,1,30,0,0
60900,-83.3333333333333,4,1,1,50,0,0
61742,-100,4,2,1,50,0,0
63003,-83.3333333333333,4,1,1,50,0,0
63424,-133.333333333333,4,2,1,50,0,0
63844,-100,4,2,1,50,0,0
64685,-100,4,1,1,50,0,0
65001,-100,4,2,1,50,0,0
66473,-100,4,2,1,30,0,0
66578,-100,4,2,1,50,0,0
66683,-100,4,2,1,30,0,0
66788,-100,4,2,1,50,0,0
67839,-100,4,2,1,30,0,0
68050,-200,4,1,1,50,0,0
68470,-100,4,2,1,50,0,0
68470,-100,4,2,1,50,0,0
69311,-83.3333333333333,4,2,1,50,0,0
69732,-100,4,2,1,50,0,0
69837,-100,4,2,1,40,0,0
70047,-100,4,2,1,50,0,0
70993,-83.3333333333333,4,2,1,50,0,0
71834,-100,4,2,1,50,0,0
72675,-200,4,2,1,50,0,0
73517,-100,4,2,1,50,0,0
74358,-100,4,2,1,45,0,0
74673,-100,4,2,1,40,0,0
75199,-100,4,2,1,50,0,0
76460,-83.3333333333333,4,2,1,50,0,0
76881,-100,4,2,1,50,0,0
78563,-200,4,2,1,30,0,0
79404,-200,4,2,1,40,0,0
79930,-200,4,2,1,45,0,0
80245,-100,4,2,1,50,0,0
80245,-100,4,2,1,50,0,0
81507,-133.333333333333,4,2,1,50,0,0
81927,-100,4,2,1,50,0,0
83189,-83.3333333333333,4,2,1,50,0,0
83609,-100,4,2,1,50,0,0
84871,-83.3333333333333,4,2,1,50,0,0
85292,-100,4,2,1,50,0,0
86763,-133.333333333333,4,2,1,50,0,0
87184,-100,4,2,1,50,0,0
88235,-200,4,2,1,50,0,0
88656,-100,4,2,1,50,0,0
89917,-83.3333333333333,4,2,1,50,0,0
90338,-100,4,2,1,50,0,0
91600,-83.3333333333333,4,2,1,50,0,0
92020,-100,4,2,1,50,0,0
94543,-83.3333333333333,4,1,1,50,0,0
95384,-100,4,2,1,50,0,0
96015,-100,4,2,1,70,0,0
96120,-100,4,2,1,50,0,0
96646,-83.3333333333333,4,2,1,50,0,0
97067,-100,4,2,1,50,0,0
97697,-83.3333333333333,4,2,1,70,0,0
97803,-83.3333333333333,4,2,1,50,0,0
99380,-83.3333333333333,4,2,1,70,0,0
99485,-83.3333333333333,4,2,1,50,0,0
100431,-100,4,2,1,50,0,0
101062,-100,4,2,1,70,0,0
101167,-100,4,2,1,50,0,0
101692,-133.333333333333,4,2,1,30,0,0
102113,-83.3333333333333,4,2,1,30,0,0
103585,-83.3333333333333,4,2,1,35,0,0
105477,-83.3333333333333,4,1,1,40,0,0
105898,-83.3333333333333,4,1,1,45,0,0
106318,-83.3333333333333,4,1,1,50,0,0
107159,-83.3333333333333,4,1,1,30,0,0
108842,-200,4,1,1,40,0,0
122509,-200,4,1,1,20,0,0
124191,-200,4,1,1,40,0,0
125873,-200,4,1,1,20,0,0
127345,-200,4,1,1,40,0,0
129553,-200,4,1,1,20,0,0
130709,-200,4,1,1,40,0,0
135756,-200,4,1,1,25,0,0
149213,-133.333333333333,4,1,1,40,0,0
150895,-133.333333333333,4,1,1,45,0,0
152577,-133.333333333333,4,1,1,50,0,0
155942,-133.333333333333,4,1,1,45,0,0
157624,-133.333333333333,4,1,1,40,0,0
159306,-133.333333333333,4,1,1,35,0,0
160988,-133.333333333333,4,1,1,40,0,0
176127,-100,4,1,1,50,0,0
177389,-133.333333333333,4,1,1,40,0,0
177810,-100,4,1,1,40,0,0
179071,-133.333333333333,4,1,1,40,0,0
179492,-100,4,1,1,40,0,0
180753,-133.333333333333,4,1,1,40,0,0
181174,-100,4,1,1,40,0,0
184118,-133.333333333333,4,1,1,40,0,0
184538,-100,4,1,1,40,0,0
186220,-200,4,1,1,45,0,1
189164,-133.333333333333,4,1,1,50,0,0
189585,-83.3333333333333,4,1,1,50,0,1
196313,-83.3333333333333,4,1,1,30,0,0
196523,-83.3333333333333,4,1,1,40,0,0
196629,-83.3333333333333,4,1,1,40,0,0
196734,-83.3333333333333,4,1,1,50,0,1
203042,-83.3333333333333,4,1,1,50,0,0
209770,-133.333333333333,4,1,1,50,0,0
210191,-83.3333333333333,4,1,1,45,0,0
211452,-83.3333333333333,4,1,1,40,0,0
213135,-100,4,1,1,60,0,0
213976,-100,4,1,1,50,0,0
216499,-100,4,1,1,50,0,1
216604,-100,4,1,1,20,0,0
229956,-200,4,1,1,40,0,0
230061,-200,4,2,1,20,0,0
256870,-133.333333333333,4,2,1,30,0,0
269486,-200,4,2,1,30,0,0
270327,-133.333333333333,4,2,1,25,0,0
273692,-133.333333333333,4,2,1,30,0,0
277056,-133.333333333333,4,2,1,45,0,0
280420,-133.333333333333,4,2,1,40,0,0
283785,-133.333333333333,4,1,1,35,0,0
285467,-133.333333333333,4,1,1,40,0,0
287149,-133.333333333333,4,1,1,45,0,0
288831,-133.333333333333,4,1,1,50,0,0
290513,-100,4,2,1,55,0,0
296401,-100,4,2,1,20,0,0
297242,-100,4,1,1,50,0,1
297347,-100,4,1,1,50,0,0
310699,-100,4,1,1,50,0,1
310804,-100,4,1,1,45,0,0
314063,-66.6666666666667,4,1,1,55,0,1
339295,-66.6666666666667,4,1,1,60,0,0
340978,-66.6666666666667,4,1,1,60,0,1
354330,-66.6666666666667,4,1,1,60,0,0
354435,-66.6666666666667,4,1,1,60,0,1
366210,-66.6666666666667,4,1,1,50,0,0
367892,-100,4,1,1,60,0,1
367997,-100,4,1,1,45,0,0
368838,-83.3333333333333,4,1,1,45,0,0
369574,-100,4,1,1,45,0,0
370415,-83.3333333333333,4,1,1,45,0,0
371256,-100,4,1,1,45,0,0
372097,-83.3333333333333,4,1,1,45,0,0
372938,-100,4,1,1,45,0,0
373779,-83.3333333333333,4,1,1,45,0,0
374620,-100,4,1,1,45,0,0
382190,-83.3333333333333,4,1,1,45,0,0
383031,-100,4,1,1,45,0,0
383872,-83.3333333333333,4,1,1,45,0,0
384713,-100,4,1,1,45,0,0
385554,-83.3333333333333,4,1,1,45,0,0
386395,-100,4,1,1,45,0,0
387237,-83.3333333333333,4,1,1,45,0,0
388078,-100,4,1,1,45,0,0
393124,-100,4,1,1,30,0,0
393545,-100,4,1,1,35,0,0
393965,-100,4,1,1,40,0,0
394386,-100,4,1,1,45,0,0
394806,-133.333333333333,4,1,1,45,0,0
401535,-133.333333333333,4,1,1,40,0,0
403217,-133.333333333333,4,1,1,35,0,0
404899,-133.333333333333,4,1,1,30,0,0
405740,-133.333333333333,4,1,1,25,0,0
406581,-133.333333333333,4,1,1,20,0,0
407422,-133.333333333333,4,1,1,30,0,0

[Colours]
Combo1 : 213,240,15
Combo2 : 82,52,169
Combo3 : 157,64,108

[HitObjects]
108,76,1169,6,0,L|180:72,1,70,4|0,1:0|0:0,0:0:0:0:
224,164,2011,2,0,L|148:168,1,70
56,224,2853,2,0,P|44:188|44:148,1,70
154,168,3695,2,0,P|166:204|166:244,1,70
236,320,4537,6,0,B|268:332|268:332|304:324,1,70
368,244,5379,2,0,B|336:232|336:232|300:240,1,70
180,220,6221,2,0,P|164:184|164:148,1,70
272,64,7063,2,0,P|269:98|255:130,1,70
284,216,7905,21,0,0:0:0:0:
352,184,8326,1,0,0:0:0:0:
420,252,8747,2,0,L|350:259,1,70
172,280,9590,5,0,0:0:0:0:
104,248,10011,1,0,0:0:0:0:
36,316,10432,2,0,L|105:323,1,70
304,336,11274,22,0,L|312:260,1,70
216,224,12116,2,0,L|208:300,1,70
396,308,12958,1,0,0:0:0:0:
472,292,13379,1,0,0:0:0:0:
456,216,13800,1,0,0:0:0:0:
380,232,14221,1,0,0:0:0:0:
248,64,14642,6,0,L|168:60,1,70,4|0,0:0|0:0,0:0:0:0:
160,88,15272,1,2,0:0:0:0:
160,88,15903,1,2,0:0:0:0:
172,176,16113,1,0,0:0:0:0:
472,184,16954,1,2,0:0:0:0:
472,184,17165,2,0,L|464:264,1,70,0|2,0:0|0:0,0:0:0:0:
456,276,17796,1,0,0:0:0:0:
448,300,18006,21,0,0:0:0:0:
352,280,18426,1,0,0:0:0:0:
256,324,18847,1,0,0:0:0:0:
160,304,19267,1,0,0:0:0:0:
60,344,19688,2,0,L|48:260,1,70
168,232,20529,2,0,L|160:308,1,70
68,88,21370,5,0,1:0:0:0:
68,88,21791,1,0,1:0:0:0:
232,104,22001,2,0,L|340:92,1,105,2|2,0:0|0:0,0:0:0:0:
352,112,22842,1,0,0:0:0:0:
368,324,23683,1,2,0:0:0:0:
368,324,23893,2,0,L|288:320,1,70,0|2,0:0|0:0,0:0:0:0:
272,336,24524,1,0,0:0:0:0:
244,348,24734,22,0,P|252:308|240:272,1,70
140,236,25575,2,0,P|132:276|144:312,1,70
232,192,26417,2,0,L|280:184,1,35,0|2,3:0|0:0,0:0:0:0:
308,116,26837,2,0,L|264:108,1,35,0|2,3:0|0:0,0:0:0:0:
352,188,27258,1,0,3:0:0:0:
456,256,27573,1,0,0:0:0:0:
456,256,27678,1,0,3:0:0:0:
448,328,27888,1,0,0:0:0:0:
256,308,28099,6,0,L|290:304,2,35,4|4|0,1:0|0:0|1:0,0:0:0:0:
168,332,28729,1,2,0:0:0:0:
164,336,29150,1,0,0:0:0:0:
76,296,29360,2,0,P|68:277|68:256,1,35,0|2,1:0|0:0,0:0:0:0:
104,156,29781,2,0,L|148:152,1,35
220,232,30201,2,0,L|172:228,1,35,0|2,1:0|0:0,0:0:0:0:
272,160,30622,2,0,L|348:156,1,70,0|0,0:0|1:0,0:0:0:0:
440,204,31253,1,2,0:0:0:0:
440,204,31463,22,0,P|452:172|452:136,1,70,0|0,0:0|1:0,0:0:0:0:
320,232,32304,2,0,L|328:304,1,70,0|0,0:0|1:0,0:0:0:0:
192,220,33145,2,0,L|200:148,1,70,0|0,0:0|0:0,0:0:0:0:
124,96,33776,1,0,1:0:0:0:
32,120,33986,2,0,L|0:120,2,17.5,0|0|0,0:0|0:0|1:0,0:0:0:0:
124,96,34407,1,12,1:0:0:0:
224,72,34617,2,0,L|233:73,4,5.83333333333333,0|0|0|0|0,1:0|1:0|1:0|1:0|1:0,0:0:0:0:
224,72,34827,6,0,L|300:72,1,70,2|8,0:0|1:0,0:0:0:0:
404,164,35458,1,2,0:0:0:0:
404,164,35668,2,0,L|328:164,1,70,0|0,0:0|1:0,0:0:0:0:
244,212,36299,1,2,0:0:0:0:
240,216,36720,1,0,0:0:0:0:
144,208,36930,2,0,P|144:227|152:248,1,35,0|2,1:0|0:0,0:0:0:0:
212,360,37350,2,0,P|224:324|220:288,1,70,0|0,0:0|1:0,0:0:0:0:
240,216,37981,1,2,0:0:0:0:
188,104,38192,22,0,L|136:96,2,52.5,0|2|2,1:0|0:0|0:0,0:0:0:0:
336,164,39033,2,0,L|392:156,2,52.5,0|2|2,1:0|0:0|0:0,0:0:0:0:
236,228,39874,2,0,L|196:220,2,35,0|4|0,1:0|0:0|1:0,0:0:0:0:
312,312,40504,1,2,0:0:0:0:
424,268,40715,2,0,L|444:264,2,17.5,0|0|4,1:0|0:0|0:0,0:0:0:0:
312,312,41135,22,2,B|304:307|304:307|294:311|294:311|285:304|285:304|276:309|276:309|268:303,1,52.5,4|0,0:0|0:0,0:0:0:0:
256,324,41556,22,0,B|216:300|216:300|148:308,1,105.000004005432,4|8,1:0|1:0,0:0:0:0:
76,336,42187,1,0,0:0:0:0:
36,260,42397,2,0,L|40:152,1,105.000004005432,0|8,1:0|1:0,0:0:0:0:
108,104,43028,1,0,0:0:0:0:
176,160,43238,2,0,L|172:268,1,105.000004005432,0|8,1:0|1:0,0:0:0:0:
248,316,43869,1,0,0:0:0:0:
320,264,44079,2,0,L|324:188,1,52.5000020027161,0|0,1:0|0:0,0:0:0:0:
420,260,44500,2,0,L|416:336,1,52.5000020027161,8|0,1:0|0:0,0:0:0:0:
412,160,44920,22,0,P|424:108|404:52,2,105.000004005432,0|8|0,1:0|1:0|1:0,0:0:0:0:
340,112,45971,1,0,0:0:0:0:
268,156,46182,2,0,P|256:104|276:48,1,105.000004005432,8|0,1:0|1:0,0:0:0:0:
416,208,47023,2,0,P|428:260|408:316,1,105.000004005432,8|0,1:0|1:0,0:0:0:0:
320,304,47654,2,0,L|328:356,2,52.5000020027161,0|8|0,0:0|1:0|0:0,0:0:0:0:
244,144,48284,6,0,P|200:148|160:152,1,70,4|0,0:0|0:0,0:0:0:0:
152,152,48915,1,0,0:0:0:0:
152,152,49546,1,2,0:0:0:0:
160,232,49756,1,0,0:0:0:0:
412,320,50597,1,2,0:0:0:0:
412,320,50808,2,0,P|416:284|416:236,1,70,0|2,0:0|0:0,0:0:0:0:
408,224,51438,1,0,0:0:0:0:
396,192,51649,21,0,0:0:0:0:
408,88,52069,1,0,0:0:0:0:
304,76,52490,1,0,0:0:0:0:
292,180,52910,1,0,0:0:0:0:
256,192,53331,12,4,55013,1:0:0:0:
100,312,55328,5,0,0:0:0:0:
100,312,55434,2,0,P|88:280|88:240,1,70,0|0,1:0|0:0,0:0:0:0:
136,160,55854,1,0,1:0:0:0:
136,160,55959,2,0,L|268:153,1,105,2|0,1:0|1:0,0:0:0:0:
336,224,56485,1,4,0:0:0:0:
452,208,56695,2,0,L|465:123,1,70,0|2,1:0|1:0,0:0:0:0:
332,24,57116,2,0,P|331:56|344:96,1,70,0|2,1:0|0:0,0:0:0:0:
340,120,57431,1,0,0:0:0:0:
336,144,57536,22,0,L|240:138,1,78.7500030040742,4|0,1:0|0:0,0:0:0:0:
148,148,57957,22,2,L|276:156,1,125.999996154785,0|0,1:2|0:0,0:0:0:0:
376,248,58377,21,0,1:0:0:0:
332,332,58588,1,2,0:1:0:0:
316,328,58693,1,0,0:0:0:0:
300,324,58798,1,0,1:0:0:0:
216,272,59008,1,0,0:0:0:0:
144,336,59218,1,0,1:0:0:0:
52,292,59429,2,0,B|36:260|36:260|40:224,1,70,2|0,0:0|1:0,0:0:0:0:
56,188,59744,1,0,0:0:0:0:
68,144,59849,2,0,L|40:142,2,23.3333333333333,0|0|0,0:0|0:0|0:0,0:0:0:0:
68,144,60059,22,0,L|144:148,1,70,4|4,1:0|0:0,0:0:0:0:
408,208,60480,1,0,1:0:0:0:
392,208,60585,1,0,1:0:0:0:
376,208,60690,1,0,1:0:0:0:
360,208,60795,1,0,1:0:0:0:
336,220,60900,22,2,P|308:160|308:100,1,125.999996154785,2|0,1:0|2:0,0:0:0:0:
307,101,61321,1,2,1:0:0:0:
448,72,61531,1,2,0:0:0:0:
307,101,61742,22,0,L|228:96,1,70,4|4,1:0|0:3,0:0:0:0:
220,116,62057,1,0,0:0:0:0:
204,136,62162,2,0,L|96:128,1,105,8|0,1:0|0:0,0:0:0:0:
16,108,62583,2,0,P|16:140|28:176,1,70,0|2,1:0|0:0,0:0:0:0:
84,328,63003,6,2,B|116:272|116:272|104:212,1,125.999996154785,0|0,1:0|1:0,0:0:0:0:
192,216,63424,6,0,B|224:212|224:212|236:220|236:220|272:216,1,78.7500030040742,4|4,1:0|0:0,0:0:0:0:
300,228,63844,1,0,1:0:0:0:
308,228,63949,1,0,0:0:0:0:
316,228,64055,1,2,0:0:0:0:
324,228,64160,1,0,0:0:0:0:
332,228,64265,1,0,1:0:0:0:
340,228,64370,1,0,0:0:0:0:
480,132,64685,6,2,B|463:121|463:121|446:129|431:117|431:117|414:126|396:113|396:113|376:120|357:108|357:108|340:115,1,140,0|0,1:0|1:0,0:0:0:0:
216,144,65316,1,4,0:3:0:0:
228,144,65421,1,0,0:0:0:0:
240,144,65526,2,0,P|248:112|240:76,1,70,8|0,1:0|0:0,0:0:0:0:
92,148,65947,2,0,P|84:180|92:216,1,70,0|2,1:0|0:0,0:0:0:0:
144,312,66367,1,8,1:0:0:0:
164,308,66473,1,0,1:0:0:0:
184,312,66578,1,8,0:0:0:0:
204,308,66683,1,0,1:0:0:0:
456,292,66998,21,0,1:0:0:0:
336,312,67209,1,12,1:0:0:0:
456,292,67419,1,4,0:0:0:0:
456,292,67524,1,0,0:0:0:0:
456,292,67629,1,4,1:0:0:0:
376,200,67839,2,0,L|392:200,4,11.6666666666667,0|0|0|0|0,1:0|1:0|1:0|1:0|1:0,0:0:0:0:
376,200,68050,22,2,P|360:172|360:144,1,52.5,2|0,1:0|2:0,0:0:0:0:
336,120,68470,22,0,L|344:32,1,70,4|2,1:0|0:0,0:0:0:0:
168,144,68891,2,0,L|184:232,1,70,8|2,1:0|0:0,0:0:0:0:
188,236,69206,1,0,0:0:0:0:
192,260,69311,6,2,B|152:244|152:244|80:260,1,83.9999974365235,2|8,1:0|1:0,1:0:0:0:
92,244,69627,1,0,0:0:0:0:
72,236,69732,6,0,P|60:200|72:152,1,70,0|4,1:0|0:0,0:0:0:0:
256,80,70152,2,0,P|268:124|248:168,1,70,0|2,1:0|2:0,0:0:0:0:
292,288,70573,2,0,L|376:280,1,70,8|2,1:0|0:0,0:0:0:0:
376,296,70888,1,0,0:0:0:0:
388,308,70993,22,2,L|400:176,1,125.999996154785,2|2,1:0|0:0,0:0:0:0:
420,160,71414,1,0,1:0:0:0:
440,140,71519,2,2,L|448:56,1,83.9999974365235,2|0,1:0|1:0,0:0:0:0:
380,28,71834,21,4,1:0:0:0:
284,20,72045,1,2,0:0:0:0:
160,140,72255,21,8,1:0:0:0:
256,132,72465,1,2,0:0:0:0:
48,36,72675,22,2,L|52:92,1,52.5,2|2,1:0|0:0,0:0:0:0:
68,120,73096,1,8,1:0:0:0:
68,120,73306,1,8,1:0:0:0:
64,240,73517,22,0,B|48:272|48:272|56:316,1,70,4|4,1:0|0:0,0:0:0:0:
232,248,73937,2,0,B|248:216|248:216|240:172,1,70,8|2,1:0|0:0,0:0:0:0:
232,160,74253,1,0,0:0:0:0:
224,136,74358,21,0,1:0:0:0:
236,32,74568,1,8,1:0:0:0:
432,160,74778,5,8,1:0:0:0:
420,264,74988,1,0,0:0:0:0:
128,316,75199,22,0,L|116:236,1,70,4|2,1:0|0:0,0:0:0:0:
100,232,75514,1,0,0:0:0:0:
80,216,75619,2,0,L|168:204,1,70,8|2,1:0|0:0,0:0:0:0:
408,136,76040,2,0,L|320:124,1,70,0|2,1:0|0:0,0:0:0:0:
328,148,76355,1,0,0:0:0:0:
316,168,76460,22,2,B|292:124|292:124|308:36,1,125.999996154785,2|0,1:0|0:0,1:0:0:0:
232,44,76881,22,0,P|196:36|152:40,1,70,4|2,1:0|0:0,0:0:0:0:
300,252,77301,2,0,P|348:248|380:232,1,70,0|2,1:0|0:0,0:0:0:0:
384,252,77617,1,0,0:0:0:0:
400,264,77722,2,0,P|412:212|396:160,1,105,0|0,1:0|1:0,0:0:0:0:
404,136,78142,1,2,1:0:0:0:
412,108,78248,1,0,1:0:0:0:
276,32,78458,1,0,1:0:0:0:
268,60,78563,6,0,L|224:64,1,35,0|2,1:0|0:0,0:0:0:0:
156,164,78984,2,0,L|200:168,1,35,0|2,0:0|0:0,0:0:0:0:
116,68,79404,5,0,0:0:0:0:
88,64,79509,1,0,0:0:0:0:
60,72,79614,1,2,0:0:0:0:
40,92,79719,1,0,0:0:0:0:
100,240,79930,1,0,0:0:0:0:
108,268,80035,1,2,0:0:0:0:
116,292,80140,1,0,0:0:0:0:
124,316,80245,5,4,1:0:0:0:
308,348,80455,1,0,1:0:0:0:
248,172,80666,1,8,1:0:0:0:
408,296,80876,1,2,0:0:0:0:
420,316,80981,1,0,0:0:0:0:
432,336,81086,2,0,L|444:256,1,70,0|2,1:0|0:0,0:0:0:0:
296,44,81507,6,2,B|296:64|296:64|307:74|307:74|302:87|302:87|312:97|312:97|309:118,1,78.7500030040742,10|0,1:0|0:0,0:0:0:0:
296,140,81927,5,4,1:0:0:0:
276,133,82032,1,0,0:0:0:0:
255,127,82138,1,2,0:0:0:0:
234,123,82243,1,0,0:0:0:0:
213,121,82348,1,8,1:0:0:0:
192,121,82453,1,0,0:0:0:0:
171,123,82558,1,2,0:0:0:0:
150,126,82663,1,0,0:0:0:0:
130,132,82768,1,0,1:0:0:0:
110,139,82873,1,0,0:0:0:0:
91,149,82979,1,2,0:0:0:0:
74,161,83084,1,0,0:0:0:0:
36,168,83189,22,2,B|64:208|64:208|48:284,1,125.999996154785,10|0,1:0|0:0,0:0:0:0:
120,332,83609,21,0,1:0:0:0:
144,328,83715,1,0,0:0:0:0:
168,324,83820,1,2,0:0:0:0:
192,320,83925,1,0,0:0:0:0:
212,295,84030,1,8,1:0:0:0:
236,291,84135,1,0,0:0:0:0:
260,287,84240,1,2,0:0:0:0:
284,283,84345,1,0,0:0:0:0:
316,302,84451,1,0,1:0:0:0:
340,298,84556,1,0,0:0:0:0:
364,294,84661,1,2,0:0:0:0:
388,290,84766,1,0,0:0:0:0:
476,332,84871,6,0,P|484:312|484:285,1,41.9999987182618,0|0,1:0|0:0,0:0:0:0:
364,160,85081,2,0,P|365:180|373:200,1,41.9999987182618,0|2,0:0|3:0,0:0:0:0:
472,193,85292,6,0,L|508:196,3,35,0|0|2|0,1:0|0:0|0:0|0:0,0:0:0:0:
432,88,85712,2,0,L|466:90,3,35,8|0|2|0,1:0|0:0|0:0|0:0,0:0:0:0:
330,157,86133,2,0,L|366:160,3,35,0|0|2|0,1:0|0:0|0:0|0:0,0:0:0:0:
228,212,86553,1,8,1:0:0:0:
228,212,86658,1,4,3:0:0:0:
228,212,86763,22,0,B|204:164|204:164|220:112,1,105.000004005432,2|4,3:0|0:0,0:0:0:0:
312,32,87394,21,4,1:0:0:0:
394,125,87605,1,2,0:0:0:0:
408,152,87710,1,0,0:0:0:0:
420,176,87815,1,0,1:0:0:0:
412,204,87920,1,0,0:0:0:0:
400,228,88025,2,0,L|373:226,2,23.3333333333333,2|0|0,0:0|0:0|0:0,0:0:0:0:
376,260,88235,6,2,L|304:256,1,70,12|4,0:0|1:0,0:0:0:0:
280,276,88761,5,0,0:0:0:0:
256,296,88866,1,2,0:0:0:0:
132,328,89076,1,8,1:0:0:0:
112,316,89182,1,0,0:0:0:0:
96,296,89287,1,2,0:0:0:0:
88,272,89392,1,0,0:0:0:0:
88,248,89497,2,0,L|48:244,1,35,0|0,1:0|0:0,0:0:0:0:
92,132,89707,2,0,L|136:128,1,35,2|0,0:0|0:0,0:0:0:0:
352,188,89917,22,2,P|281:182|224:180,1,125.999996154785,8|0,1:0|0:0,0:0:0:0:
168,236,90338,22,0,L|176:280,3,35,0|0|2|0,1:0|0:0|0:0|0:0,0:0:0:0:
288,340,90759,2,0,L|296:304,3,35,8|0|2|0,1:0|0:0|0:0|0:0,0:0:0:0:
388,268,91179,1,0,1:0:0:0:
408,264,91284,1,0,0:0:0:0:
428,260,91389,1,2,0:0:0:0:
448,256,91494,1,0,0:0:0:0:
496,168,91600,6,0,P|472:160|452:160,1,41.9999987182618,8|0,1:0|0:0,0:0:0:0:
352,188,91810,2,0,P|340:168|336:148,1,41.9999987182618,0|2,0:0|3:0,0:0:0:0:
344,68,92020,5,0,1:0:0:0:
319,70,92125,1,0,0:0:0:0:
294,67,92230,1,2,0:0:0:0:
270,59,92336,1,0,0:0:0:0:
248,47,92441,1,8,1:0:0:0:
220,49,92546,1,0,0:0:0:0:
192,53,92651,1,2,0:0:0:0:
164,58,92756,1,0,0:0:0:0:
136,64,92861,1,0,1:0:0:0:
108,69,92966,1,0,0:0:0:0:
80,76,93071,1,2,0:0:0:0:
52,81,93177,1,0,0:0:0:0:
20,152,93282,2,0,L|28:192,1,35,0|0,1:0|0:0,0:0:0:0:
124,264,93492,2,0,L|132:224,1,35,2|2,3:0|3:0,0:0:0:0:
220,156,93702,6,0,P|272:136|304:96,1,105,0|0,1:0|0:0,0:0:0:0:
328,96,94123,2,0,L|400:108,1,70,8|2,1:0|1:0,0:0:0:0:
508,256,94543,6,2,B|494:251|494:251|479:263|461:253|461:253|444:266|426:256|426:256|409:270|393:257|393:257|378:274|365:261|365:261|352:270,1,167.999994873047,0|0,0:0|0:0,0:0:0:0:
332,280,95069,1,0,0:0:0:0:
320,280,95174,1,0,0:0:0:0:
308,280,95279,1,0,0:0:0:0:
296,280,95384,5,4,1:0:0:0:
273,267,95490,1,0,0:0:0:0:
248,260,95595,1,2,0:0:0:0:
222,257,95700,1,0,0:0:0:0:
197,261,95805,1,8,1:0:0:0:
172,267,95910,1,0,0:0:0:0:
150,280,96015,1,6,0:0:0:0:
130,295,96120,1,0,0:0:0:0:
115,315,96226,1,0,1:0:0:0:
93,301,96331,1,0,0:0:0:0:
80,278,96436,1,2,0:0:0:0:
73,253,96541,1,0,0:0:0:0:
70,227,96646,22,2,B|95:179|95:179|76:92,1,125.999996154785,2|0,1:0|0:0,0:0:0:0:
152,88,97067,22,0,L|168:176,1,70,0|2,1:0|0:0,0:0:0:0:
256,224,97487,1,8,1:0:0:0:
344,164,97697,1,6,0:0:0:0:
368,168,97803,1,0,0:0:0:0:
392,172,97908,1,0,1:0:0:0:
416,176,98013,1,0,0:0:0:0:
440,180,98118,1,2,0:0:0:0:
464,44,98328,1,8,1:0:0:0:
464,44,98538,1,8,1:0:0:0:
355,73,98749,21,4,1:0:0:0:
332,83,98854,1,0,0:0:0:0:
308,92,98959,1,2,0:0:0:0:
284,99,99064,1,0,0:0:0:0:
259,102,99169,1,8,1:0:0:0:
233,102,99274,1,0,0:0:0:0:
207,97,99380,1,6,0:0:0:0:
183,89,99485,1,0,0:0:0:0:
159,81,99590,1,0,1:0:0:0:
136,68,99695,1,0,0:0:0:0:
116,52,99800,22,0,L|25:63,1,83.9999974365235,0|0,0:0|1:0,1:0:0:0:
96,172,100115,2,0,L|187:161,1,83.9999974365235,2|0,1:0|0:0,1:0:0:0:
208,192,100431,22,0,P|200:228|224:272,1,70,4|2,1:0|0:0,0:0:0:0:
352,212,100851,2,0,P|360:176|336:132,1,70,8|6,1:0|0:0,0:0:0:0:
360,124,101167,1,0,0:0:0:0:
368,100,101272,2,0,L|464:108,1,70,0|2,1:0|0:0,0:0:0:0:
464,240,101692,6,2,B|459:247|459:247|462:255|462:255|458:263|458:263|461:271|461:271|457:279|457:279|460:287|460:287|456:295|456:295|459:303|459:303|454:315,1,78.7500030040742,4|0,2:0|0:0,1:0:0:0:
436,336,102113,5,4,0:0:0:0:
414,322,102218,1,0,0:0:0:0:
389,316,102323,1,4,0:0:0:0:
363,314,102428,1,0,0:0:0:0:
337,317,102534,1,0,0:0:0:0:
313,325,102639,1,0,0:0:0:0:
292,338,102744,1,4,0:0:0:0:
275,357,102849,1,0,0:0:0:0:
200,328,102954,22,0,L|154:325,1,41.9999987182618
125,240,103164,2,0,L|176:233,1,41.9999987182618,4|0,0:0|0:0,0:0:0:0:
263,257,103375,1,4,0:0:0:0:
263,257,103795,21,4,0:0:0:0:
277,235,103900,1,0,0:0:0:0:
283,210,104005,1,4,0:0:0:0:
285,184,104111,1,0,0:0:0:0:
282,158,104216,1,0,0:0:0:0:
274,134,104321,1,0,0:0:0:0:
261,113,104426,1,4,0:0:0:0:
242,96,104531,1,0,0:0:0:0:
160,56,104636,6,0,L|164:12,1,41.9999987182618,0|0,1:0|0:0,0:0:0:0:
68,56,104847,2,0,L|76:104,1,41.9999987182618,4|0,0:0|0:0,0:0:0:0:
148,180,105057,6,0,L|152:136,1,41.9999987182618,0|0,1:0|0:0,0:0:0:0:
56,180,105267,2,0,L|64:228,1,41.9999987182618,4|0,0:0|0:0,0:0:0:0:
124,304,105477,5,4,0:0:0:0:
224,292,105688,1,0,0:0:0:0:
424,152,105898,21,0,0:0:0:0:
324,140,106108,1,0,0:0:0:0:
68,56,106318,5,0,0:0:0:0:
76,84,106424,1,0,0:0:0:0:
84,112,106529,1,0,0:0:0:0:
92,140,106634,1,0,0:0:0:0:
100,164,106739,6,0,L|128:156,6,20.9999993591309
148,180,107159,5,2,3:0:0:0:
148,180,108001,1,8,0:0:0:0:
148,180,108842,5,4,1:0:0:0:
388,112,115570,37,4,0:0:0:0:
32,328,120617,21,4,0:0:0:0:
136,184,120932,1,4,0:0:0:0:
292,292,121247,1,4,0:0:0:0:
292,292,121668,1,4,0:0:0:0:
448,184,121983,21,0,0:0:0:0:
440,156,122088,1,0,0:0:0:0:
432,128,122194,1,0,0:0:0:0:
424,104,122299,21,4,0:0:0:0:
212,64,122719,1,2,0:0:0:0:
124,60,122930,2,2,B|120:108|168:140|168:140|156:172|156:172|180:176|200:196,1,175,2|0,0:0|0:0,0:0:0:0:
400,280,125348,5,0,0:0:0:0:
367,284,125453,1,0,0:0:0:0:
334,289,125558,1,0,0:0:0:0:
302,293,125663,5,4,0:0:0:0:
120,320,126084,1,2,0:0:0:0:
120,320,126294,2,2,B|104:268|104:268|120:256|120:256|84:216|84:216|104:172,1,175,2|4,0:0|0:0,0:0:0:0:
182,51,128712,21,0,0:0:0:0:
188,88,128817,1,0,0:0:0:0:
195,125,128922,1,0,0:0:0:0:
200,161,129027,21,0,0:0:0:0:
328,320,129448,1,4,0:0:0:0:
264,268,129658,2,2,B|296:236|344:240|344:240|380:260|380:260|396:248|428:252,1,175,2|4,0:0|0:0,0:0:0:0:
275,70,132076,5,0,0:0:0:0:
269,111,132181,1,0,0:0:0:0:
263,151,132286,1,0,0:0:0:0:
256,192,132392,5,0,0:0:0:0:
260,196,132812,1,0,0:0:0:0:
256,192,132917,12,4,134074,0:0:0:0:
80,340,135756,5,4,0:0:0:0:
128,280,136176,1,8,0:0:0:0:
204,264,136597,1,8,0:0:0:0:
276,288,137018,1,8,0:0:0:0:
340,336,137438,1,8,0:0:0:0:
416,328,137859,1,8,0:0:0:0:
472,276,138279,2,8,L|480:196,1,70
478,206,139120,21,8,0:0:0:0:
432,148,139541,1,8,0:0:0:0:
356,132,139961,1,8,0:0:0:0:
284,156,140382,1,8,0:0:0:0:
220,204,140802,1,8,0:0:0:0:
144,196,141223,1,8,0:0:0:0:
88,144,141643,2,8,L|80:64,1,70
81,74,142484,5,8,0:0:0:0:
160,104,142905,1,8,0:0:0:0:
168,184,143326,1,8,0:0:0:0:
100,236,143746,1,8,0:0:0:0:
24,200,144167,1,8,0:0:0:0:
20,124,144587,1,8,0:0:0:0:
96,152,145008,1,8,0:0:0:0:
200,264,145323,5,0,0:0:0:0:
200,264,145428,2,0,L|240:260,1,35,8|0,0:0|2:0,0:0:0:0:
264,272,145849,6,8,L|276:344,1,70
400,300,146690,2,8,L|408:224,1,70
416,96,147531,5,8,0:0:0:0:
416,96,147741,1,0,2:0:0:0:
304,56,147951,1,8,0:0:0:0:
304,56,148162,1,0,2:0:0:0:
200,116,148372,1,8,0:0:0:0:
200,116,148582,1,0,2:0:0:0:
76,72,148793,1,8,0:0:0:0:
76,72,149003,1,0,2:0:0:0:
28,184,149213,22,0,L|36:248,1,52.5000020027161,4|2,0:0|0:3,0:0:0:0:
172,328,149634,2,0,L|180:276,1,52.5000020027161,0|2,0:0|0:3,0:0:0:0:
324,184,150054,2,0,L|332:244,1,52.5000020027161,0|2,0:0|0:3,0:0:0:0:
472,320,150475,2,0,L|484:268,1,52.5000020027161,0|2,0:0|0:3,0:0:0:0:
408,64,150895,5,0,0:0:0:0:
332,44,151105,1,2,0:3:0:0:
308,120,151316,1,0,0:0:0:0:
384,140,151526,1,2,0:3:0:0:
156,128,151736,1,0,0:0:0:0:
52,152,151947,1,2,0:3:0:0:
76,256,152157,1,0,0:0:0:0:
180,232,152367,1,2,0:3:0:0:
358,339,152577,21,0,0:0:0:0:
374,321,152683,1,0,0:0:0:0:
386,301,152788,1,2,0:3:0:0:
398,281,152893,1,0,0:0:0:0:
406,258,152998,1,0,0:0:0:0:
415,235,153103,1,0,0:0:0:0:
419,211,153208,1,2,0:3:0:0:
421,187,153313,1,0,0:0:0:0:
449,110,153418,5,0,0:0:0:0:
422,105,153524,1,0,0:0:0:0:
395,101,153629,1,2,0:3:0:0:
368,98,153734,1,0,0:0:0:0:
342,94,153839,1,0,0:0:0:0:
316,90,153944,1,0,0:0:0:0:
289,86,154049,1,2,0:3:0:0:
263,82,154154,1,0,0:0:0:0:
186,129,154260,22,0,L|158:126,11,17.500000667572
59,191,155101,2,0,L|86:189,11,17.500000667572
149,290,155942,6,0,L|130:288,30,13.125000500679,4|0|0|0|0|0|0|0|0|0|0|0|0|0|0|0|0|0|0|0|0|0|0|0|0|0|0|0|0|0|0,0:0|0:0|0:0|0:0|0:0|0:0|0:0|0:0|0:0|0:0|0:0|0:0|0:0|0:0|0:0|0:0|0:0|0:0|0:0|0:0|0:0|0:0|0:0|0:0|0:0|0:0|0:0|0:0|0:0|0:0|0:0,0:0:0:0:
251,241,157624,22,0,L|264:242,46,8.75000033378602
352,308,159306,6,0,L|354:316,13,6.56250025033952,4|0|0|0|0|0|0|0|0|0|0|0|0|0,0:0|0:0|0:0|0:0|0:0|0:0|0:0|0:0|0:0|0:0|0:0|0:0|0:0|0:0,0:0:0:0:
388,228,159726,2,0,L|389:234,13,6.56250025033952
424,148,160147,2,0,L|422:140,13,6.56250025033952
464,68,160568,2,0,L|462:61,13,6.56250025033952
308,40,160988,5,4,2:0:0:0:
308,40,161829,1,0,1:0:0:0:
280,44,161934,1,4,1:3:0:0:
252,48,162039,1,4,1:3:0:0:
224,52,162145,1,4,1:3:0:0:
196,56,162250,1,4,1:3:0:0:
64,192,162460,1,4,1:3:0:0:
92,188,162565,1,4,1:3:0:0:
120,184,162670,6,0,L|188:188,1,52.5000020027161,6|0,0:0|0:0,0:0:0:0:
260,196,163091,1,8,0:0:0:0:
352,204,163301,2,0,P|360:152|348:92,1,105.000004005432,2|0,0:0|0:0,0:0:0:0:
336,76,163932,22,2,P|376:72|420:36,1,78.7500030040742,10|0,0:0|0:0,0:0:0:0:
284,20,164352,22,0,P|244:24|220:36,1,52.5000020027161,2|0,0:0|0:0,0:0:0:0:
204,116,164773,1,8,0:0:0:0:
120,76,164983,2,0,P|64:60|28:16,1,105.000004005432,2|0,0:0|0:0,0:0:0:0:
44,180,165614,5,10,0:0:0:0:
44,180,165824,1,0,0:0:0:0:
124,284,166035,6,0,L|132:344,1,52.5000020027161,2|0,0:0|0:0,0:0:0:0:
244,272,166455,2,0,L|248:204,1,52.5000020027161,8|2,0:0|0:0,0:0:0:0:
256,200,166770,1,0,0:0:0:0:
264,180,166876,2,0,L|272:80,1,78.7500030040742,0|0,0:0|0:0,0:0:0:0:
320,40,167296,22,0,L|376:36,1,52.5000020027161,10|0,0:0|0:0,0:0:0:0:
244,104,167717,22,0,L|192:100,1,52.5000020027161,2|0,0:0|0:0,0:0:0:0:
104,56,168137,1,8,0:0:0:0:
40,128,168347,2,0,P|40:180|48:244,1,105.000004005432,2|0,0:0|0:0,0:0:0:0:
256,256,168978,6,0,P|264:232|260:200,1,52.5000020027161,10|2,0:0|0:0,0:0:0:0:
152,268,169399,6,0,P|144:292|148:324,1,52.5000020027161,2|0,0:0|0:0,0:0:0:0:
256,348,169819,1,8,0:0:0:0:
336,284,170030,2,0,P|348:240|336:180,1,105.000004005432,2|0,0:0|0:0,0:0:0:0:
324,160,170660,22,2,P|368:164|408:168,1,78.7500030040742,10|0,0:0|0:0,0:0:0:0:
344,68,171081,22,0,L|272:60,1,52.5000020027161,2|0,0:0|0:0,0:0:0:0:
212,112,171501,1,8,0:0:0:0:
132,56,171712,2,0,B|88:48|88:48|20:76,1,105.000004005432,2|0,0:0|0:0,0:0:0:0:
148,208,172343,6,0,L|220:220,1,52.5000020027161,10|0,0:0|0:0,0:0:0:0:
200,216,172763,5,2,0:0:0:0:
280,260,172973,1,0,0:0:0:0:
376,248,173184,1,8,0:0:0:0:
448,184,173394,1,2,0:0:0:0:
456,196,173499,1,0,0:0:0:0:
464,208,173604,2,0,P|472:172|464:128,1,78.7500030040742
332,64,174025,22,0,P|328:100|336:128,1,52.5000020027161,10|2,0:0|0:0,0:0:0:0:
312,136,174445,21,2,0:0:0:0:
208,124,174656,1,0,0:0:0:0:
196,228,174866,1,8,0:0:0:0:
300,239,175076,1,2,0:0:0:0:
300,240,175497,1,0,0:0:0:0:
468,236,175707,6,0,B|463:243|463:243|466:251|466:251|461:259|461:259|464:267|464:267|459:275|459:275|462:283|462:283|458:291|458:291|461:299|461:299|456:307,1,78.7500030040742,8|0,0:0|2:0,0:0:0:0:
256,180,176127,5,4,2:0:0:0:
252,184,176548,1,8,0:0:0:0:
168,236,176758,2,0,L|92:232,1,70,2|4,0:0|0:0,0:0:0:0:
184,332,177179,1,2,2:0:0:0:
184,332,177389,22,2,L|264:336,1,78.7500030040742,8|0,0:0|0:0,0:0:0:0:
296,348,177810,22,0,P|308:316|308:280,1,70,2|2,0:0|2:0,0:0:0:0:
252,184,178230,1,8,0:0:0:0:
352,132,178440,1,2,0:0:0:0:
364,144,178545,1,0,0:0:0:0:
376,156,178651,2,0,L|448:152,1,70,4|2,0:0|2:0,0:0:0:0:
400,52,179071,6,2,P|364:36|324:40,1,78.7500030040742,10|0,0:0|0:0,0:0:0:0:
240,116,179492,6,0,L|168:108,1,70,2|2,0:0|2:0,0:0:0:0:
56,152,179912,1,8,0:0:0:0:
112,256,180122,2,0,L|184:248,1,70,2|4,0:0|0:0,0:0:0:0:
276,292,180543,1,2,2:0:0:0:
384,280,180753,22,2,B|392:320|392:320|380:356,1,78.7500030040742,10|2,0:0|2:0,0:0:0:0:
276,292,181174,21,2,0:0:0:0:
244,184,181384,1,2,2:0:0:0:
352,152,181594,1,8,0:0:0:0:
384,260,181805,1,2,0:0:0:0:
384,260,181910,1,0,0:0:0:0:
384,260,182015,1,4,0:0:0:0:
192,252,182225,1,2,2:0:0:0:
28,240,182435,5,10,0:0:0:0:
36,216,182646,1,2,0:0:0:0:
140,136,182856,5,4,0:0:0:0:
144,140,183277,2,0,P|132:104|132:68,1,70,8|2,0:0|0:0,0:0:0:0:
148,56,183592,1,0,0:0:0:0:
164,40,183697,2,0,L|240:36,1,70,4|2,0:0|2:0,0:0:0:0:
384,120,184118,22,2,P|384:156|368:200,1,78.7500030040742,10|0,0:0|0:0,0:0:0:0:
392,292,184538,22,0,L|312:296,1,70,2|2,0:0|2:0,0:0:0:0:
208,280,184959,1,8,0:0:0:0:
92,316,185169,1,2,0:0:0:0:
76,316,185274,1,0,0:0:0:0:
60,316,185379,2,0,P|48:284|48:248,1,70,4|2,0:0|2:0,0:0:0:0:
112,148,185800,1,2,0:0:0:0:
144,144,185905,1,0,0:0:0:0:
176,140,186010,1,0,0:0:0:0:
208,136,186115,1,0,0:0:0:0:
240,132,186220,5,4,0:0:0:0:
448,168,187061,2,0,L|388:164,1,52.5,8|0,0:0|0:0,0:0:0:0:
288,248,187482,2,0,L|344:252,1,52.5
376,272,187902,5,4,0:3:0:0:
220,304,188218,1,4,0:3:0:0:
272,164,188533,1,4,0:3:0:0:
288,248,188743,1,8,0:0:0:0:
220,304,188954,2,0,L|208:304,3,8.75
220,304,189164,22,0,B|210:297|210:297|198:301|198:301|185:295|185:295|173:298|173:298|160:291|160:291|147:295,1,78.7500030040742,4|0,2:0|2:0,0:0:0:0:
120,312,189585,22,0,L|104:220,1,83.9999974365235,6|0,1:0|0:0,0:0:0:0:
32,196,189900,2,0,P|96:196|144:152,1,125.999996154785,2|2,0:0|0:0,0:0:0:0:
380,80,190426,5,0,0:0:0:0:
380,80,190531,2,0,P|392:120|364:168,1,83.9999974365235,2|0,0:0|0:0,0:0:0:0:
288,104,190846,2,0,P|276:64|304:16,1,83.9999974365235,10|0,0:0|0:0,0:0:0:0:
464,248,191267,6,0,L|456:340,1,83.9999974365235,2|0,0:0|0:0,0:0:0:0:
432,344,191582,2,0,B|396:316|396:316|312:328,1,125.999996154785,2|2,0:0|0:0,0:0:0:0:
68,284,192108,21,0,0:0:0:0:
68,284,192213,2,0,B|48:248|48:248|64:196,1,83.9999974365235,2|0,0:0|0:0,0:0:0:0:
168,240,192528,2,0,B|188:276|188:276|172:328,1,83.9999974365235,10|0,0:0|0:0,0:0:0:0:
32,128,192949,21,2,0:0:0:0:
220,96,193159,1,0,0:0:0:0:
220,96,193264,2,0,P|284:72|316:12,1,125.999996154785,2|2,0:0|0:0,0:0:0:0:
348,40,193685,1,0,0:0:0:0:
384,56,193790,2,0,L|476:44,1,83.9999974365235,0|0,0:0|0:0,0:0:0:0:
380,208,194210,2,0,L|292:200,1,83.9999974365235,8|0,0:0|0:0,0:0:0:0:
276,212,194526,1,0,0:0:0:0:
256,224,194631,6,0,P|268:184|252:132,1,83.9999974365235,2|0,0:0|0:0,0:0:0:0:
152,200,194946,2,0,P|140:268|168:324,1,125.999996154785,2|2,0:0|0:0,0:0:0:0:
176,340,195367,1,0,0:0:0:0:
192,360,195472,5,0,0:0:0:0:
316,336,195682,1,0,0:0:0:0:
452,108,195893,5,8,0:0:0:0:
328,132,196103,1,0,0:0:0:0:
324,156,196208,1,0,0:0:0:0:
320,180,196313,5,2,0:0:0:0:
88,156,196523,1,2,0:0:0:0:
320,180,196734,1,4,0:0:0:0:
452,327,196944,6,0,L|456:300,3,27.9999991455078
460,272,197259,2,0,L|472:180,1,83.9999974365235,2|0,0:0|0:0,0:0:0:0:
360,228,197575,2,0,L|348:320,1,83.9999974365235,10|0,0:0|0:0,0:0:0:0:
128,212,197995,6,0,P|176:216|204:240,1,83.9999974365235,2|0,0:0|0:0,0:0:0:0:
128,312,198311,2,0,P|80:308|52:284,1,83.9999974365235,2|0,0:0|0:0,0:0:0:0:
32,244,198626,1,2,0:0:0:0:
36,216,198731,1,0,0:0:0:0:
40,188,198836,21,0,0:0:0:0:
24,68,199047,1,2,0:0:0:0:
256,88,199257,5,8,0:0:0:0:
272,208,199467,1,0,0:0:0:0:
264,232,199572,1,0,0:0:0:0:
256,256,199677,6,0,B|212:256|212:256|180:284,1,83.9999974365235,2|0,0:0|0:0,0:0:0:0:
332,340,199993,2,0,B|392:328|392:328|440:264,1,125.999996154785,2|2,0:0|0:0,0:0:0:0:
472,248,200413,5,0,0:0:0:0:
468,216,200518,1,0,0:0:0:0:
460,184,200624,1,0,0:0:0:0:
452,152,200729,2,0,L|456:116,3,27.9999991455078,2|0|0|8,0:0|0:0|0:0|0:0,0:0:0:0:
304,228,201149,1,0,0:0:0:0:
164,140,201360,22,0,P|152:100|164:52,1,83.9999974365235,2|0,0:0|0:0,0:0:0:0:
172,32,201675,2,0,L|20:44,1,125.999996154785,2|2,0:0|0:0,0:0:0:0:
16,84,202096,21,0,0:0:0:0:
24,116,202201,1,0,0:0:0:0:
32,148,202306,1,0,0:0:0:0:
40,180,202411,2,0,L|36:212,3,27.9999991455078,2|0|0|8,0:0|0:0|0:0|0:0,0:0:0:0:
160,316,202831,1,0,0:0:0:0:
324,244,203042,21,4,0:0:0:0:
460,352,203252,1,2,0:0:0:0:
460,352,203357,2,0,B|488:316|488:316|476:236,1,125.999996154785,0|6,0:0|0:0,0:0:0:0:
364,152,203883,21,0,0:0:0:0:
364,152,203988,2,0,P|324:152|288:128,1,83.9999974365235,2|0,0:0|0:0,0:0:0:0:
364,52,204303,2,2,P|404:52|440:76,1,83.9999974365235,10|0,0:0|0:0,0:0:0:0:
200,188,204724,22,0,P|180:152|180:108,1,83.9999974365235,2|0,0:0|0:0,0:0:0:0:
164,96,205039,1,2,0:0:0:0:
148,80,205144,2,0,L|64:72,1,83.9999974365235,8|6,0:0|0:0,0:0:0:0:
24,232,205565,5,0,0:0:0:0:
24,232,205670,2,0,B|16:272|16:272|36:312,1,83.9999974365235,2|0,0:0|0:0,0:0:0:0:
140,344,205985,2,2,B|148:304|148:304|128:264,1,83.9999974365235,10|0,0:0|0:0,0:0:0:0:
148,236,206301,1,0,0:0:0:0:
172,204,206406,6,0,L|256:200,1,83.9999974365235,2|0,0:0|0:0,0:0:0:0:
276,212,206721,2,0,P|292:172|284:128,1,83.9999974365235,2|0,0:0|0:0,0:0:0:0:
285,132,207037,1,6,0:0:0:0:
408,60,207247,1,0,0:0:0:0:
408,60,207352,1,2,0:0:0:0:
484,184,207562,1,0,0:0:0:0:
484,184,207668,2,2,L|476:268,1,83.9999974365235,10|0,0:0|0:0,0:0:0:0:
332,324,208088,6,0,L|340:240,1,83.9999974365235,2|0,0:0|0:0,0:0:0:0:
324,224,208404,2,0,P|260:240|200:216,1,125.999996154785,2|6,0:0|0:0,0:0:0:0:
96,272,208929,1,0,0:0:0:0:
96,272,209034,2,0,B|76:233|76:233|84:193,1,83.9999974365235,2|0,0:0|0:0,0:0:0:0:
52,108,209350,5,10,0:0:0:0:
256,96,209560,1,2,0:0:0:0:
460,88,209770,2,2,B|456:100|456:100|460:112|452:120|452:120|456:132|448:140|448:140|452:152|444:164,1,78.7500030040742,0|0,0:0|0:0,0:0:0:0:
456,180,210191,6,0,P|416:164|372:168,1,83.9999974365235,4|2,0:2|0:0,0:0:0:0:
260,248,210611,1,0,0:0:0:0:
260,248,210716,2,0,B|276:280|276:280|264:328,1,83.9999974365235,2|0,0:0|0:0,0:0:0:0:
140,292,211032,2,0,B|124:260|124:260|136:212,1,83.9999974365235,14|0,0:0|0:0,0:0:0:0:
244,32,211452,6,0,P|244:72|220:112,1,83.9999974365235,2|0,0:0|0:0,0:0:0:0:
232,124,211768,2,0,L|104:116,1,125.999996154785,2|6,0:0|0:0,0:0:0:0:
260,248,212294,1,0,0:0:0:0:
260,248,212399,2,0,L|346:253,1,83.9999974365235,2|0,0:0|0:0,0:0:0:0:
444,116,212714,2,0,L|358:111,1,83.9999974365235,10|0,0:0|0:0,0:0:0:0:
72,72,213135,22,0,P|68:120|96:168,1,105,4|0,0:0|0:0,0:0:0:0:
76,192,213555,2,2,B|136:184|136:184|152:192|152:192|216:184,1,140,8|0,0:0|0:0,0:0:0:0:
224,196,214081,1,2,0:0:0:0:
412,260,214291,1,0,0:0:0:0:
412,260,214396,2,0,L|340:252,1,70,2|0,0:0|0:0,0:0:0:0:
328,264,214712,1,0,0:0:0:0:
316,276,214817,5,4,0:2:0:0:
76,328,215027,2,0,L|93:328,3,17.5,2|0|0|0,0:0|0:0|0:0|0:0,0:0:0:0:
101,312,215237,1,0,0:0:0:0:
109,296,215342,1,2,0:0:0:0:
117,280,215448,1,0,0:0:0:0:
125,264,215553,1,0,0:0:0:0:
104,224,215658,21,0,0:0:0:0:
76,204,215763,1,0,0:0:0:0:
56,176,215868,1,0,0:0:0:0:
52,140,215973,1,0,0:0:0:0:
60,104,216078,1,4,2:0:0:0:
256,96,216289,1,2,0:0:0:0:
452,88,216499,21,4,0:0:0:0:
476,256,229535,37,8,0:3:0:0:
468,232,229641,1,4,3:0:0:0:
460,208,229746,1,12,3:0:0:0:
452,184,229851,1,0,0:0:0:0:
472,160,229956,6,0,L|480:84,1,70,4|0,0:0|0:0,0:0:0:0:
336,140,230797,2,0,L|348:220,1,70,2|0,0:0|0:0,0:0:0:0:
444,284,231638,5,2,0:0:0:0:
360,236,232059,1,0,0:0:0:0:
256,252,232479,1,2,0:0:0:0:
196,336,232900,1,0,0:0:0:0:
256,252,233320,21,6,0:0:0:0:
275,157,233741,1,0,0:0:0:0:
168,44,234161,5,2,0:0:0:0:
149,139,234582,1,0,0:0:0:0:
68,264,235002,22,0,P|64:300|80:336,1,70,2|0,0:0|0:0,0:0:0:0:
224,280,235844,2,0,P|232:244|220:208,1,70,2|0,0:0|0:0,0:0:0:0:
328,76,236685,5,2,0:0:0:0:
468,88,237105,1,0,0:0:0:0:
456,228,237526,1,2,0:0:0:0:
316,216,237946,1,0,0:0:0:0:
176,152,238367,21,2,0:0:0:0:
36,164,238787,1,0,0:0:0:0:
48,304,239208,1,2,0:0:0:0:
188,292,239628,1,0,0:0:0:0:
368,312,240049,6,0,B|400:300|400:300|444:308,1,70,6|0,0:0|0:0,0:0:0:0:
344,208,240890,2,0,B|312:220|312:220|268:212,1,70,2|0,0:0|0:0,0:0:0:0:
40,140,241731,22,0,L|48:216,1,70,2|0,0:0|0:0,0:0:0:0:
192,156,242572,2,0,L|200:72,1,70,2|0,0:0|0:0,0:0:0:0:
338,45,243413,5,8,0:0:0:0:
461,70,243834,1,8,0:0:0:0:
432,192,244254,1,8,0:0:0:0:
309,167,244675,1,8,0:0:0:0:
292,188,244885,1,0,0:0:0:0:
276,208,245095,22,0,L|204:204,1,70,8|8,0:0|0:0,0:0:0:0:
256,320,245936,2,0,L|325:323,1,70,8|8,0:0|0:0,0:0:0:0:
344,336,246567,1,0,0:0:0:0:
364,348,246777,5,8,0:0:0:0:
428,264,247198,1,8,0:0:0:0:
448,160,247619,1,8,0:0:0:0:
424,56,248039,1,8,0:0:0:0:
420,60,248249,1,0,0:0:0:0:
416,64,248460,21,8,0:0:0:0:
340,148,248880,1,8,0:0:0:0:
220,124,249301,1,8,0:0:0:0:
296,40,249721,1,8,0:0:0:0:
424,276,250142,6,0,P|424:312|408:342,1,70,8|8,0:0|0:0,0:0:0:0:
312,272,250983,2,0,P|311:235|327:205,1,70,8|8,0:0|0:0,0:0:0:0:
320,172,251614,1,0,0:0:0:0:
308,136,251824,22,0,L|236:128,1,70,8|8,0:0|0:0,0:0:0:0:
88,232,252665,2,0,L|160:224,1,70,8|8,0:0|0:0,0:0:0:0:
164,228,253296,1,0,0:0:0:0:
172,232,253506,5,8,0:0:0:0:
264,296,253927,1,8,0:0:0:0:
332,208,254347,1,8,0:0:0:0:
424,272,254768,1,8,0:0:0:0:
332,208,255188,22,0,P|324:172|336:136,1,70,8|8,0:0|0:0,0:0:0:0:
460,80,256029,2,0,P|468:116|456:152,1,70,8|8,0:0|0:0,0:0:0:0:
312,228,256870,6,0,L|320:280,2,52.5000020027161,4|0|0,1:0|0:0|0:0,0:0:0:0:
256,164,257501,2,0,P|264:112|240:52,1,105.000004005432,0|0,0:0|0:0,0:0:0:0:
176,20,258132,1,0,0:0:0:0:
108,72,258342,2,0,P|100:124|124:184,1,105.000004005432
116,256,258973,2,0,L|180:248,1,52.5000020027161
252,244,259394,1,0,0:0:0:0:
380,136,259814,2,0,L|324:132,1,52.5000020027161
244,128,260235,21,0,0:0:0:0:
88,188,260655,2,0,L|100:296,1,105.000004005432
172,336,261286,1,0,0:0:0:0:
232,276,261496,2,0,L|220:168,1,105.000004005432
344,60,262337,1,0,0:0:0:0:
344,60,262758,2,0,L|408:56,1,52.5000020027161
348,168,263178,2,0,L|292:164,1,52.5000020027161
452,128,263599,6,0,P|452:180|448:240,1,105.000004005432,8|0,1:0|0:0,0:0:0:0:
392,296,264230,2,0,B|356:272|356:272|276:284,1,105.000004005432
220,320,264861,1,0,0:0:0:0:
148,280,265071,2,0,P|132:236|148:176,1,105.000004005432
168,100,265702,2,0,L|164:48,1,52.5000020027161
260,80,266122,2,0,L|268:192,1,105.000004005432
276,268,266753,1,0,0:0:0:0:
276,268,266963,21,0,0:0:0:0:
256,192,267173,12,0,268645,0:0:0:0:
104,124,269486,21,8,0:0:0:0:
104,124,269697,2,0,P|108:168|112:216,1,87.5,0|0,1:0|0:0,0:0:0:0:
116,244,270327,21,4,1:0:0:0:
160,328,270748,1,0,1:0:0:0:
252,312,271169,1,0,1:0:0:0:
268,220,271589,1,0,1:0:0:0:
184,176,272010,21,0,1:0:0:0:
192,84,272430,1,0,1:0:0:0:
284,68,272851,1,0,1:0:0:0:
332,148,273271,1,0,1:0:0:0:
380,312,273692,5,0,1:0:0:0:
436,200,274112,1,0,1:0:0:0:
332,148,274533,1,0,1:0:0:0:
276,260,274953,1,0,1:0:0:0:
84,208,275374,21,0,1:0:0:0:
52,72,275794,1,0,1:0:0:0:
192,36,276215,1,0,1:0:0:0:
224,172,276636,1,0,1:0:0:0:
320,236,277056,6,0,L|312:344,1,105.000004005432,0|0,1:0|1:0,0:0:0:0:
428,288,277897,2,0,L|433:210,1,78.7500030040742,0|0,1:0|0:0,0:0:0:0:
448,192,278318,2,0,L|500:188,1,52.5000020027161,0|0,1:0|0:0,0:0:0:0:
384,88,278738,22,0,L|279:95,1,105.000004005432,0|0,1:0|1:0,0:0:0:0:
152,68,279369,1,0,0:0:0:0:
44,124,279579,2,0,P|44:148|56:176,1,52.5000020027161,0|0,1:0|0:0,0:0:0:0:
72,268,280000,2,0,L|124:264,1,52.5000020027161,0|0,1:0|0:0,0:0:0:0:
228,320,280420,6,0,B|248:284|248:284|240:220,1,105.000004005432,12|0,1:0|1:0,0:0:0:0:
304,144,281051,1,0,0:0:0:0:
304,144,281261,2,0,L|364:136,1,52.5000020027161,0|0,1:0|0:0,0:0:0:0:
328,44,281682,2,0,L|276:36,1,52.5000020027161,0|0,1:0|0:0,0:0:0:0:
68,112,282103,22,0,P|112:92|168:100,1,105.000004005432,0|0,1:0|1:0,0:0:0:0:
212,188,282733,1,0,0:0:0:0:
256,284,282944,1,0,1:0:0:0:
256,284,283049,1,0,0:0:0:0:
256,284,283154,1,0,0:0:0:0:
352,240,283364,1,0,1:0:0:0:
308,144,283574,1,0,0:0:0:0:
68,248,283785,6,0,L|56:192,1,52.5000020027161,12|0,0:0|0:0,0:0:0:0:
60,168,284100,1,0,0:0:0:0:
112,64,284310,2,0,L|200:52,1,78.7500030040742,0|0,0:0|0:0,0:0:0:0:
336,72,284836,1,0,0:0:0:0:
336,72,284941,1,0,0:0:0:0:
428,60,285151,1,0,0:0:0:0:
428,60,285257,1,0,0:0:0:0:
408,200,285467,22,0,P|408:228|400:268,1,52.5000020027161
396,280,285782,1,0,0:0:0:0:
272,216,285992,2,0,P|264:176|276:116,1,78.7500030040742
168,44,286518,1,0,0:0:0:0:
168,44,286623,1,0,0:0:0:0:
72,64,286834,1,0,0:0:0:0:
72,64,286939,1,0,0:0:0:0:
52,196,287149,6,0,L|64:260,1,52.5000020027161
68,268,287464,1,0,0:0:0:0:
76,288,287569,2,0,L|88:352,1,52.5000020027161
284,168,287990,6,0,P|288:144|280:108,1,52.5000020027161
192,152,288305,2,0,P|188:176|196:212,1,52.5000020027161
268,260,288621,1,0,0:0:0:0:
352,88,288831,6,0,L|412:92,1,52.5000020027161
420,104,289146,1,0,0:0:0:0:
436,116,289252,2,0,L|496:120,1,52.5000020027161,0|0,0:0|0:0,0:0:0:0:
448,296,289672,22,0,P|452:324|444:352,1,52.5000020027161
352,304,289988,2,0,P|348:280|356:252,1,52.5000020027161
432,204,290303,1,0,0:0:0:0:
288,128,290513,5,4,1:0:0:0:
264,119,290618,1,0,0:0:0:0:
239,119,290724,1,0,0:0:0:0:
215,124,290829,1,0,0:0:0:0:
193,134,290934,1,0,1:0:0:0:
174,149,291039,1,0,0:0:0:0:
163,170,291144,1,0,0:0:0:0:
159,194,291249,1,0,0:0:0:0:
162,216,291354,22,0,L|122:225,3,35,0|0|0|0,1:0|0:0|0:0|0:0,0:0:0:0:
169,303,291775,2,0,L|213:306,3,35,0|0|0|0,1:0|0:0|0:0|0:0,0:0:0:0:
229,330,292195,21,4,1:0:0:0:
250,318,292301,1,0,0:0:0:0:
273,312,292406,1,0,0:0:0:0:
297,310,292511,1,0,0:0:0:0:
321,313,292616,1,0,1:0:0:0:
344,318,292721,1,0,0:0:0:0:
366,326,292826,1,0,0:0:0:0:
385,340,292931,1,0,0:0:0:0:
401,357,293036,6,0,L|449:338,3,35,0|0|0|0,1:0|0:0|0:0|0:0,0:0:0:0:
444,258,293457,2,0,L|400:249,3,35,0|0|0|0,1:0|0:0|0:0|0:0,0:0:0:0:
433,147,293878,6,0,L|440:109,1,35,4|0,1:0|0:0,0:0:0:0:
352,66,294088,2,0,L|358:111,1,35
265,161,294298,2,0,L|270:117,1,35,0|0,1:0|0:0,0:0:0:0:
165,60,294508,2,0,L|171:100,1,35
84,172,294719,5,4,1:0:0:0:
120,176,294824,1,0,0:0:0:0:
153,191,294929,1,0,0:0:0:0:
176,218,295034,1,0,0:0:0:0:
183,257,295139,21,0,1:0:0:0:
216,242,295244,1,0,0:0:0:0:
252,239,295349,1,0,0:0:0:0:
287,249,295455,1,0,0:0:0:0:
320,275,295560,22,0,L|359:271,3,35,4|0|0|0,1:0|0:0|0:0|0:0,0:0:0:0:
392,183,295980,2,0,L|337:172,3,35
312,96,296401,21,0,0:0:0:0:
316,100,297242,22,0,L|336:96,4,17.5,4|0|0|0|0,0:0|0:0|0:0|0:0|0:0,0:0:0:0:
192,52,297662,2,0,L|174:48,4,17.5
68,136,298083,2,0,L|92:132,4,17.5
212,196,298503,2,0,L|194:192,4,17.5
72,304,298924,6,0,L|68:280,4,17.5
252,332,299344,2,0,L|248:352,4,17.5
424,296,299765,2,0,L|419:278,4,17.5
472,184,300186,1,12,0:0:0:0:
476,188,300606,22,0,L|504:184,4,17.5,4|0|0|0|0,0:0|0:0|0:0|0:0|0:0,0:0:0:0:
340,52,301027,2,0,L|357:48,4,17.5
296,232,301447,2,0,L|292:252,4,17.5
164,116,301868,2,0,L|158:100,4,17.5
64,180,302288,5,0,0:0:0:0:
48,276,302499,1,0,0:0:0:0:
140,244,302709,1,12,0:0:0:0:
360,224,303129,1,0,0:0:0:0:
392,348,303340,1,0,0:0:0:0:
272,312,303550,1,12,0:0:0:0:
268,316,303970,21,4,0:0:0:0:
176,328,304181,1,0,0:0:0:0:
44,244,304391,1,8,0:0:0:0:
140,244,304601,1,0,0:0:0:0:
176,328,304811,1,0,0:0:0:0:
76,328,305022,1,0,0:0:0:0:
232,232,305232,1,8,0:0:0:0:
344,40,305653,5,4,0:0:0:0:
444,68,305863,1,0,0:0:0:0:
472,168,306073,1,8,0:0:0:0:
396,240,306283,1,0,0:0:0:0:
296,212,306494,1,0,0:0:0:0:
264,108,306704,1,0,0:0:0:0:
472,168,306914,1,8,0:0:0:0:
372,140,307335,21,4,0:0:0:0:
364,164,307440,1,0,0:0:0:0:
356,188,307545,1,0,0:0:0:0:
348,212,307650,1,0,0:0:0:0:
340,236,307755,22,0,L|334:256,6,17.5
130,333,308176,21,4,0:0:0:0:
116,276,308281,1,0,0:0:0:0:
104,216,308386,1,0,0:0:0:0:
92,156,308491,1,0,0:0:0:0:
80,96,308596,6,0,L|78:84,10,11.6666666666667
174,125,309017,6,0,L|177:138,62,8.75,4|0|0|0|0|0|0|0|0|0|0|0|0|0|0|0|0|0|0|0|0|0|0|0|0|0|0|0|0|0|0|0|0|0|0|0|0|0|0|0|0|0|0|0|0|0|0|0|0|0|0|0|0|0|0|0|0|0|0|0|0|0|0,0:0|0:0|0:0|0:0|0:0|0:0|0:0|0:0|0:0|0:0|0:0|0:0|0:0|0:0|0:0|0:0|0:0|0:0|0:0|0:0|0:0|0:0|0:0|0:0|0:0|0:0|0:0|0:0|0:0|0:0|0:0|0:0|0:0|0:0|0:0|0:0|0:0|0:0|0:0|0:0|0:0|0:0|0:0|0:0|0:0|0:0|0:0|0:0|0:0|0:0|0:0|0:0|0:0|0:0|0:0|0:0|0:0|0:0|0:0|0:0|0:0|0:0|0:0,0:0:0:0:
208,152,310699,5,4,0:0:0:0:
208,152,312802,5,0,0:0:0:0:
240,148,312907,1,0,0:0:0:0:
272,144,313012,1,4,0:3:0:0:
304,140,313117,1,4,0:3:0:0:
336,136,313222,1,4,0:3:0:0:
368,132,313327,1,4,0:3:0:0:
400,128,313432,1,0,0:0:0:0:
492,200,313643,1,0,0:0:0:0:
492,200,313748,1,2,0:0:0:0:
408,284,313958,1,0,0:0:0:0:
408,284,314063,6,0,L|296:276,1,105.000004005432,4|2,0:0|0:0,0:0:0:0:
220,300,314379,2,0,P|224:328|216:356,1,52.5000020027161,0|0,0:0|0:0,0:0:0:0:
132,284,314589,2,2,P|120:232|136:180,1,105.000004005432,2|0,0:0|0:0,0:0:0:0:
96,104,314904,2,2,B|144:84|144:84|204:100,1,105.000004005432,0|2,0:0|0:0,0:0:0:0:
232,24,315220,2,0,B|272:40|272:40|348:20,1,105.000004005432,0|0,0:0|0:0,0:0:0:0:
444,60,315535,1,0,0:0:0:0:
412,96,315640,1,0,0:0:0:0:
412,144,315745,6,2,P|428:192|408:252,1,105.000004005432,0|2,0:0|0:0,0:0:0:0:
132,284,316166,1,0,0:0:0:0:
132,284,316271,2,2,P|116:236|136:176,1,105.000004005432,2|0,0:0|0:0,0:0:0:0:
92,120,316586,2,0,B|140:144|140:144|200:132,1,105.000004005432,0|2,0:0|0:0,0:0:0:0:
272,104,316902,1,0,0:0:0:0:
288,124,317007,1,0,0:0:0:0:
304,144,317112,2,2,L|292:28,1,105.000004005432,0|0,0:0|0:0,0:0:0:0:
428,104,317428,22,2,L|440:220,1,105.000004005432,0|2,0:0|0:0,0:0:0:0:
384,272,317743,2,0,P|344:268|316:276,1,52.5000020027161,0|0,0:0|0:0,0:0:0:0:
256,308,317953,2,2,P|212:276|196:216,1,105.000004005432,2|0,0:0|0:0,0:0:0:0:
220,152,318269,1,2,0:0:0:0:
181,125,318374,1,0,0:0:0:0:
134,119,318479,1,0,0:0:0:0:
92,138,318584,1,0,0:0:0:0:
28,292,318794,1,2,0:0:0:0:
28,292,318899,1,0,0:0:0:0:
184,348,319110,6,2,L|296:336,1,105.000004005432,0|2,0:0|0:0,0:0:0:0:
276,256,319425,2,0,L|164:268,1,105.000004005432,0|2,0:0|0:0,0:0:0:0:
104,316,319741,1,0,0:0:0:0:
48,160,319951,1,2,0:0:0:0:
23,119,320056,1,0,0:0:0:0:
28,69,320161,1,0,0:0:0:0:
62,36,320266,2,0,P|110:31|168:-3,1,105.000004005432,0|2,0:0|0:0,0:0:0:0:
312,80,320687,1,0,0:0:0:0:
312,80,320792,22,2,P|296:128|320:188,1,105.000004005432,4|2,0:0|0:0,0:0:0:0:
420,180,321107,2,0,P|436:132|412:72,1,105.000004005432,0|2,0:0|0:0,0:0:0:0:
152,184,321528,1,0,0:0:0:0:
160,216,321633,1,2,0:0:0:0:
168,248,321738,1,0,0:0:0:0:
176,280,321843,1,0,0:0:0:0:
184,312,321948,2,0,L|300:296,1,105.000004005432,0|2,0:0|0:0,0:0:0:0:
396,236,322264,2,0,L|344:228,1,52.5000020027161
320,200,322474,6,2,P|336:152|320:96,1,105.000004005432,0|2,0:0|0:0,0:0:0:0:
228,96,322789,2,0,B|188:80|188:80|172:16,1,105.000004005432,0|2,0:0|0:0,0:0:0:0:
28,168,323210,1,0,0:0:0:0:
16,213,323315,1,0,0:0:0:0:
25,259,323420,1,0,0:0:0:0:
58,291,323525,2,0,P|106:271|174:279,1,105.000004005432,2|0,0:0|0:0,0:0:0:0:
212,224,323841,2,0,P|200:276|236:336,1,105.000004005432,2|2,0:0|0:0,0:0:0:0:
332,312,324156,22,0,P|344:260|308:200,1,105.000004005432,0|2,0:0|0:0,0:0:0:0:
332,172,324472,1,0,0:0:0:0:
344,128,324577,2,2,B|388:100|388:100|456:112,1,105.000004005432,0|0,0:0|0:0,0:0:0:0:
216,64,324997,1,0,0:0:0:0:
216,64,325102,2,0,B|172:92|172:92|104:80,1,105.000004005432,2|0,0:0|0:0,0:0:0:0:
48,40,325418,2,2,P|36:92|60:140,1,105.000004005432,2|0,0:0|0:0,0:0:0:0:
52,168,325733,1,0,0:0:0:0:
44,200,325838,6,0,L|152:192,1,105.000004005432,2|0,0:0|0:0,0:0:0:0:
228,248,326154,2,0,P|276:220|300:152,1,105.000004005432,2|2,0:0|0:0,0:0:0:0:
356,92,326469,2,0,P|384:88|412:92,1,52.5000020027161
432,120,326679,2,2,L|416:252,1,105.000004005432,0|2,0:0|0:0,0:0:0:0:
276,340,327100,1,0,0:0:0:0:
240,332,327205,1,2,0:0:0:0:
204,324,327310,1,0,0:0:0:0:
168,316,327415,1,0,0:0:0:0:
132,324,327520,22,0,B|112:288|112:288|124:224,1,105.000004005432,6|2,0:0|0:0,0:0:0:0:
123,225,327836,1,0,0:0:0:0:
320,200,328046,1,2,0:0:0:0:
320,200,328151,2,0,P|268:204|224:176,1,105.000004005432,0|2,0:0|0:0,0:0:0:0:
252,64,328572,1,2,0:0:0:0:
252,64,328677,2,0,P|304:60|348:88,1,105.000004005432,0|0,0:0|0:0,0:0:0:0:
432,148,328992,1,2,0:0:0:0:
456,140,329097,1,0,0:0:0:0:
480,132,329203,6,2,L|460:236,1,105.000004005432,0|2,0:0|0:0,0:0:0:0:
424,336,329518,2,0,B|388:316|388:316|324:324,1,105.000004005432,0|2,0:0|0:0,0:0:0:0:
230,347,329939,1,0,0:0:0:0:
206,334,330044,1,0,0:0:0:0:
188,316,330149,1,0,0:0:0:0:
176,292,330254,1,2,0:0:0:0:
168,266,330359,2,0,P|140:272|116:272,1,52.5000020027161,0|0,0:0|0:0,0:0:0:0:
44,216,330569,2,2,P|24:176|32:112,1,105.000004005432,2|0,0:0|0:0,0:0:0:0:
16,104,330885,22,2,L|120:96,1,105.000004005432,0|2,0:0|0:0,0:0:0:0:
196,164,331200,2,0,P|214:145|223:121,1,52.5000020027161,0|0,0:0|0:0,0:0:0:0:
288,56,331410,2,0,P|242:31|188:36,1,105.000004005432,2|0,0:0|0:0,0:0:0:0:
168,264,331726,2,2,L|276:256,1,105.000004005432,0|2,0:0|0:0,0:0:0:0:
356,316,332041,1,0,0:0:0:0:
380,324,332146,1,0,0:0:0:0:
404,332,332251,2,0,P|428:283|423:225,1,105.000004005432,2|0,0:0|0:0,0:0:0:0:
348,136,332567,6,2,B|309:112|309:112|289:52,1,105.000004005432,2|2,0:0|0:0,0:0:0:0:
424,68,332882,2,0,B|462:91|462:91|482:151,1,105.000004005432,0|2,0:0|0:0,0:0:0:0:
492,160,333198,1,0,0:0:0:0:
312,228,333408,1,2,0:0:0:0:
280,224,333513,1,0,0:0:0:0:
244,220,333618,1,2,0:0:0:0:
208,216,333723,1,0,0:0:0:0:
92,260,333934,1,2,0:0:0:0:
76,260,334039,1,0,0:0:0:0:
60,260,334144,1,2,0:0:0:0:
40,272,334249,22,0,P|20:224|28:168,1,105.000004005432,4|2,0:0|0:0,0:0:0:0:
12,156,334564,2,0,L|116:148,1,105.000004005432,0|2,0:0|0:0,0:0:0:0:
292,128,334985,1,0,0:0:0:0:
292,128,335090,2,2,B|272:76|272:76|288:28,1,105.000004005432,0|2,0:0|0:0,0:0:0:0:
400,104,335405,2,0,B|420:156|420:156|404:204,1,105.000004005432,0|2,0:0|0:0,0:0:0:0:
380,324,335721,1,0,0:0:0:0:
356,332,335826,1,0,0:0:0:0:
332,340,335931,6,2,P|296:304|284:244,1,105.000004005432,0|2,0:0|0:0,0:0:0:0:
292,128,336247,2,0,L|188:120,1,105.000004005432,0|2,0:0|0:0,0:0:0:0:
48,56,336667,1,0,0:0:0:0:
36,88,336772,1,0,0:0:0:0:
36,120,336877,1,0,0:0:0:0:
44,152,336982,2,0,P|56:200|36:252,1,105.000004005432,2|0,0:0|0:0,0:0:0:0:
84,316,337298,2,0,B|132:308|132:308|188:336,1,105.000004005432,2|0,0:0|0:0,0:0:0:0:
228,316,337613,21,0,0:0:0:0:
240,292,337718,1,2,0:0:0:0:
248,268,337824,1,0,0:0:0:0:
252,244,337929,1,0,0:0:0:0:
256,216,338034,1,2,0:0:0:0:
364,196,338244,1,0,0:0:0:0:
400,192,338349,1,0,0:0:0:0:
436,188,338454,1,0,0:0:0:0:
476,184,338559,1,2,0:0:0:0:
464,56,338770,1,0,0:0:0:0:
464,56,338875,1,0,0:0:0:0:
336,80,339085,1,2,0:0:0:0:
300,84,339190,1,0,0:0:0:0:
260,88,339295,5,4,0:0:0:0:
36,56,339611,1,4,0:0:0:0:
148,100,339821,1,4,0:0:0:0:
190,223,340031,1,0,0:0:0:0:
169,216,340137,1,0,0:0:0:0:
152,204,340242,1,0,0:0:0:0:
136,188,340347,1,0,0:0:0:0:
126,170,340452,1,0,0:0:0:0:
120,149,340557,1,0,0:0:0:0:
101,136,340662,6,2,P|157:104|177:64,1,105.000004005432,2|0,0:0|0:0,0:0:0:0:
212,60,340978,6,0,B|256:48|256:48|324:68,1,105.000004005432,6|2,0:0|0:0,0:0:0:0:
392,100,341293,2,0,L|456:92,1,52.5000020027161,0|8,0:0|0:0,0:0:0:0:
488,168,341503,2,2,L|368:184,1,105.000004005432,2|0,0:0|0:0,0:0:0:0:
344,248,341819,2,0,P|348:200|320:152,1,105.000004005432,2|2,0:0|0:0,0:0:0:0:
212,172,342134,2,0,P|208:220|236:268,1,105.000004005432,8|10,0:0|0:0,0:0:0:0:
220,304,342449,1,0,0:0:0:0:
180,300,342555,1,0,0:0:0:0:
140,296,342660,5,6,0:0:0:0:
56,128,342870,1,2,0:0:0:0:
56,128,342975,1,8,0:0:0:0:
228,48,343185,2,2,P|280:40|340:0,1,105.000004005432,10|0,0:0|0:0,0:0:0:0:
356,40,343501,2,0,L|364:104,1,52.5000020027161,0|2,0:0|0:0,0:0:0:0:
460,136,343711,2,0,L|468:72,1,52.5000020027161,2|0,0:0|0:0,0:0:0:0:
376,184,343921,2,0,P|324:188|272:228,1,105.000004005432,8|2,0:0|0:0,0:0:0:0:
248,228,344237,1,0,0:0:0:0:
212,240,344342,22,2,P|192:192|204:136,1,105.000004005432,0|2,0:0|0:0,0:0:0:0:
340,112,344762,1,10,0:0:0:0:
340,112,344868,2,2,P|396:100|436:56,1,105.000004005432,0|0,0:0|0:0,0:0:0:0:
308,32,345183,1,0,0:0:0:0:
268,24,345288,1,2,0:0:0:0:
232,40,345393,2,0,P|176:52|136:96,1,105.000004005432,0|10,0:0|0:0,0:0:0:0:
52,320,345814,1,2,0:0:0:0:
96,312,345919,1,0,0:0:0:0:
140,304,346024,6,2,L|260:312,1,105.000004005432,0|2,0:0|0:0,0:0:0:0:
332,208,346339,2,0,L|212:216,1,105.000004005432,8|10,0:0|0:0,0:0:0:0:
156,112,346655,2,0,L|276:120,1,105.000004005432,0|0,0:0|0:0,0:0:0:0:
316,44,346970,1,0,0:0:0:0:
356,64,347075,1,2,0:0:0:0:
400,64,347180,1,0,0:0:0:0:
444,52,347286,1,8,0:0:0:0:
468,232,347496,2,0,L|448:292,1,52.5000020027161,2|0,0:0|0:0,0:0:0:0:
456,312,347706,22,0,P|412:296|352:312,1,105.000004005432,6|2,0:0|0:0,0:0:0:0:
268,328,348022,2,0,B|248:292|248:292|264:208,1,105.000004005432,8|10,0:0|0:0,0:0:0:0:
152,172,348337,2,0,B|172:208|172:208|156:292,1,105.000004005432,0|2,0:0|0:0,0:0:0:0:
148,304,348652,1,0,0:0:0:0:
112,308,348757,1,0,0:0:0:0:
76,312,348863,1,10,0:0:0:0:
32,80,349073,2,0,P|24:56|24:24,2,52.5000020027161,10|0|0,0:0|0:0|0:0,0:0:0:0:
96,120,349388,6,0,P|144:100|216:120,1,105.000004005432,6|2,0:0|0:0,0:0:0:0:
268,160,349704,2,8,P|320:136|352:72,1,105.000004005432,8|10,0:0|0:0,0:0:0:0:
416,320,350124,1,0,0:0:0:0:
416,320,350229,2,0,L|356:312,1,52.5000020027161
272,244,350440,2,0,L|332:236,1,52.5000020027161,2|0,0:0|0:0,0:0:0:0:
404,192,350650,2,2,P|412:136|400:84,1,105.000004005432,8|2,0:0|0:0,0:0:0:0:
408,60,350965,1,0,0:0:0:0:
416,32,351070,22,0,L|304:28,1,105.000004005432,2|0,0:0|0:0,0:0:0:0:
292,48,351386,1,10,0:0:0:0:
84,156,351596,1,8,0:0:0:0:
84,156,351701,2,0,L|196:152,1,105.000004005432,2|0,0:0|0:0,0:0:0:0:
200,180,352017,1,0,0:0:0:0:
208,208,352122,2,0,P|200:260|232:308,1,105.000004005432,2|8,0:0|0:0,0:0:0:0:
408,316,352542,2,0,P|440:308|464:312,1,52.5000020027161,2|0,0:0|0:0,0:0:0:0:
476,280,352753,6,2,P|484:228|452:180,1,105.000004005432,0|2,0:0|0:0,0:0:0:0:
464,88,353068,2,0,B|420:112|420:112|360:100,1,105.000004005432,8|10,0:0|0:0,0:0:0:0:
308,172,353383,1,0,0:0:0:0:
304,204,353489,1,0,0:0:0:0:
300,236,353594,2,0,P|308:264|300:300,1,52.5000020027161,0|2,0:0|0:0,0:0:0:0:
212,260,353804,2,0,P|204:232|212:196,1,52.5000020027161
180,184,354014,1,8,0:0:0:0:
148,164,354119,2,2,B|104:152|104:152|32:176,1,105.000004005432,2|0,0:0|0:0,0:0:0:0:
36,200,354435,22,0,L|24:92,1,105.000004005432,6|2,0:0|0:0,0:0:0:0:
148,20,354750,2,0,L|136:76,1,52.5000020027161,0|8,0:0|0:0,0:0:0:0:
156,88,354960,2,0,P|208:68|260:76,1,105.000004005432,2|0,0:0|0:0,0:0:0:0:
420,136,355276,1,2,0:0:0:0:
412,160,355381,1,0,0:0:0:0:
404,184,355486,1,2,0:0:0:0:
396,208,355591,2,0,L|292:196,1,105.000004005432,8|10,0:0|0:0,0:0:0:0:
164,272,355907,2,0,L|216:264,1,52.5000020027161,0|2,0:0|0:0,0:0:0:0:
292,196,356117,6,0,P|304:140|288:92,1,105.000004005432,4|2,0:0|0:0,0:0:0:0:
290,95,356432,1,8,0:0:0:0:
182,50,356643,2,0,B|138:58|138:58|86:26,1,105.000004005432,10|0,0:0|0:0,0:0:0:0:
40,136,356958,1,0,0:0:0:0:
31,160,357063,1,0,0:0:0:0:
27,185,357168,1,2,0:0:0:0:
30,210,357273,1,0,0:0:0:0:
39,234,357378,1,8,0:0:0:0:
53,255,357484,2,2,L|157:243,1,105.000004005432,0|2,0:0|0:0,0:0:0:0:
224,300,357799,21,0,0:0:0:0:
372,320,358009,1,2,0:0:0:0:
328,184,358220,1,8,0:0:0:0:
180,164,358430,1,2,0:0:0:0:
476,204,358640,1,0,0:0:0:0:
476,204,358745,2,0,P|496:152|488:104,1,105.000004005432,2|2,0:0|0:0,0:0:0:0:
384,88,359061,2,0,P|328:76|292:40,1,105.000004005432,8|2,0:0|0:0,0:0:0:0:
64,88,359481,6,0,L|172:80,1,105.000004005432,2|2,0:0|0:0,0:0:0:0:
272,160,359797,2,0,L|220:164,1,52.5000020027161,0|8,0:0|0:0,0:0:0:0:
196,188,360007,2,0,B|180:236|180:236|204:288,1,105.000004005432,2|0,0:0|0:0,0:0:0:0:
336,344,360322,1,0,0:0:0:0:
356,340,360427,1,0,0:0:0:0:
376,336,360533,1,2,0:0:0:0:
396,332,360638,1,0,0:0:0:0:
416,328,360743,1,0,0:0:0:0:
444,308,360848,2,2,B|464:256|464:256|448:208,1,105.000004005432,10|8,0:0|0:0,0:0:0:0:
372,176,361163,22,0,L|389:72,1,105.000004005432,6|2,0:0|0:0,0:0:0:0:
268,100,361479,2,0,L|250:203,1,105.000004005432,0|10,0:0|0:0,0:0:0:0:
250,203,361794,1,0,0:0:0:0:
136,212,362004,2,0,P|92:188|40:196,1,105.000004005432,2|2,0:0|0:0,0:0:0:0:
80,304,362320,2,0,P|124:328|176:320,1,105.000004005432,8|10,0:0|0:0,0:0:0:0:
272,336,362635,2,0,L|284:284,1,52.5000020027161,0|2,0:0|0:0,0:0:0:0:
272,264,362845,6,0,L|376:260,1,105.000004005432,0|2,0:0|0:0,0:0:0:0:
452,332,363161,1,0,0:0:0:0:
472,332,363266,1,8,0:0:0:0:
492,332,363371,2,0,B|512:292|512:292|500:232,1,105.000004005432,2|0,0:0|0:0,0:0:0:0:
416,152,363687,1,0,0:0:0:0:
398,145,363792,1,0,0:0:0:0:
379,133,363897,1,2,0:0:0:0:
366,118,364002,1,0,0:0:0:0:
357,100,364107,1,8,0:0:0:0:
352,80,364212,2,2,L|248:72,1,105.000004005432,2|0,0:0|0:0,0:0:0:0:
60,88,364528,22,2,B|48:128|48:128|80:188,1,105.000004005432,6|0,0:0|0:0,0:0:0:0:
136,352,364843,2,0,L|164:248,1,105.000004005432,10|0,0:0|0:0,0:0:0:0:
272,180,365158,2,0,P|232:148|180:148,1,105.000004005432,2|2,0:0|0:0,0:0:0:0:
276,292,365579,1,2,0:0:0:0:
276,292,365684,2,0,P|328:280|368:236,1,105.000004005432,8|10,0:0|0:0,0:0:0:0:
456,208,365999,1,0,0:0:0:0:
452,184,366105,1,0,0:0:0:0:
448,160,366210,1,4,0:0:0:0:
452,156,367051,5,0,0:0:0:0:
416,152,367156,1,0,0:0:0:0:
380,148,367261,1,0,0:0:0:0:
344,144,367366,1,0,0:0:0:0:
308,140,367471,1,0,0:0:0:0:
276,164,367576,6,2,P|232:136|212:84,1,105.000004005432,2|0,0:0|0:0,0:0:0:0:
212,88,367892,6,0,L|128:96,1,70,4|2,0:0|2:0,0:0:0:0:
56,232,368312,2,0,L|140:224,1,70,8|2,0:0|2:0,0:0:0:0:
244,268,368733,21,0,0:0:0:0:
244,268,368838,2,0,B|280:252|280:252|332:260,1,83.9999974365235,0|0,2:0|2:0,0:0:0:0:
296,344,369154,2,0,B|260:360|260:360|208:352,1,83.9999974365235,8|2,0:0|2:0,0:0:0:0:
48,220,369574,22,0,P|36:192|48:144,1,70,0|2,0:0|2:0,0:0:0:0:
192,76,369995,2,0,P|200:116|184:156,1,70,8|2,0:0|2:0,0:0:0:0:
204,164,370310,1,0,2:0:0:0:
212,188,370415,6,0,B|256:168|256:168|348:180,1,125.999996154785
408,160,370836,2,0,L|428:64,1,83.9999974365235,8|2,0:0|2:0,0:0:0:0:
296,28,371256,21,0,0:0:0:0:
200,20,371466,1,2,2:0:0:0:
44,112,371677,21,8,0:0:0:0:
140,120,371887,1,2,2:0:0:0:
280,240,372097,21,0,0:0:0:0:
280,240,372202,2,0,P|320:224|376:240,1,83.9999974365235,0|0,2:0|2:0,0:0:0:0:
328,316,372518,2,0,P|288:332|232:316,1,83.9999974365235,8|2,0:0|2:0,0:0:0:0:
56,260,372938,22,0,L|72:336,1,70,0|2,0:0|2:0,0:0:0:0:
196,256,373359,2,0,L|200:184,1,70,8|2,0:0|2:0,0:0:0:0:
192,164,373674,1,0,2:0:0:0:
184,140,373779,6,0,P|244:116|272:52,1,125.999996154785
172,52,374200,2,0,P|124:64|100:92,1,83.9999974365235,8|2,0:0|2:0,0:0:0:0:
48,236,374620,6,0,L|32:168,2,70,0|2|8,0:0|2:0|0:0,0:0:0:0:
132,312,375251,2,0,P|204:296|248:236,1,140,2|2,2:0|2:0,0:0:0:0:
368,264,375882,2,0,B|408:268|408:268|436:304,1,70,8|2,0:0|2:0,0:0:0:0:
396,164,376303,6,0,B|356:160|356:160|328:124,1,70,0|2,0:0|2:0,0:0:0:0:
320,20,376723,1,8,0:0:0:0:
204,60,376933,2,0,B|152:52|152:52|116:64|116:64|60:56,1,140,2|2,2:0|2:0,0:0:0:0:
20,192,377564,1,8,0:0:0:0:
20,192,377774,1,2,2:0:0:0:
84,296,377985,22,0,L|156:284,1,70,0|2,0:0|2:0,0:0:0:0:
248,156,378405,2,0,L|172:148,1,70,8|2,0:0|2:0,0:0:0:0:
284,292,378826,1,0,0:0:0:0:
284,292,378931,1,0,2:0:0:0:
432,340,379141,1,0,2:0:0:0:
432,340,379246,1,8,0:0:0:0:
400,192,379457,1,2,2:0:0:0:
224,48,379667,6,0,P|216:88|228:120,1,70,0|2,0:0|2:0,0:0:0:0:
236,136,379982,1,0,2:0:0:0:
248,156,380087,2,0,L|332:144,1,70,8|2,0:0|2:0,0:0:0:0:
272,280,380508,2,0,L|196:276,1,70,0|2,0:0|2:0,0:0:0:0:
56,232,380929,1,8,0:0:0:0:
56,232,381034,1,0,2:0:0:0:
56,232,381139,1,2,2:0:0:0:
120,140,381349,22,0,L|108:60,1,70,4|2,0:0|2:0,0:0:0:0:
248,120,381770,2,0,L|244:196,1,70,8|2,0:0|2:0,0:0:0:0:
260,204,382085,1,0,0:0:0:0:
276,216,382190,22,0,P|316:204|360:212,1,83.9999974365235,0|2,0:0|2:0,0:0:0:0:
416,308,382611,2,0,P|376:319|334:313,1,83.9999974365235,8|2,0:0|2:0,0:0:0:0:
152,288,383031,22,0,L|84:304,1,70,0|2,0:0|2:0,0:0:0:0:
76,168,383452,2,0,L|148:152,1,70,8|2,0:0|2:0,0:0:0:0:
296,184,383872,5,0,0:0:0:0:
296,184,383977,2,0,B|316:152|316:152|312:104,1,83.9999974365235,0|0,0:0|2:0,0:0:0:0:
328,88,384293,2,0,L|412:80,1,83.9999974365235,8|2,0:0|2:0,0:0:0:0:
448,188,384713,5,0,0:0:0:0:
424,308,384924,1,2,2:0:0:0:
272,308,385134,1,8,0:0:0:0:
296,184,385344,1,2,2:0:0:0:
224,104,385554,22,0,P|161:90|110:53,1,125.999996154785,0|0,0:0|2:0,0:0:0:0:
111,54,385975,2,0,L|24:64,1,83.9999974365235,8|2,0:0|2:0,0:0:0:0:
16,192,386395,22,0,L|88:184,1,70,0|2,0:0|2:0,0:0:0:0:
192,252,386816,2,0,P|192:288|208:320,1,70,8|2,0:0|2:0,0:0:0:0:
220,332,387131,1,0,0:0:0:0:
232,344,387237,6,0,L|316:332,1,83.9999974365235,0|2,0:0|2:0,0:0:0:0:
416,228,387657,2,0,L|332:220,1,83.9999974365235,8|2,0:0|2:0,0:0:0:0:
228,144,388078,5,0,0:0:0:0:
228,144,388183,2,0,P|221:100|216:68,1,70,0|0,0:0|2:0,0:0:0:0:
228,60,388498,2,0,L|156:56,1,70,8|2,0:0|2:0,0:0:0:0:
316,124,388919,2,0,L|464:132,1,140,0|8,0:0|0:0,0:0:0:0:
464,240,389550,1,2,2:0:0:0:
464,240,389760,6,0,P|468:276|452:308,1,70,0|2,0:0|2:0,0:0:0:0:
348,344,390180,2,0,P|333:312|337:278,1,70,8|2,0:0|2:0,0:0:0:0:
276,192,390601,2,0,B|216:196|216:196|196:208|196:208|140:212,1,140,0|8,0:0|0:0,0:0:0:0:
60,276,391232,1,2,2:0:0:0:
60,276,391442,22,0,P|36:228|40:176,1,105,0|0,0:0|2:0,0:0:0:0:
28,164,391862,2,0,L|104:156,1,70,8|0,0:0|2:0,0:0:0:0:
228,212,392283,1,0,0:0:0:0:
224,228,392388,1,0,0:0:0:0:
328,128,392598,1,0,0:0:0:0:
324,112,392704,1,8,0:0:0:0:
448,184,392914,1,2,2:0:0:0:
376,316,393124,6,0,L|341:312,7,35,4|0|0|0|0|0|0|0,0:0|0:0|0:0|0:0|0:0|0:0|0:0|0:0,0:0:0:0:
228,212,393965,2,0,L|272:216,7,35,4|0|0|0|0|0|0|0,0:0|0:0|0:0|0:0|0:0|0:0|0:0|0:0,0:0:0:0:
288,204,394806,22,0,B|276:172|276:172|288:120,1,78.7500030040742
352,48,395227,1,8,0:0:0:0:
352,48,395647,1,0,0:0:0:0:
264,28,395858,2,0,L|200:32,1,52.5000020027161,2|8,2:0|0:0,0:0:0:0:
64,192,396488,6,0,P|52:156|60:116,1,78.7500030040742
140,148,396909,1,8,0:0:0:0:
140,148,397329,2,0,L|196:144,1,52.5000020027161,0|2,0:0|2:0,0:0:0:0:
248,248,397750,2,0,L|192:244,1,52.5000020027161,8|0,0:0|2:0,0:0:0:0:
296,160,398170,22,0,L|384:156,1,78.7500030040742
392,176,398591,2,0,P|376:132|400:64,1,105.000004005432,8|0,0:0|0:0,0:0:0:0:
468,32,399222,1,2,2:0:0:0:
468,32,399432,1,8,0:0:0:0:
280,44,399853,6,0,B|252:32|252:32|180:44,1,78.7500030040742
112,24,400273,1,8,0:0:0:0:
112,24,400694,1,0,0:0:0:0:
52,84,400904,1,2,2:0:0:0:
72,160,401114,1,8,0:0:0:0:
152,188,401325,1,0,2:0:0:0:
136,108,401535,21,0,0:0:0:0:
168,268,401850,1,0,0:0:0:0:
168,268,401955,2,0,L|292:256,1,105.000004005432,8|0,0:0|0:0,0:0:0:0:
376,312,402586,1,2,2:0:0:0:
376,312,402796,1,8,0:0:0:0:
456,140,403217,6,0,P|464:100|452:64,1,78.7500030040742
460,44,403637,1,8,0:0:0:0:
248,72,404058,2,0,P|220:64|192:64,1,52.5000020027161,0|2,0:0|2:0,0:0:0:0:
220,160,404479,2,0,P|248:168|276:168,1,52.5000020027161,8|0,0:0|2:0,0:0:0:0:
380,108,404899,22,0,P|384:156|380:208,1,78.7500030040742
382,186,405320,1,8,0:0:0:0:
132,276,405740,2,0,P|128:228|132:176,1,78.7500030040742
129,197,406161,1,8,0:0:0:0:
256,56,406581,5,0,0:0:0:0:
408,144,407002,1,8,0:0:0:0:
256,236,407422,1,0,0:0:0:0:
104,144,407843,1,8,0:0:0:0:
256,312,408263,21,4,0:0:0:0:
