osu file format v5

[General]
AudioFilename: Kiss - Rock and Roll All Night.mp3
AudioLeadIn: 0
PreviewTime: -1
Countdown: 1
SampleSet: Normal
StackLeniency: 0.7
Mode: 0
LetterboxInBreaks: 1
EditorBookmarks: 3445,25089,39258,57889,73285,89573,105862,129737

[Metadata]
Title:TAGRock And Roll All Night
Artist:kiss
Creator:zetagod
Version:Rock and Die!
Source:
Tags:

[Difficulty]
HPDrainRate:5
CircleSize:1
OverallDifficulty:7
SliderMultiplier:2.6
SliderTickRate:4

[Events]
//Background and Video events
//Break Periods
2,89439,95929
2,117107,125717
//Storyboard Layer 0 (Background)
//Storyboard Layer 1 (Failing)
//Storyboard Layer 2 (Passing)
//Storyboard Layer 3 (Foreground)
//Storyboard Sound Samples
//Background Colour Transformations
3,100,255,255,0

[TimingPoints]
8020,446.259447992584,4,1,0,75,1

[Colours]
Combo1 : 0,0,0
Combo2 : 0,64,0
Combo3 : 128,0,64
Combo4 : 255,0,0
Combo5 : 0,0,64

[HitObjects]
30,250,3887,2,0,C|452:251,2,390
45,122,5562,1,0
45,122,5897,1,0
45,122,6121,1,0
45,122,6232,1,0
160,123,6568,6,0,C|492:124,3,325
444,254,8689,5,0
366,257,8912,1,0
203,263,9247,1,0
50,274,9693,1,0
256,192,9805,12,0,11592
258,191,11924,5,0
258,191,12147,1,0
138,333,12594,5,0
353,332,13040,1,0
82,200,13263,6,0,C|432:199,1,325
464,179,14156,5,0
464,179,14379,1,0
325,104,14713,1,0
325,104,14825,1,0
164,110,15048,1,0
164,110,15271,1,0
70,120,15717,1,0
83,274,17056,5,0
83,274,17279,1,0
83,274,17391,1,0
158,282,17614,1,0
158,282,17837,1,0
158,282,18060,1,0
158,282,18283,1,0
248,282,18507,1,0
331,220,18841,1,0
391,316,19176,1,0
101,121,20514,5,0
208,128,20849,1,0
208,128,21072,1,0
398,127,21519,1,0
68,319,22300,5,0
151,310,22634,1,0
365,291,23081,1,0
365,291,23304,2,0,C|34:27,1,390
238,194,24531,5,0
107,297,25089,1,0
117,135,25535,1,0
117,135,25981,1,0
117,135,26093,1,0
117,135,26205,1,0
117,135,26316,1,0
45,129,26428,2,0,C|44:354,1,195
95,288,27097,5,0
220,205,27543,1,0
220,205,27766,1,0
288,163,27990,1,0
288,163,28213,1,0
348,110,28436,1,0
348,110,28659,1,0
450,58,29105,1,0
451,81,29217,1,0
441,241,29886,2,0,C|327:321,1,130
322,325,30332,5,0
256,262,30444,1,0
256,262,30667,1,0
138,256,30889,1,0
181,172,31113,1,0
260,91,31336,1,0
346,144,31560,1,0
393,196,31671,1,0
417,315,32118,1,0
257,340,32452,1,0
79,71,33233,2,0,C|84:303,1,195
97,327,33903,5,0
194,244,34237,1,0
315,142,34460,1,0
93,42,34795,1,0
431,90,35464,5,0
419,243,35799,1,0
257,269,36245,1,0
164,189,36469,1,0
254,193,37026,5,0
254,193,37138,1,0
254,193,37696,1,0
255,193,38365,1,0
255,193,38700,1,0
255,193,39146,1,0
255,193,39369,1,0
123,327,39704,6,0,C|470:327,1,325
448,327,40373,5,0
448,327,40596,1,0
442,207,40820,1,0
442,207,41266,1,0
398,116,41489,5,0
286,110,42047,1,0
286,110,42270,1,0
150,113,42493,5,0
150,113,42939,1,0
150,113,43051,1,0
162,190,45840,5,0
207,190,45952,1,0
256,192,46063,1,0
314,192,46175,1,0
379,193,46286,1,0
256,192,46398,12,0,49633
158,200,50414,5,0
199,249,50637,1,0
253,205,50860,1,0
427,53,51530,2,0,C|430:374,1,260
268,321,52422,5,0
106,318,52869,1,0
30,122,53761,6,0,C|497:126,1,455
484,125,54765,1,0
484,125,54988,1,0
484,125,55211,1,0
484,125,55546,1,0
422,313,55992,5,0
121,122,56327,5,0
192,207,56773,1,0
124,267,56996,1,0
119,277,58447,5,0
173,228,58670,1,0
112,184,58893,1,0
187,153,59116,1,0
258,153,59339,1,0
315,153,59562,1,0
281,225,59786,1,0
37,300,60343,6,0,C|441:306,2,390
64,177,62017,5,0
143,173,62352,1,0
143,173,62575,1,0
445,71,62909,6,0,C|115:308,1,390
128,298,63690,5,0
74,225,63802,1,0
125,157,64025,1,0
125,157,64248,1,0
267,167,64471,1,0
351,163,64694,1,0
453,161,64918,1,0
417,313,65141,5,0
318,304,65364,5,0
195,294,65587,1,0
61,104,66814,5,0
61,104,67037,1,0
127,107,67260,1,0
127,107,67372,1,0
217,113,67707,1,0
217,113,67930,1,0
328,115,68153,1,0
321,247,68599,1,0
166,241,69045,1,0
45,119,70273,5,0
45,119,70719,1,0
114,116,70942,1,0
301,110,71500,5,0
386,313,72058,1,0
236,313,72392,1,0
106,287,72839,1,0
95,189,73062,1,0
142,89,73731,1,0
143,84,74289,5,0
199,194,74959,1,0
292,80,75293,1,0
411,83,75739,1,0
432,47,75851,1,0
444,83,75962,1,0
444,83,75963,1,0
368,321,76967,5,0
136,316,77413,1,0
113,273,77636,1,0
118,131,77859,1,0
152,94,78082,1,0
326,93,78305,1,0
325,95,78417,1,0
326,91,78528,1,0
326,93,78640,1,0
319,322,80425,5,0
280,297,80537,1,0
125,150,80760,1,0
144,170,80871,1,0
375,126,81206,1,0
117,318,81652,5,0
251,198,81987,1,0
403,67,82433,1,0
287,329,83548,5,0
294,220,83772,1,0
174,75,84107,1,0
131,127,84330,1,0
66,249,84776,2,0,C|483:245,1,390
430,205,85780,5,0
348,134,86226,1,0
347,69,86450,2,0,C|16:69,1,325
22,69,87119,1,0
18,296,87677,1,0
382,320,88346,1,0
375,56,88681,1,0
246,152,89016,1,0
244,181,89239,1,0
41,193,96379,6,0,C|483:193,2,390
41,193,97941,1,0
37,259,98052,5,0
41,323,98164,5,0
92,321,98387,1,0
201,320,98833,1,0
368,320,99280,1,0
313,53,99614,1,0
126,270,101734,1,0
173,239,101901,1,0
129,211,102124,1,0
180,186,102348,1,0
228,223,102571,1,0
236,172,102794,1,0
279,214,103017,1,0
436,196,103631,5,0
59,291,104412,5,0
59,102,104635,5,0
242,96,104858,5,0
311,97,105081,1,0
465,93,105416,1,0
450,252,105862,5,0
289,251,106308,1,0
250,250,106754,5,0
250,250,106977,1,0
77,251,108316,5,0
92,196,108539,1,0
135,236,108762,1,0
148,178,108985,1,0
184,218,109208,1,0
203,158,109432,1,0
238,202,109655,1,0
439,190,110324,5,0
77,238,111105,5,0
103,191,111329,1,0
131,239,111552,1,0
171,188,111775,1,0
318,196,112110,1,0
433,60,112556,5,0
422,305,112890,1,0
327,310,113337,1,0
327,310,113560,1,0
80,287,115010,5,0
36,247,115178,1,0
98,226,115401,1,0
58,186,115624,1,0
113,170,115847,1,0
73,134,116070,1,0
134,114,116293,1,0
258,192,116907,5,0
115,274,126167,5,0
223,265,126725,1,0
323,191,127171,1,0
112,70,127729,5,0
192,162,128398,1,0
243,228,128844,1,0
243,228,128956,1,0
297,301,129179,1,0
297,301,129402,1,0
256,196,129960,5,0
252,198,132749,5,0
121,185,134757,1,0
158,145,134980,1,0
197,114,135203,1,0
236,75,135427,1,0
285,110,135650,1,0
317,167,135873,1,0
478,282,136654,2,0,C|6:282,1,455
38,198,137546,1,0
135,104,137881,5,0
190,101,137993,1,0
311,105,138439,1,0
426,318,138885,1,0
262,323,139331,1,0
53,309,139666,1,0
63,272,139889,1,0
157,61,141228,5,0
214,98,141451,1,0
133,139,141674,1,0
204,169,141897,1,0
107,203,142120,1,0
166,234,142343,1,0
112,271,142566,1,0
257,187,143125,5,0
256,192,143236,12,0,147922
257,143,148145,5,0
310,206,148368,1,0
249,255,148591,1,0
202,193,148814,1,0
256,203,149037,1,0
256,203,149261,1,0
255,200,149818,5,0
350,263,150599,5,0
327,195,150823,1,0
288,134,151046,1,0
213,128,151269,1,0
103,213,151715,1,0
196,341,152161,1,0
253,186,152608,5,0
396,257,154616,1,0
412,186,154839,1,0
348,215,155062,1,0
356,137,155285,1,0
297,171,155508,1,0
291,99,155731,1,0
238,140,155955,1,0
256,194,156512,5,0
138,255,157292,1,0
138,255,157404,1,0
138,255,157516,1,0
138,255,157740,1,0
133,163,157963,5,0
133,163,158074,1,0
132,69,158409,1,0
401,69,158744,5,0
37,344,159079,1,0
348,279,161198,5,0
348,279,161310,1,0
246,305,161421,5,0
246,305,161533,1,0
147,246,161756,5,0
147,246,161867,1,0
147,246,161979,1,0
147,246,162091,1,0
147,246,162202,1,0
147,246,162314,1,0
256,191,162425,5,0
