osu file format v12

[General]
AudioFilename: kirina - ------The ONE- ----.mp3
AudioLeadIn: 0
PreviewTime: -1
Countdown: 0
SampleSet: Soft
StackLeniency: 0.7
Mode: 0
LetterboxInBreaks: 1
WidescreenStoryboard: 0

[Editor]
DistanceSpacing: 1.7
BeatDivisor: 4
GridSize: 8

[Metadata]
Title:The ONE
TitleUnicode:The ONE
Artist:kirina
ArtistUnicode:kirina
Creator:Decay
Version:Insane
Source:
Tags:
BeatmapID:351038
BeatmapSetID:140580

[Difficulty]
HPDrainRate:8
CircleSize:4
OverallDifficulty:8
ApproachRate:9
SliderMultiplier:0.999999999999999
SliderTickRate:1

[Events]
//Background and Video events
//Break Periods
//Storyboard Layer 0 (Background)
//Storyboard Layer 1 (Fail)
//Storyboard Layer 2 (Pass)
//Storyboard Layer 3 (Foreground)
//Storyboard Sound Samples
//Background Colour Transformations
3,100,163,162,255

[TimingPoints]
704,545.454545454546,4,2,0,100,1,0
63976,272.727272727273,4,2,0,100,1,0
63976,-50,4,2,0,100,0,0

[HitObjects]
256,192,63431,1,0,0:0:0:0:
136,88,63976,2,0,P|64:144|56:192,1,99.9999999999999
160,176,64248,1,0,0:0:0:0:
256,136,64385,2,0,P|224:96|152:96,1,99.9999999999999
160,176,64657,1,0,0:0:0:0:
112,256,64794,2,0,P|152:296|208:296,1,99.9999999999999
320,288,65066,1,0,0:0:0:0:
416,320,65203,1,0,0:0:0:0:
344,240,65339,1,0,0:0:0:0:
440,240,65476,1,0,0:0:0:0:
408,160,65612,2,0,P|416:96|384:64,1,99.9999999999999
312,112,65885,1,0,0:0:0:0:
312,112,66021,1,0,0:0:0:0:
208,80,66157,2,0,P|184:152|208:192,1,99.9999999999999
244,337,66430,2,0,P|272:256|256:224,1,99.9999999999999
104,224,66703,2,0,L|88:112,1,99.9999999999999
224,240,66976,2,0,L|248:352,1,99.9999999999999
376,240,67248,2,0,P|432:208|456:152,1,99.9999999999999
272,88,67521,2,0,P|208:88|168:128,1,99.9999999999999
256,184,67794,1,0,0:0:0:0:
256,184,67930,1,0,0:0:0:0:
328,304,68066,1,0,0:0:0:0:
328,304,68203,1,0,0:0:0:0:
336,152,68339,2,0,P|360:88|352:48,1,99.9999999999999
208,240,68612,2,0,P|184:296|200:352,1,99.9999999999999
80,168,68885,2,0,L|80:272,1,99.9999999999999
200,192,69157,2,0,L|208:72,1,99.9999999999999
312,144,69430,1,0,0:0:0:0:
368,232,69566,1,0,0:0:0:0:
312,144,69703,2,0,L|256:56,1,99.9999999999999
280,256,69976,2,0,L|336:344,1,99.9999999999999
384,184,70248,2,0,L|464:120,1,99.9999999999999
216,176,70521,2,0,L|120:240,1,99.9999999999999
48,184,70794,2,0,P|48:96|80:72,1,99.9999999999999
184,56,71066,2,0,P|208:112|184:168,1,99.9999999999999
288,288,71339,2,0,P|272:224|288:176,1,99.9999999999999
432,168,71612,2,0,P|464:224|440:256,1,99.9999999999999
352,216,71885,1,0,0:0:0:0:
256,216,72021,1,0,0:0:0:0:
176,264,72157,2,0,P|144:216|168:168,1,99.9999999999999
240,136,72430,1,0,0:0:0:0:
240,136,72566,1,0,0:0:0:0:
344,128,72703,2,0,P|376:64|416:40,2,99.9999999999999
288,216,73112,1,0,0:0:0:0:
192,296,73248,2,0,P|136:256|104:216,1,99.9999999999999
104,136,73521,1,0,0:0:0:0:
184,56,73657,2,0,L|240:152,1,99.9999999999999
392,200,73930,2,0,L|328:120,1,99.9999999999999
208,216,74203,1,0,0:0:0:0:
96,88,74339,2,0,L|216:96,1,99.9999999999999
384,288,74612,2,0,L|272:264,1,99.9999999999999
168,288,74885,1,0,0:0:0:0:
168,288,75021,1,0,0:0:0:0:
384,64,75157,2,0,L|312:152,1,99.9999999999999
136,240,75430,2,0,L|216:160,1,99.9999999999999
232,80,75703,1,0,0:0:0:0:
336,128,75839,2,0,P|352:208|304:328,1,200
264,224,76248,2,0,P|192:272|80:288,1,200
104,176,76657,1,0,0:0:0:0:
232,80,76794,1,0,0:0:0:0:
336,184,76930,1,0,0:0:0:0:
400,304,77066,2,0,L|288:320,1,99.9999999999999
312,256,77339,2,0,L|192:256,1,99.9999999999999
232,160,77612,2,0,L|136:128,1,99.9999999999999
312,120,77885,2,0,L|240:24,1,99.9999999999999
192,320,78157,2,0,L|320:336,1,99.9999999999999
248,208,78430,2,0,L|360:192,1,99.9999999999999
128,104,78703,2,0,L|176:16,1,99.9999999999999
56,232,78976,2,0,L|8:128,1,99.9999999999999
152,280,79248,2,0,L|48:320,2,99.9999999999999
264,272,79657,1,0,0:0:0:0:
344,288,79794,2,0,L|464:344,2,99.9999999999999
264,208,80203,1,0,0:0:0:0:
208,152,80339,2,0,L|104:200,2,99.9999999999999
272,96,80748,1,0,0:0:0:0:
376,96,80885,1,0,0:0:0:0:
432,184,81021,1,0,0:0:0:0:
416,272,81157,1,0,0:0:0:0:
344,328,81294,1,0,0:0:0:0:
176,272,81430,2,0,L|104:192,1,99.9999999999999
192,96,81703,2,0,L|264:176,1,99.9999999999999
328,256,81976,1,0,0:0:0:0:
208,352,82112,1,0,0:0:0:0:
168,184,82248,1,0,0:0:0:0:
328,256,82385,1,0,0:0:0:0:
392,160,82521,2,0,P|440:208|440:264,1,99.9999999999999
312,64,82794,2,0,P|272:112|264:168,1,99.9999999999999
216,240,83066,1,0,0:0:0:0:
104,288,83203,1,0,0:0:0:0:
56,128,83339,2,0,L|88:32,1,99.9999999999999
248,80,83612,2,0,L|208:192,1,99.9999999999999
304,232,83885,1,0,0:0:0:0:
128,224,84021,1,0,0:0:0:0:
440,160,84157,2,0,L|384:248,1,99.9999999999999
440,328,84430,1,0,0:0:0:0:
256,328,84566,1,0,0:0:0:0:
192,184,84703,2,0,L|248:88,1,99.9999999999999
400,248,84976,2,0,L|352:336,1,99.9999999999999
128,280,85248,2,0,L|48:208,1,99.9999999999999
296,56,85521,2,0,L|376:128,1,99.9999999999999
288,200,85794,1,0,0:0:0:0:
232,280,85930,1,0,0:0:0:0:
176,160,86066,1,0,0:0:0:0:
288,200,86203,1,0,0:0:0:0:
384,224,86339,2,0,P|408:136|384:32,1,200
128,72,86748,2,0,P|96:176|96:280,1,200
232,280,87157,1,0,0:0:0:0:
312,144,87294,1,0,0:0:0:0:
384,40,87430,2,0,P|432:144|424:272,1,200
152,312,87839,2,0,P|112:176|160:88,1,200
224,72,88248,1,0,0:0:0:0:
264,200,88385,1,0,0:0:0:0:
168,200,88521,2,0,L|208:304,1,99.9999999999999
224,72,88794,1,0,0:0:0:0:
264,200,88930,1,0,0:0:0:0:
360,272,89066,2,0,L|440:184,1,99.9999999999999
296,128,89339,2,0,L|216:208,1,99.9999999999999
408,328,89612,2,0,L|504:240,1,99.9999999999999
184,112,89885,2,0,L|104:192,1,99.9999999999999
304,200,90157,2,0,P|392:192|416:152,2,99.9999999999999
256,104,90566,1,0,0:0:0:0:
112,144,90703,2,0,P|80:200|88:256,1,99.9999999999999
192,256,90976,1,0,0:0:0:0:
288,304,91112,1,0,0:0:0:0:
400,248,91248,2,0,P|432:192|432:144,1,99.9999999999999
304,160,91521,1,0,0:0:0:0:
208,96,91657,1,0,0:0:0:0:
288,304,91794,2,0,P|336:272|352:216,1,99.9999999999999
272,200,92066,1,0,0:0:0:0:
136,144,92203,1,0,0:0:0:0:
112,288,92339,2,0,P|168:320|216:304,1,99.9999999999999
200,224,92612,1,0,0:0:0:0:
48,216,92748,1,0,0:0:0:0:
64,64,92885,2,0,L|168:64,1,99.9999999999999
432,152,93157,2,0,L|304:152,1,99.9999999999999
208,336,93430,2,0,L|312:336,1,99.9999999999999
200,184,93703,2,0,L|96:184,1,99.9999999999999
256,104,93976,1,0,0:0:0:0:
312,224,94112,1,0,0:0:0:0:
168,200,94248,1,0,0:0:0:0:
256,104,94385,1,0,0:0:0:0:
376,72,94521,2,0,P|416:128|424:184,1,99.9999999999999
232,264,94794,2,0,L|352:264,1,99.9999999999999
232,264,95066,1,0,0:0:0:0:
176,160,95203,1,0,0:0:0:0:
304,160,95339,2,0,L|416:160,1,99.9999999999999
184,112,95612,2,0,P|224:176|224:232,1,99.9999999999999
112,272,95885,2,0,L|240:272,1,99.9999999999999
112,272,96157,1,0,0:0:0:0:
64,160,96294,1,0,0:0:0:0:
192,192,96430,2,0,L|296:192,1,99.9999999999999
424,64,96703,2,0,P|456:184|448:288,1,200
304,288,97112,1,0,0:0:0:0:
120,304,97248,2,0,P|80:160|112:80,1,200
248,80,97657,1,0,0:0:0:0:
368,144,97794,2,0,L|352:280,1,99.9999999999999
112,232,98066,2,0,L|144:136,1,99.9999999999999
304,288,98339,2,0,L|200:344,1,99.9999999999999
192,88,98612,2,0,L|312:96,1,99.9999999999999
256,200,98885,1,0,0:0:0:0:
